<svg xmlns="http://www.w3.org/2000/svg">
<defs>
<font id="Lato-Bold" horiz-adv-x="800" >
  <font-face 
    font-family="Lato"
    font-weight="700"
    font-stretch="normal"
    units-per-em="2000"
    panose-1="2 15 5 2 2 2 4 3 2 3"
    ascent="1610"
    descent="-390"
    x-height="1026"
    cap-height="1446"
    bbox="-1206 -570 2688 2199"
    underline-thickness="99"
    underline-position="-412"
    unicode-range="U+0020-U+FEFF"
  />
<missing-glyph horiz-adv-x="1094" 
d="M239 1147c38 30.667 81.167 56.499 129.5 77.499s105.5 31.5 171.5 31.5c46.667 0 88.667 -6.33301 126 -19s69 -30.5 95 -53.5s45.833 -50.667 59.5 -83s20.5 -68.166 20.5 -107.499c0 -36.667 -4.66699 -68.167 -14 -94.5s-21 -49.333 -35 -69s-29.333 -36.5 -46 -50.5
l-48 -39.5c-15.333 -12.333 -28.833 -24.5 -40.5 -36.5s-19.167 -25.333 -22.5 -40l-22 -96h-169l-17 114c-4 24.667 -2.16699 45.834 5.5 63.501s18.334 33.667 32.001 48s29 27.666 46 39.999s33 25.333 48 39s27.667 29 38 46s15.5 37.167 15.5 60.5s-8 42.333 -24 57
s-39.333 22 -70 22c-24 0 -44.167 -2.33301 -60.5 -7s-30.5 -9.66699 -42.5 -15s-22.5 -10.333 -31.5 -15s-18.5 -7 -28.5 -7c-22.667 0 -39.334 9.66699 -50.001 29zM385 312.999c0 18.667 3.5 36.334 10.5 53.001s16.5 31.167 28.5 43.5s26.333 22 43 29
s34.667 10.5 54 10.5c18.667 0 36.167 -3.5 52.5 -10.5s30.666 -16.667 42.999 -29s22 -26.833 29 -43.5s10.5 -34.334 10.5 -53.001c0 -19.333 -3.5 -37.166 -10.5 -53.499s-16.667 -30.5 -29 -42.5s-26.666 -21.5 -42.999 -28.5s-33.833 -10.5 -52.5 -10.5
c-19.333 0 -37.333 3.5 -54 10.5s-31 16.5 -43 28.5s-21.5 26.167 -28.5 42.5s-10.5 34.166 -10.5 53.499zM42 1446h1010v-1446h-1010v1446zM107 68.999h873v1309h-873v-1309z" />
    <glyph glyph-name="uniFB00" unicode="ff" horiz-adv-x="1365" 
d="M194 0l0.00292969 839.998l-89 14c-19.333 4 -34.833 10.833 -46.5 20.5s-17.5 23.5 -17.5 41.5v101h153v58c0 58.667 8.83301 111.334 26.5 158.001s43 86.334 76 119.001s73.167 57.667 120.5 75s100.666 26 159.999 26c47.333 0 91.333 -6.33301 132 -19l-5 -123
c-0.666992 -9.33301 -3.33398 -17 -8.00098 -23s-10.834 -10.5 -18.501 -13.5s-16.5 -5 -26.5 -6s-20.667 -1.5 -32 -1.5c-29.333 0 -55.5 -3.16699 -78.5 -9.5s-42.5 -17.333 -58.5 -33s-28.167 -36.334 -36.5 -62.001s-12.5 -57.5 -12.5 -95.5v-50h409v91
c0 58.667 8.83301 111.334 26.5 158.001s43 86.334 76 119.001s73.167 57.667 120.5 75s100.666 26 159.999 26c23.333 0 45.833 -1.5 67.5 -4.5s43.167 -7.5 64.5 -13.5l-6 -124c-1.33301 -19.333 -10.166 -31.5 -26.499 -36.5s-35.5 -7.5 -57.5 -7.5
c-29.333 0 -55.5 -3.16699 -78.5 -9.5s-42.5 -17.333 -58.5 -33s-28.167 -36.334 -36.5 -62.001s-12.5 -57.5 -12.5 -95.5v-83h266v-176h-258v-841h-247v841h-401v-841h-247z" />
    <glyph glyph-name="uniFB01" unicode="fi" horiz-adv-x="1201" 
d="M195 0l0.000976562 840l-89 14c-19.333 4 -34.833 10.833 -46.5 20.5s-17.5 23.5 -17.5 41.5v101h153v33c0 62.667 10.333 120.834 31 174.501s52 100.167 94 139.5s95.167 70.166 159.5 92.499s140.166 33.5 227.499 33.5c28 0 56.5 -1.5 85.5 -4.5
s54.167 -7.83301 75.5 -14.5l-8 -128c-1.33301 -15.333 -9.66602 -24.5 -24.999 -27.5s-34.333 -4.5 -57 -4.5c-64.667 0 -118.834 -5.66699 -162.501 -17s-79 -28.166 -106 -50.499s-46.333 -50.333 -58 -84s-17.5 -72.834 -17.5 -117.501v-25h636v-1017h-247v841h-381
v-841h-247z" />
    <glyph glyph-name="uniFB02" unicode="fl" horiz-adv-x="1224" 
d="M195 0l0.000976562 840.002l-89 14c-19.333 4 -34.833 10.833 -46.5 20.5s-17.5 23.5 -17.5 41.5v101h153v43c0 54.667 8.66699 107 26 157s43.666 94.167 78.999 132.5s80 69 134 92s117.667 34.5 191 34.5c56.667 0 110.167 -1.83301 160.5 -5.5
s100.5 -5.83398 150.5 -6.50098h163v-1464h-246v1292c-35.333 1.33301 -69.833 3 -103.5 5s-62.167 3 -85.5 3c-74.667 0 -131.667 -20.833 -171 -62.5s-59 -100.834 -59 -177.501v-43h243v-176h-235v-841h-247z" />
    <glyph glyph-name="uniFB03" unicode="ffi" horiz-adv-x="1849" 
d="M195 0l0.000976562 839.999l-89 14c-19.333 4 -34.833 10.833 -46.5 20.5s-17.5 23.5 -17.5 41.5v101h153v58c0 58.667 8.83301 111.334 26.5 158.001s43 86.334 76 119.001s73.167 57.667 120.5 75s100.666 26 159.999 26c46.667 0 90.334 -6.33301 131.001 -19l-5 -123
c-1.33301 -19.333 -10.166 -31.5 -26.499 -36.5s-35.5 -7.5 -57.5 -7.5c-29.333 0 -55.5 -3.16699 -78.5 -9.5s-42.5 -17.333 -58.5 -33s-28.167 -36.334 -36.5 -62.001s-12.5 -57.5 -12.5 -95.5v-50h408v33c0 62.667 10.333 120.834 31 174.501s52 100.167 94 139.5
s95.167 70.166 159.5 92.499s140.166 33.5 227.499 33.5c28 0 56.667 -1.5 86 -4.5s54.666 -7.83301 75.999 -14.5l-8 -128c-1.33301 -15.333 -9.66602 -24.5 -24.999 -27.5s-34.333 -4.5 -57 -4.5c-64.667 0 -118.834 -5.66699 -162.501 -17s-79 -28.166 -106 -50.499
s-46.333 -50.333 -58 -84s-17.5 -72.834 -17.5 -117.501v-25h636v-1017h-247v841h-381v-841h-248v841h-400v-841h-247z" />
    <glyph glyph-name="uniFB04" unicode="ffl" horiz-adv-x="1871" 
d="M194 0l0.00292969 840l-89 14c-19.333 4 -34.833 10.833 -46.5 20.5s-17.5 23.5 -17.5 41.5v101h153v58c0 58.667 8.83301 111.334 26.5 158.001s43 86.334 76 119.001s73.167 57.667 120.5 75s100.666 26 159.999 26c47.333 0 91.333 -6.33301 132 -19l-5 -123
c-0.666992 -9.33301 -3.33398 -17 -8.00098 -23s-10.834 -10.5 -18.501 -13.5s-16.5 -5 -26.5 -6s-20.667 -1.5 -32 -1.5c-29.333 0 -55.5 -3.16699 -78.5 -9.5s-42.5 -17.333 -58.5 -33s-28.167 -36.334 -36.5 -62.001s-12.5 -57.5 -12.5 -95.5v-50h409v43
c0 54.667 8.66699 107 26 157s43.666 94.167 78.999 132.5s80 69 134 92s117.667 34.5 191 34.5c60.667 0 118.334 -2 173.001 -6s109 -6 163 -6h138v-1464h-246v1292c-35.333 1.33301 -69.833 3 -103.5 5s-62.167 3 -85.5 3c-74.667 0 -131.667 -20.833 -171 -62.5
s-59 -100.834 -59 -177.501v-43h266v-176h-258v-841h-247v841h-401v-841h-247z" />
    <glyph glyph-name="f_b.liga" unicode="fb" horiz-adv-x="1867" 
d="M1101 900c41.333 43.333 87.1631 77.833 137.496 103.5s107.833 38.5 172.5 38.5c59.333 0 112.833 -11.667 160.5 -35s88.334 -56.833 122.001 -100.5s59.5 -96.5 77.5 -158.5s27 -131.667 27 -209c0 -83.333 -10.333 -159 -31 -227s-50.167 -126.167 -88.5 -174.5
s-84.5 -85.833 -138.5 -112.5s-114 -40 -180 -40c-32 0 -61 3.16699 -87 9.5s-50 15.166 -72 26.499s-42.167 25.166 -60.5 41.499s-35.833 34.5 -52.5 54.5l-11 -69c-4 -17.333 -10.833 -29.666 -20.5 -36.999s-22.834 -11 -39.501 -11h-163v1320
c-25.333 8.66699 -52.166 15.834 -80.499 21.501s-55.833 8.5 -82.5 8.5c-42.667 0 -80.167 -6.66699 -112.5 -20s-59.166 -31.833 -80.499 -55.5s-37.5 -51.667 -48.5 -84s-16.5 -67.5 -16.5 -105.5v-68h267v-176h-259v-841h-247v840l-89 14
c-19.333 4 -34.833 10.833 -46.5 20.5s-17.5 23.5 -17.5 41.5v101h153v68c0 61.333 9.5 118 28.5 170s49 96.833 90 134.5s93.833 67.167 158.5 88.5s143 32 235 32c31.333 0 61 -1.16699 89 -3.5s56.333 -5 85 -8s58.834 -5.66699 90.501 -8s66.834 -3.83301 105.501 -4.5
h25v-586zM1101 266c28 -34 58.501 -58 91.501 -72s67.833 -21 104.5 -21c38 0 72.167 6.83301 102.5 20.5s56.166 35 77.499 64s37.666 66 48.999 111s17 98.833 17 161.5c0 112.667 -18.667 194.167 -56 244.5s-91 75.5 -161 75.5
c-47.333 0 -88.666 -10.833 -123.999 -32.5s-69 -52.167 -101 -91.5v-460z" />
    <glyph glyph-name="f_f_b.liga" unicode="ffb" horiz-adv-x="2515" 
d="M194 0l0.00390625 839.999l-89 14c-19.333 4 -34.833 10.833 -46.5 20.5s-17.5 23.5 -17.5 41.5v101h153v58c0 58.667 8.83301 111.334 26.5 158.001s43 86.334 76 119.001s73.167 57.667 120.5 75s100.666 26 159.999 26c47.333 0 91.333 -6.33301 132 -19l-5 -123
c-0.666992 -9.33301 -3.33398 -17 -8.00098 -23s-10.834 -10.5 -18.501 -13.5s-16.5 -5 -26.5 -6s-20.667 -1.5 -32 -1.5c-29.333 0 -55.5 -3.16699 -78.5 -9.5s-42.5 -17.333 -58.5 -33s-28.167 -36.334 -36.5 -62.001s-12.5 -57.5 -12.5 -95.5v-50h409v68
c0 61.333 9.5 118 28.5 170s49 96.833 90 134.5s93.833 67.167 158.5 88.5s143 32 235 32c33.333 0 64.5 -1.33301 93.5 -4l89 -8.5c30.333 -3 62.5 -5.66699 96.5 -8s72.667 -3.5 116 -3.5l-1 -1v-585c41.333 43.333 87.166 77.833 137.499 103.5s107.833 38.5 172.5 38.5
c59.333 0 112.833 -11.667 160.5 -35s88.334 -56.833 122 -100.5c33.667 -43.667 59.5 -96.5 77.5 -158.5s27 -131.667 27 -209c0 -83.333 -10.333 -159 -31 -227s-50.167 -126.167 -88.5 -174.5s-84.5 -85.833 -138.5 -112.5s-114 -40 -180 -40c-32 0 -61 3.16699 -87 9.5
s-50 15.166 -72 26.499s-42.167 25.166 -60.5 41.499s-35.833 34.5 -52.5 54.5l-11 -69c-4 -17.333 -10.833 -29.666 -20.5 -36.999s-22.834 -11 -39.501 -11h-163v1320c-25.333 8.66699 -52 15.834 -80 21.501s-55.333 8.5 -82 8.5c-42.667 0 -80.167 -6.66699 -112.5 -20
s-59.166 -31.833 -80.499 -55.5s-37.5 -51.667 -48.5 -84s-16.5 -67.5 -16.5 -105.5v-68h266v-176h-258v-841h-247v841h-401v-841h-247zM1748 265.999c28 -34 58.5 -58 91.5 -72s67.833 -21 104.5 -21c38 0 72.167 6.83301 102.5 20.5s56.166 35 77.5 64
c21.333 29 37.666 66 48.999 111s17 98.833 17 161.5c0 112.667 -18.667 194.167 -56 244.5s-91 75.5 -161 75.5c-47.333 0 -88.666 -10.833 -123.999 -32.5s-69 -52.167 -101 -91.5v-460z" />
    <glyph glyph-name="f_h.liga" unicode="fh" horiz-adv-x="1860" 
d="M194 0l-0.000976562 839.999l-89 14c-19.333 4 -34.833 10.833 -46.5 20.5s-17.5 23.5 -17.5 41.5v101h153v68c0 61.333 9.5 118 28.5 170s49 96.833 90 134.5s93.833 67.167 158.5 88.5s143 32 235 32c33.333 0 64.666 -1.33301 93.999 -4l89.5 -8.5
c30.333 -3 62.5 -5.66699 96.5 -8s72.333 -3.5 115 -3.5v-570c40 37.333 84 67.666 132 90.999s104.333 35 169 35c56 0 105.667 -9.5 149 -28.5s79.5 -45.667 108.5 -80s51 -75.333 66 -123s22.5 -100.167 22.5 -157.5v-653h-247v653c0 62.667 -14.333 111.167 -43 145.5
s-72.334 51.5 -131.001 51.5c-42.667 0 -82.667 -9.66699 -120 -29s-72.666 -45.666 -105.999 -78.999v-742h-247v1320c-25.333 8.66699 -52.166 15.834 -80.499 21.501s-55.833 8.5 -82.5 8.5c-42.667 0 -80.167 -6.66699 -112.5 -20s-59.166 -31.833 -80.499 -55.5
s-37.5 -51.667 -48.5 -84s-16.5 -67.5 -16.5 -105.5v-68h267v-176h-259v-841h-247z" />
    <glyph glyph-name="f_f_h.liga" unicode="ffh" horiz-adv-x="2508" 
d="M194 0l0.00195312 839.998l-89 14c-19.333 4 -34.833 10.833 -46.5 20.5s-17.5 23.5 -17.5 41.5v101h153v58c0 58.667 8.83301 111.334 26.5 158.001s43 86.334 76 119.001s73.167 57.667 120.5 75s100.666 26 159.999 26c47.333 0 91.333 -6.33301 132 -19l-5 -123
c-0.666992 -9.33301 -3.33398 -17 -8.00098 -23s-10.834 -10.5 -18.501 -13.5s-16.5 -5 -26.5 -6s-20.667 -1.5 -32 -1.5c-29.333 0 -55.5 -3.16699 -78.5 -9.5s-42.5 -17.333 -58.5 -33s-28.167 -36.334 -36.5 -62.001s-12.5 -57.5 -12.5 -95.5v-50h409v68
c0 61.333 9.5 118 28.5 170s49 96.833 90 134.5s93.833 67.167 158.5 88.5s143 32 235 32c33.333 0 64.5 -1.33301 93.5 -4l89 -8.5c30.333 -3 62.5 -5.66699 96.5 -8s72.667 -3.5 116 -3.5l-1 -1v-569c40 37.333 84 67.666 132 90.999s104.333 35 169 35
c56 0 105.667 -9.5 149 -28.5s79.5 -45.667 108.5 -80s51 -75.333 66 -123s22.5 -100.167 22.5 -157.5v-653h-247v653c0 62.667 -14.333 111.167 -43 145.5s-72.334 51.5 -131.001 51.5c-42.667 0 -82.667 -9.66699 -120 -29s-72.666 -45.666 -105.999 -78.999v-742h-247
v1320c-25.333 8.66699 -52 15.834 -80 21.501s-55.333 8.5 -82 8.5c-42.667 0 -80.167 -6.66699 -112.5 -20s-59.166 -31.833 -80.499 -55.5s-37.5 -51.667 -48.5 -84s-16.5 -67.5 -16.5 -105.5v-68h266v-176h-258v-841h-247v841h-401v-841h-247z" />
    <glyph glyph-name="f_igrave.liga" unicode="f&#xec;" horiz-adv-x="1201" 
d="M746 1490c46 0 83.002 -7.5 111.002 -22.5s48.667 -34.5 62 -58.5l142 -243h-140c-18.667 0 -33.834 2.5 -45.501 7.5s-23.834 14.167 -36.501 27.5l-104 109c-55.333 -1.33301 -102.166 -8 -140.499 -20s-69.333 -29.167 -93 -51.5s-40.834 -50 -51.501 -83
s-16 -70.833 -16 -113.5v-25h636v-1017h-247v841h-381v-841h-247v840l-89 14c-19.333 4 -34.833 10.833 -46.5 20.5s-17.5 23.5 -17.5 41.5v101h153v33c0 62.667 9.66699 120.834 29 174.501s50.833 100.167 94.5 139.5s100.5 70.166 170.5 92.499s155.667 33.5 257 33.5z
" />
    <glyph glyph-name="f_icircumflex.liga" unicode="f&#xee;" horiz-adv-x="1201" 
d="M195 0v839.999l-89 14c-19.333 4 -34.833 10.833 -46.5 20.5s-17.5 23.5 -17.5 41.5v101h153v117c0 54.667 7 103.334 21 146.001s34.167 78.667 60.5 108s58.833 51.833 97.5 67.5s83 23.5 133 23.5c18 0 34.333 -0.833008 49 -2.5s29 -4.83398 43 -9.50098v-135
c0 -12.667 -5.5 -21.167 -16.5 -25.5s-24.167 -6.5 -39.5 -6.5c-39.333 0 -67.333 -12.667 -84 -38s-25 -67.666 -25 -126.999v-118h636v-1017h-247v841h-381v-841h-247zM1299 1168h-165c-9.33301 0 -18.833 1.83301 -28.5 5.5s-19.167 10.167 -28.5 19.5l-98 104
c-7.33301 6.66699 -14.333 14.667 -21 24c-7.33301 -9.33301 -14.333 -17.333 -21 -24l-100 -104c-8 -8.66699 -17 -15 -27 -19s-20 -6 -30 -6h-171l229 278h232z" />
    <glyph glyph-name="f_itilde.liga" unicode="f&#x129;" horiz-adv-x="1201" 
d="M1054 1359c20 0 35.668 5.50098 47.001 16.501s17 30.833 17 59.5h150c0 -37.333 -5.16699 -71.166 -15.5 -101.499s-24.5 -56.333 -42.5 -78s-39.5 -38.334 -64.5 -50.001s-52.5 -17.5 -82.5 -17.5c-24 0 -46.333 4.33301 -67 13s-40 18 -58 28l-50.5 28
c-15.667 8.66699 -30.167 13 -43.5 13c-19.333 0 -34.5 -5.83301 -45.5 -17.5s-16.5 -31.5 -16.5 -59.5h-153c0 37.333 5.16699 71.166 15.5 101.499s24.833 56.333 43.5 78s40.5 38.5 65.5 50.5s52.167 18 81.5 18c24 0 46.5 -4.33301 67.5 -13s40.5 -18 58.5 -28l50 -28
c15.333 -8.66699 29.666 -13 42.999 -13zM195.001 0.000976562v839.999l-89 14c-19.333 4 -34.833 10.833 -46.5 20.5s-17.5 23.5 -17.5 41.5v101h153v117c0 54.667 7 103.334 21 146.001s34.167 78.667 60.5 108s58.833 51.833 97.5 67.5s83 23.5 133 23.5
c18 0 34.333 -0.833008 49 -2.5s29 -4.83398 43 -9.50098v-135c0 -12.667 -5.5 -21.167 -16.5 -25.5s-24.167 -6.5 -39.5 -6.5c-39.333 0 -67.333 -12.667 -84 -38s-25 -67.666 -25 -126.999v-118h636v-1017h-247v841h-381v-841h-247z" />
    <glyph glyph-name="f_idieresis.liga" unicode="f&#xef;" horiz-adv-x="1201" 
d="M910 1292c0 -18.667 -3.66699 -36.167 -11 -52.5s-17.333 -30.5 -30 -42.5s-27.5 -21.5 -44.5 -28.5s-35.167 -10.5 -54.5 -10.5c-18 0 -35.167 3.5 -51.5 10.5s-30.666 16.5 -42.999 28.5s-22.166 26.167 -29.499 42.5s-11 33.833 -11 52.5
c0 19.333 3.66699 37.5 11 54.5s17.166 31.833 29.499 44.5s26.666 22.667 42.999 30s33.5 11 51.5 11c19.333 0 37.5 -3.66699 54.5 -11s31.833 -17.333 44.5 -30s22.667 -27.5 30 -44.5s11 -35.167 11 -54.5zM1259 1292c0 -18.667 -3.66699 -36.167 -11 -52.5
s-17.166 -30.5 -29.499 -42.5s-27 -21.5 -44 -28.5s-34.833 -10.5 -53.5 -10.5c-19.333 0 -37.333 3.5 -54 10.5s-31.167 16.5 -43.5 28.5s-22.166 26.167 -29.499 42.5s-11 33.833 -11 52.5c0 19.333 3.66699 37.5 11 54.5s17.166 31.833 29.499 44.5
s26.833 22.667 43.5 30s34.667 11 54 11c18.667 0 36.5 -3.66699 53.5 -11s31.667 -17.333 44 -30s22.166 -27.5 29.499 -44.5s11 -35.167 11 -54.5zM195 0v839.999l-89 14c-19.333 4 -34.833 10.833 -46.5 20.5s-17.5 23.5 -17.5 41.5v101h153v117
c0 54.667 7 103.334 21 146.001s34.167 78.667 60.5 108s58.833 51.833 97.5 67.5s83 23.5 133 23.5c18 0 34.333 -0.833008 49 -2.5s29 -4.83398 43 -9.50098v-135c0 -12.667 -5.5 -21.167 -16.5 -25.5s-24.167 -6.5 -39.5 -6.5c-39.333 0 -67.333 -12.667 -84 -38
s-25 -67.666 -25 -126.999v-118h636v-1017h-247v841h-381v-841h-247z" />
    <glyph glyph-name="f_imacron.liga" unicode="f&#x12b;" horiz-adv-x="1201" 
d="M648 1372h598v-158h-598v158zM195 0v839.999l-89 14c-19.333 4 -34.833 10.833 -46.5 20.5s-17.5 23.5 -17.5 41.5v101h153v117c0 54.667 7 103.334 21 146.001s34.167 78.667 60.5 108s58.833 51.833 97.5 67.5s83 23.5 133 23.5c18 0 34.333 -0.833008 49 -2.5
s29 -4.83398 43 -9.50098v-135c0 -12.667 -5.5 -21.167 -16.5 -25.5s-24.167 -6.5 -39.5 -6.5c-39.333 0 -67.333 -12.667 -84 -38s-25 -67.666 -25 -126.999v-118h636v-1017h-247v841h-381v-841h-247z" />
    <glyph glyph-name="f_ibreve.liga" unicode="f&#x12d;" horiz-adv-x="1201" 
d="M947 1161c-57.333 0 -105.169 7.5 -143.502 22.5s-69.333 35.5 -93 61.5s-40.5 56.333 -50.5 91s-15 71.334 -15 110.001h173c0 -20 1.83301 -38 5.5 -54s10.334 -29.5 20.001 -40.5s22.834 -19.5 39.501 -25.5s38 -9 64 -9s47.333 3 64 9s29.834 14.5 39.501 25.5
s16.334 24.5 20.001 40.5s5.5 34 5.5 54h173c0 -38.667 -5 -75.334 -15 -110.001s-26.833 -65 -50.5 -91s-54.834 -46.5 -93.501 -61.5s-86.334 -22.5 -143.001 -22.5zM194.997 0v839.999l-89 14c-19.333 4 -34.833 10.833 -46.5 20.5s-17.5 23.5 -17.5 41.5v101h153v117
c0 54.667 7 103.334 21 146.001s34.167 78.667 60.5 108s58.833 51.833 97.5 67.5s83 23.5 133 23.5c18 0 34.333 -0.833008 49 -2.5s29 -4.83398 43 -9.50098v-135c0 -12.667 -5.5 -21.167 -16.5 -25.5s-24.167 -6.5 -39.5 -6.5c-39.333 0 -67.333 -12.667 -84 -38
s-25 -67.666 -25 -126.999v-118h636v-1017h-247v841h-381v-841h-247z" />
    <glyph glyph-name="f_iogonek.liga" unicode="f&#x12f;" horiz-adv-x="1201" 
d="M195 0v840.001l-89 14c-19.333 4 -34.833 10.833 -46.5 20.5s-17.5 23.5 -17.5 41.5v101h153v33c0 62.667 10.333 120.834 31 174.501s52 100.167 94 139.5s95.167 70.166 159.5 92.499s140.166 33.5 227.499 33.5c28 0 56.5 -1.5 85.5 -4.5s54.167 -7.83301 75.5 -14.5
l-8 -128c-1.33301 -15.333 -9.66602 -24.5 -24.999 -27.5s-34.333 -4.5 -57 -4.5c-64.667 0 -118.834 -5.66699 -162.501 -17s-79 -28.166 -106 -50.499s-46.333 -50.333 -58 -84s-17.5 -72.834 -17.5 -117.501v-25h636v-1017h-29
c-13.333 -7.33301 -26.333 -15.666 -39 -24.999s-24 -19.833 -34 -31.5s-18 -24.167 -24 -37.5s-9 -27.333 -9 -42c0 -20 6.33301 -35.833 19 -47.5s30.334 -17.5 53.001 -17.5c12.667 0 23 0.666992 31 2s14.5 3 19.5 5s9.33301 3.66699 13 5s7.16699 2 10.5 2
c12 0 19.667 -5.33301 23 -16l38 -91c-22 -14.667 -49.5 -26.834 -82.5 -36.501s-67.833 -14.5 -104.5 -14.5c-65.333 0 -115.666 13.667 -150.999 41s-53 62.666 -53 105.999c0 36.667 12.167 72 36.5 106s59.166 64.667 104.499 92h-69v841h-381v-841h-247z" />
    <glyph glyph-name="f_dotlessi.liga" unicode="f&#x131;" horiz-adv-x="1201" 
d="M195 0v839.999l-89 14c-19.333 4 -34.833 10.833 -46.5 20.5s-17.5 23.5 -17.5 41.5v101h153v117c0 54.667 7 103.334 21 146.001s34.167 78.667 60.5 108s58.833 51.833 97.5 67.5s83 23.5 133 23.5c18 0 34.333 -0.833008 49 -2.5s29 -4.83398 43 -9.50098v-135
c0 -12.667 -5.5 -21.167 -16.5 -25.5s-24.167 -6.5 -39.5 -6.5c-39.333 0 -67.333 -12.667 -84 -38s-25 -67.666 -25 -126.999v-118h636v-1017h-247v841h-381v-841h-247z" />
    <glyph glyph-name="f_f_igrave.liga" unicode="ff&#xec;" horiz-adv-x="1848" 
d="M195 0l-0.00195312 840l-90 14c-19.333 4 -34.833 10.833 -46.5 20.5s-17.5 23.5 -17.5 41.5v101h154v58c0 58.667 8.83301 111.334 26.5 158.001s43 86.334 76 119.001s73.167 57.667 120.5 75s100.666 26 159.999 26c46.667 0 90.334 -6.33301 131.001 -19l-5 -123
c-1.33301 -19.333 -10.166 -31.5 -26.499 -36.5s-35.5 -7.5 -57.5 -7.5c-29.333 0 -55.5 -3.16699 -78.5 -9.5s-42.5 -17.333 -58.5 -33s-28.167 -36.334 -36.5 -62.001s-12.5 -57.5 -12.5 -95.5v-50h408v91c0 58.667 10.167 111.5 30.5 158.5s51.333 86.667 93 119
s94.334 57.166 158.001 74.499s139.167 26 226.5 26c61.333 0 107.833 -4.16699 139.5 -12.5s52.167 -21.166 61.5 -38.499l157 -269h-140c-19.333 0 -34.833 2.5 -46.5 7.5s-23.5 14.167 -35.5 27.5l-113 119h-22c-48.667 0 -90 -4.16699 -124 -12.5
s-61.833 -21.5 -83.5 -39.5s-37.5 -40.833 -47.5 -68.5s-15 -60.834 -15 -99.501v-83h636v-1017h-247v841h-381v-841h-247v841h-400v-841h-247z" />
    <glyph glyph-name="f_f_icircumflex.liga" unicode="ff&#xee;" horiz-adv-x="1848" 
d="M195 0l-0.000976562 839.998l-89 14c-19.333 4 -34.833 10.833 -46.5 20.5s-17.5 23.5 -17.5 41.5v101h153v58c0 58.667 8.83301 111.334 26.5 158.001s43 86.334 76 119.001s73.167 57.667 120.5 75s100.666 26 159.999 26c46.667 0 90.334 -6.33301 131.001 -19
l-5 -123c-1.33301 -19.333 -10.166 -31.5 -26.499 -36.5s-35.5 -7.5 -57.5 -7.5c-29.333 0 -55.5 -3.16699 -78.5 -9.5s-42.5 -17.333 -58.5 -33s-28.167 -36.334 -36.5 -62.001s-12.5 -57.5 -12.5 -95.5v-50h408v117c0 54.667 7 103.334 21 146.001s34.333 78.667 61 108
s59.334 51.833 98.001 67.5s82.667 23.5 132 23.5c18.667 0 35.167 -0.833008 49.5 -2.5s28.5 -4.83398 42.5 -9.50098v-135c0 -12.667 -5.33301 -21.167 -16 -25.5s-24 -6.5 -40 -6.5c-38.667 0 -66.334 -12.667 -83.001 -38s-25 -67.666 -25 -126.999v-118h636v-1017h-247
v841h-381v-841h-248v841h-400v-841h-247zM1944 1168h-165c-9.33301 0 -18.833 1.83301 -28.5 5.5s-19.167 10.167 -28.5 19.5l-98 104c-7.33301 6.66699 -14.333 14.667 -21 24c-7.33301 -9.33301 -14.333 -17.333 -21 -24l-100 -104c-8 -8.66699 -17 -15 -27 -19
s-20 -6 -30 -6h-171l229 278h232z" />
    <glyph glyph-name="f_f_itilde.liga" unicode="ff&#x129;" horiz-adv-x="1848" 
d="M195 0l-0.000976562 839.998l-89 14c-19.333 4 -34.833 10.833 -46.5 20.5s-17.5 23.5 -17.5 41.5v101h153v58c0 58.667 8.83301 111.334 26.5 158.001s43 86.334 76 119.001s73.167 57.667 120.5 75s100.666 26 159.999 26c46.667 0 90.334 -6.33301 131.001 -19
l-5 -123c-1.33301 -19.333 -10.166 -31.5 -26.499 -36.5s-35.5 -7.5 -57.5 -7.5c-29.333 0 -55.5 -3.16699 -78.5 -9.5s-42.5 -17.333 -58.5 -33s-28.167 -36.334 -36.5 -62.001s-12.5 -57.5 -12.5 -95.5v-50h408v117c0 54.667 7 103.334 21 146.001s34.333 78.667 61 108
s59.334 51.833 98.001 67.5s82.667 23.5 132 23.5c18.667 0 35.167 -0.833008 49.5 -2.5s28.5 -4.83398 42.5 -9.50098v-135c0 -12.667 -5.33301 -21.167 -16 -25.5s-24 -6.5 -40 -6.5c-38.667 0 -66.334 -12.667 -83.001 -38s-25 -67.666 -25 -126.999v-118h636v-1017h-247
v841h-381v-841h-248v841h-400v-841h-247zM1704 1359c20 0 35.668 5.50098 47.001 16.501s17 30.833 17 59.5h150c0 -37.333 -5.16699 -71.166 -15.5 -101.499s-24.5 -56.333 -42.5 -78s-39.5 -38.334 -64.5 -50.001s-52.5 -17.5 -82.5 -17.5c-24 0 -46.333 4.33301 -67 13
s-40 18 -58 28l-50.5 28c-15.667 8.66699 -30.167 13 -43.5 13c-19.333 0 -34.5 -5.83301 -45.5 -17.5s-16.5 -31.5 -16.5 -59.5h-153c0 37.333 5.16699 71.166 15.5 101.499s24.833 56.333 43.5 78s40.5 38.5 65.5 50.5s52.167 18 81.5 18c24 0 46.5 -4.33301 67.5 -13
s40.5 -18 58.5 -28l50 -28c15.333 -8.66699 29.666 -13 42.999 -13z" />
    <glyph glyph-name="f_f_idieresis.liga" unicode="ff&#xef;" horiz-adv-x="1848" 
d="M1557 1292c0 -18.667 -3.66699 -36.167 -11 -52.5s-17.5 -30.5 -30.5 -42.5s-28 -21.5 -45 -28.5s-35.167 -10.5 -54.5 -10.5c-18 0 -35.167 3.5 -51.5 10.5s-30.666 16.5 -42.999 28.5s-22.166 26.167 -29.499 42.5s-11 33.833 -11 52.5c0 19.333 3.66699 37.5 11 54.5
s17.166 31.833 29.499 44.5s26.666 22.667 42.999 30s33.5 11 51.5 11c19.333 0 37.5 -3.66699 54.5 -11s32 -17.333 45 -30s23.167 -27.5 30.5 -44.5s11 -35.167 11 -54.5zM1905 1292c0 -18.667 -3.66699 -36.167 -11 -52.5s-17.166 -30.5 -29.499 -42.5
s-27 -21.5 -44 -28.5s-34.833 -10.5 -53.5 -10.5c-19.333 0 -37.166 3.5 -53.499 10.5s-30.833 16.5 -43.5 28.5s-22.5 26.167 -29.5 42.5s-10.5 33.833 -10.5 52.5c0 19.333 3.5 37.5 10.5 54.5s16.833 31.833 29.5 44.5s27.167 22.667 43.5 30s34.166 11 53.499 11
c18.667 0 36.5 -3.66699 53.5 -11s31.667 -17.333 44 -30s22.166 -27.5 29.499 -44.5s11 -35.167 11 -54.5zM195 0l-0.000976562 839.998l-89 14c-19.333 4 -34.833 10.833 -46.5 20.5s-17.5 23.5 -17.5 41.5v101h153v58c0 58.667 8.83301 111.334 26.5 158.001
s43 86.334 76 119.001s73.167 57.667 120.5 75s100.666 26 159.999 26c46.667 0 90.334 -6.33301 131.001 -19l-5 -123c-1.33301 -19.333 -10.166 -31.5 -26.499 -36.5s-35.5 -7.5 -57.5 -7.5c-29.333 0 -55.5 -3.16699 -78.5 -9.5s-42.5 -17.333 -58.5 -33
s-28.167 -36.334 -36.5 -62.001s-12.5 -57.5 -12.5 -95.5v-50h408v117c0 54.667 7 103.334 21 146.001s34.333 78.667 61 108s59.334 51.833 98.001 67.5s82.667 23.5 132 23.5c18.667 0 35.167 -0.833008 49.5 -2.5s28.5 -4.83398 42.5 -9.50098v-135
c0 -12.667 -5.33301 -21.167 -16 -25.5s-24 -6.5 -40 -6.5c-38.667 0 -66.334 -12.667 -83.001 -38s-25 -67.666 -25 -126.999v-118h636v-1017h-247v841h-381v-841h-248v841h-400v-841h-247z" />
    <glyph glyph-name="f_f_imacron.liga" unicode="ff&#x12b;" horiz-adv-x="1848" 
d="M195 0l-0.000976562 839.998l-89 14c-19.333 4 -34.833 10.833 -46.5 20.5s-17.5 23.5 -17.5 41.5v101h153v58c0 58.667 8.83301 111.334 26.5 158.001s43 86.334 76 119.001s73.167 57.667 120.5 75s100.666 26 159.999 26c46.667 0 90.334 -6.33301 131.001 -19
l-5 -123c-1.33301 -19.333 -10.166 -31.5 -26.499 -36.5s-35.5 -7.5 -57.5 -7.5c-29.333 0 -55.5 -3.16699 -78.5 -9.5s-42.5 -17.333 -58.5 -33s-28.167 -36.334 -36.5 -62.001s-12.5 -57.5 -12.5 -95.5v-50h408v117c0 54.667 7 103.334 21 146.001s34.333 78.667 61 108
s59.334 51.833 98.001 67.5s82.667 23.5 132 23.5c18.667 0 35.167 -0.833008 49.5 -2.5s28.5 -4.83398 42.5 -9.50098v-135c0 -12.667 -5.33301 -21.167 -16 -25.5s-24 -6.5 -40 -6.5c-38.667 0 -66.334 -12.667 -83.001 -38s-25 -67.666 -25 -126.999v-118h636v-1017h-247
v841h-381v-841h-248v841h-400v-841h-247zM1299 1372h598v-158h-598v158z" />
    <glyph glyph-name="f_f_ibreve.liga" unicode="ff&#x12d;" horiz-adv-x="1848" 
d="M195 0l-0.000976562 839.998l-89 14c-19.333 4 -34.833 10.833 -46.5 20.5s-17.5 23.5 -17.5 41.5v101h153v58c0 58.667 8.83301 111.334 26.5 158.001s43 86.334 76 119.001s73.167 57.667 120.5 75s100.666 26 159.999 26c46.667 0 90.334 -6.33301 131.001 -19
l-5 -123c-1.33301 -19.333 -10.166 -31.5 -26.499 -36.5s-35.5 -7.5 -57.5 -7.5c-29.333 0 -55.5 -3.16699 -78.5 -9.5s-42.5 -17.333 -58.5 -33s-28.167 -36.334 -36.5 -62.001s-12.5 -57.5 -12.5 -95.5v-50h408v117c0 54.667 7 103.334 21 146.001s34.333 78.667 61 108
s59.334 51.833 98.001 67.5s82.667 23.5 132 23.5c18.667 0 35.167 -0.833008 49.5 -2.5s28.5 -4.83398 42.5 -9.50098v-135c0 -12.667 -5.33301 -21.167 -16 -25.5s-24 -6.5 -40 -6.5c-38.667 0 -66.334 -12.667 -83.001 -38s-25 -67.666 -25 -126.999v-118h636v-1017h-247
v841h-381v-841h-248v841h-400v-841h-247zM1598 1161c-57.333 0 -105.169 7.5 -143.502 22.5s-69.333 35.5 -93 61.5s-40.5 56.333 -50.5 91s-15 71.334 -15 110.001h173c0 -20 1.83301 -38 5.5 -54s10.334 -29.5 20.001 -40.5s22.834 -19.5 39.501 -25.5s38 -9 64 -9
s47.333 3 64 9s29.834 14.5 39.501 25.5s16.334 24.5 20.001 40.5s5.5 34 5.5 54h173c0 -38.667 -5 -75.334 -15 -110.001s-26.833 -65 -50.5 -91s-54.834 -46.5 -93.501 -61.5s-86.334 -22.5 -143.001 -22.5z" />
    <glyph glyph-name="f_f_iogonek.liga" unicode="ff&#x12f;" horiz-adv-x="1848" 
d="M195 0v840l-89 14c-19.333 4 -34.833 10.833 -46.5 20.5s-17.5 23.5 -17.5 41.5v101h153v58c0 58.667 8.83301 111.334 26.5 158.001s43 86.334 76 119.001s73.167 57.667 120.5 75s100.666 26 159.999 26c46.667 0 90.334 -6.33301 131.001 -19l-5 -123
c-1.33301 -19.333 -10.166 -31.5 -26.499 -36.5s-35.5 -7.5 -57.5 -7.5c-29.333 0 -55.5 -3.16699 -78.5 -9.5s-42.5 -17.333 -58.5 -33s-28.167 -36.334 -36.5 -62.001s-12.5 -57.5 -12.5 -95.5v-50h408v33c0 62.667 10.333 120.834 31 174.501s52 100.167 94 139.5
s95.167 70.166 159.5 92.499s140.166 33.5 227.499 33.5c28 0 56.667 -1.5 86 -4.5s54.666 -7.83301 75.999 -14.5l-8 -128c-1.33301 -15.333 -9.66602 -24.5 -24.999 -27.5s-34.333 -4.5 -57 -4.5c-64.667 0 -118.834 -5.66699 -162.501 -17s-79 -28.166 -106 -50.499
s-46.333 -50.333 -58 -84s-17.5 -72.834 -17.5 -117.501v-25h636v-1017h-25c-13.333 -7.33301 -26.333 -15.666 -39 -24.999s-24 -19.833 -34 -31.5s-18 -24.167 -24 -37.5s-9 -27.333 -9 -42c0 -20 6.33301 -35.833 19 -47.5s30.334 -17.5 53.001 -17.5
c12.667 0 23 0.666992 31 2s14.5 3 19.5 5s9.33301 3.66699 13 5s7.16699 2 10.5 2c12 0 19.667 -5.33301 23 -16l38 -91c-22 -14.667 -49.5 -26.834 -82.5 -36.501s-67.833 -14.5 -104.5 -14.5c-65.333 0 -115.666 13.667 -150.999 41s-53 62.666 -53 105.999
c0 36.667 12.167 72 36.5 106s59.166 64.667 104.499 92h-73v841h-381v-841h-248v841h-400v-841h-247z" />
    <glyph glyph-name="f_f_dotlessi.liga" unicode="ff&#x131;" horiz-adv-x="1849" 
d="M195 0l-0.000976562 839.998l-89 14c-19.333 4 -34.833 10.833 -46.5 20.5s-17.5 23.5 -17.5 41.5v101h153v58c0 58.667 8.83301 111.334 26.5 158.001s43 86.334 76 119.001s73.167 57.667 120.5 75s100.666 26 159.999 26c46.667 0 90.334 -6.33301 131.001 -19
l-5 -123c-1.33301 -19.333 -10.166 -31.5 -26.499 -36.5s-35.5 -7.5 -57.5 -7.5c-29.333 0 -55.5 -3.16699 -78.5 -9.5s-42.5 -17.333 -58.5 -33s-28.167 -36.334 -36.5 -62.001s-12.5 -57.5 -12.5 -95.5v-50h408v117c0 54.667 7 103.334 21 146.001s34.333 78.667 61 108
s59.334 51.833 98.001 67.5s82.667 23.5 132 23.5c18.667 0 35.167 -0.833008 49.5 -2.5s28.5 -4.83398 42.5 -9.50098v-135c0 -12.667 -5.33301 -21.167 -16 -25.5s-24 -6.5 -40 -6.5c-38.667 0 -66.334 -12.667 -83.001 -38s-25 -67.666 -25 -126.999v-118h636v-1017h-247
v841h-381v-841h-248v841h-400v-841h-247z" />
    <glyph glyph-name="f_j.liga" unicode="fj" horiz-adv-x="1201" 
d="M195 0l0.00292969 840l-89 14c-19.333 4 -34.833 10.833 -46.5 20.5s-17.5 23.5 -17.5 41.5v101h153v33c0 62.667 10.333 120.834 31 174.501s52 100.167 94 139.5s95.167 70.166 159.5 92.499s140.166 33.5 227.499 33.5c28 0 56.5 -1.5 85.5 -4.5
s54.167 -7.83301 75.5 -14.5l-8 -128c-1.33301 -15.333 -9.66602 -24.5 -24.999 -27.5s-34.333 -4.5 -57 -4.5c-64.667 0 -118.834 -5.66699 -162.501 -17s-79 -28.166 -106 -50.499s-46.333 -50.333 -58 -84s-17.5 -72.834 -17.5 -117.501v-25h636v-1052
c0 -44.667 -5.83301 -86.667 -17.5 -126s-30.334 -73.833 -56.001 -103.5s-59.334 -53 -101.001 -70s-92.5 -25.5 -152.5 -25.5c-23.333 0 -45 1.5 -65 4.5s-40.333 7.83301 -61 14.5l9 133c1.33301 13.333 6.33301 21.833 15 25.5s25.667 5.5 51 5.5
c24.667 0 45.334 2.5 62.001 7.5s30.167 13 40.5 24s17.666 25.5 21.999 43.5s6.5 40.333 6.5 67v876h-381v-841h-247z" />
    <glyph glyph-name="f_f_j.liga" unicode="ffj" horiz-adv-x="1849" 
d="M195 0l0.00292969 839.999l-89 14c-19.333 4 -34.833 10.833 -46.5 20.5s-17.5 23.5 -17.5 41.5v101h153v58c0 58.667 8.83301 111.334 26.5 158.001s43 86.334 76 119.001s73.167 57.667 120.5 75s100.666 26 159.999 26c46.667 0 90.334 -6.33301 131.001 -19l-5 -123
c-1.33301 -19.333 -10.166 -31.5 -26.499 -36.5s-35.5 -7.5 -57.5 -7.5c-29.333 0 -55.5 -3.16699 -78.5 -9.5s-42.5 -17.333 -58.5 -33s-28.167 -36.334 -36.5 -62.001s-12.5 -57.5 -12.5 -95.5v-50h408v33c0 62.667 10.333 120.834 31 174.501s52 100.167 94 139.5
s95.167 70.166 159.5 92.499s140.166 33.5 227.499 33.5c28 0 56.667 -1.5 86 -4.5s54.666 -7.83301 75.999 -14.5l-8 -128c-1.33301 -15.333 -9.66602 -24.5 -24.999 -27.5s-34.333 -4.5 -57 -4.5c-64.667 0 -118.834 -5.66699 -162.501 -17s-79 -28.166 -106 -50.499
s-46.333 -50.333 -58 -84s-17.5 -72.834 -17.5 -117.501v-25h636v-1052c0 -44.667 -5.83301 -86.667 -17.5 -126s-30.334 -73.833 -56.001 -103.5s-59.334 -53 -101.001 -70s-92.5 -25.5 -152.5 -25.5c-23.333 0 -45 1.5 -65 4.5s-40.333 7.83301 -61 14.5l8 133
c2 13.333 7.33301 21.833 16 25.5s25.334 5.5 50.001 5.5s45.5 2.5 62.5 7.5s30.667 13 41 24s17.666 25.5 21.999 43.5s6.5 40.333 6.5 67v876h-381v-841h-248v841h-400v-841h-247z" />
    <glyph glyph-name="f_k.liga" unicode="fk" horiz-adv-x="1800" 
d="M194 0l-0.00390625 839.999l-89 14c-19.333 4 -34.833 10.833 -46.5 20.5s-17.5 23.5 -17.5 41.5v101h153v68c0 61.333 9.5 118 28.5 170s49 96.833 90 134.5s93.833 67.167 158.5 88.5s143 32 235 32c31.333 0 61 -1.16699 89 -3.5s56.333 -5 85 -8
s58.834 -5.66699 90.501 -8s66.834 -3.83301 105.501 -4.5h25v-851h46c16.667 0 29.834 2.16699 39.501 6.5s19.5 13.166 29.5 26.499l255 315c10.667 14 22.5 24.667 35.5 32s29.833 11 50.5 11h226l-319 -381c-22.667 -30 -47.334 -53 -74.001 -69
c14 -10 26.5 -21.667 37.5 -35s21.5 -27.666 31.5 -42.999l342 -498h-223c-19.333 0 -36 3.16699 -50 9.5s-25.667 17.833 -35 34.5l-262 389c-9.33301 15.333 -19 25.333 -29 30s-25 7 -45 7h-56v-470h-247v1320c-25.333 8.66699 -52.166 15.834 -80.499 21.501
s-55.833 8.5 -82.5 8.5c-42.667 0 -80.167 -6.66699 -112.5 -20s-59.166 -31.833 -80.499 -55.5s-37.5 -51.667 -48.5 -84s-16.5 -67.5 -16.5 -105.5v-68h267v-176h-259v-841h-247z" />
    <glyph glyph-name="f_f_k.liga" unicode="ffk" horiz-adv-x="2449" 
d="M195 0l-0.00488281 839.998l-89 14c-19.333 4 -34.833 10.833 -46.5 20.5s-17.5 23.5 -17.5 41.5v101h153v58c0 58.667 8.83301 111.334 26.5 158.001s43 86.334 76 119.001s73.167 57.667 120.5 75s100.666 26 159.999 26c46.667 0 90.334 -6.33301 131.001 -19l-5 -123
c-1.33301 -19.333 -10.166 -31.5 -26.499 -36.5s-35.5 -7.5 -57.5 -7.5c-29.333 0 -55.5 -3.16699 -78.5 -9.5s-42.5 -17.333 -58.5 -33s-28.167 -36.334 -36.5 -62.001s-12.5 -57.5 -12.5 -95.5v-50h408v68c0 61.333 9.5 118 28.5 170s49 96.833 90 134.5
s94 67.167 159 88.5s143.5 32 235.5 32c31.333 0 60.833 -1.16699 88.5 -3.5s55.834 -5 84.501 -8s58.834 -5.66699 90.501 -8s66.834 -3.83301 105.501 -4.5h25v-851h46c16.667 0 29.834 2.16699 39.501 6.5s19.5 13.166 29.5 26.499l255 315
c10.667 14 22.5 24.667 35.5 32s29.833 11 50.5 11h226l-319 -381c-22.667 -30 -47.334 -53 -74.001 -69c14 -10 26.5 -21.667 37.5 -35s21.5 -27.666 31.5 -42.999l342 -498h-223c-19.333 0 -36 3.16699 -50 9.5s-25.667 17.833 -35 34.5l-262 389
c-9.33301 15.333 -19 25.333 -29 30s-25 7 -45 7h-56v-470h-247v1320c-25.333 8.66699 -52 15.834 -80 21.501s-55.333 8.5 -82 8.5c-42.667 0 -80.167 -6.66699 -112.5 -20s-59.166 -31.833 -80.499 -55.5s-37.5 -51.667 -48.5 -84s-16.5 -67.5 -16.5 -105.5v-68h266v-176
h-258v-841h-248v841h-400v-841h-247z" />
    <glyph glyph-name="f_t.liga" unicode="ft" horiz-adv-x="1415" 
d="M1105 841l0.00488281 -556c0 -32 8 -57 24 -75s37.333 -27 64 -27c15.333 0 28.166 1.83301 38.499 5.5s19.333 7.5 27 11.5s14.5 7.83301 20.5 11.5s12 5.5 18 5.5c7.33301 0 13.333 -1.83301 18 -5.5s9.66699 -9.16699 15 -16.5l74 -120
c-36 -30 -77.167 -52.667 -123.5 -68s-94.5 -23 -144.5 -23c-89.333 0 -158 25.167 -206 75.5s-72 119.833 -72 208.5v573h-417v-841h-247v840l-89 14c-19.333 4 -34.833 10.833 -46.5 20.5s-17.5 23.5 -17.5 41.5v101h153v76c0 58.667 8.83301 111.334 26.5 158.001
s43 86.334 76 119.001s73.167 57.667 120.5 75s100.666 26 159.999 26c47.333 0 91.333 -6.33301 132 -19l-5 -124c-0.666992 -9.33301 -3.33398 -16.833 -8.00098 -22.5s-10.834 -10 -18.501 -13s-16.5 -5 -26.5 -6s-20.667 -1.5 -32 -1.5
c-29.333 0 -55.5 -3.16699 -78.5 -9.5s-42.5 -17.333 -58.5 -33s-28.167 -36.334 -36.5 -62.001s-12.5 -57.5 -12.5 -95.5v-68h436l53 281c3.33301 13.333 9.66602 23.666 18.999 30.999s21.333 11 36 11h128v-323h274v-176h-274z" />
    <glyph glyph-name="f_f_t.liga" unicode="fft" horiz-adv-x="2063" 
d="M195 0l-0.000976562 839.999l-89 14c-19.333 4 -34.833 10.833 -46.5 20.5s-17.5 23.5 -17.5 41.5v101h153v58c0 58.667 8.83301 111.334 26.5 158.001s43 86.334 76 119.001s73.167 57.667 120.5 75s100.666 26 159.999 26c46.667 0 90.334 -6.33301 131.001 -19
l-5 -123c-1.33301 -19.333 -10.166 -31.5 -26.499 -36.5s-35.5 -7.5 -57.5 -7.5c-29.333 0 -55.5 -3.16699 -78.5 -9.5s-42.5 -17.333 -58.5 -33s-28.167 -36.334 -36.5 -62.001s-12.5 -57.5 -12.5 -95.5v-50h408v76c0 58.667 8.83301 111.334 26.5 158.001
s43.167 86.334 76.5 119.001s73.666 57.667 120.999 75s100.666 26 159.999 26c46.667 0 90.334 -6.33301 131.001 -19l-5 -124c-1.33301 -19.333 -10.166 -31.333 -26.499 -36s-35.5 -7 -57.5 -7c-29.333 0 -55.5 -3.16699 -78.5 -9.5s-42.5 -17.333 -58.5 -33
s-28.167 -36.334 -36.5 -62.001s-12.5 -57.5 -12.5 -95.5v-68h435l53 281c3.33301 13.333 9.66602 23.666 18.999 30.999s21.666 11 36.999 11h127v-323h274v-176h-274v-556c0 -32 8 -57 24 -75s37.667 -27 65 -27c14.667 0 27.334 1.83301 38.001 5.5
s19.834 7.5 27.501 11.5s14.5 7.83301 20.5 11.5s12 5.5 18 5.5c7.33301 0 13.333 -1.83301 18 -5.5s9.66699 -9.16699 15 -16.5l74 -120c-36 -30 -77.333 -52.667 -124 -68s-95 -23 -145 -23c-89.333 0 -158 25.167 -206 75.5s-72 119.833 -72 208.5v573h-416v-841h-248
v841h-400v-841h-247z" />
    <glyph glyph-name="t_f.liga" unicode="tf" horiz-adv-x="1406" 
d="M881 0l0.00390625 841h-447v-556c0 -32 7.83301 -57 23.5 -75s37.167 -27 64.5 -27c15.333 0 28.166 1.83301 38.499 5.5s19.333 7.5 27 11.5s14.5 7.83301 20.5 11.5s12 5.5 18 5.5c7.33301 0 13.333 -1.83301 18 -5.5s9.66699 -9.16699 15 -16.5l74 -120
c-36 -30 -77.333 -52.667 -124 -68s-95 -23 -145 -23c-89.333 0 -157.833 25.167 -205.5 75.5s-71.5 119.833 -71.5 208.5v573h-105c-13.333 0 -24.666 4.33301 -33.999 13s-14 21.667 -14 39v98l165 27l52 280c3.33301 13.333 9.66602 23.666 18.999 30.999
s21.333 11 36 11h128v-323h447v76c0 58.667 8.83301 111.334 26.5 158.001s43 86.334 76 119.001s73.167 57.667 120.5 75s100.666 26 159.999 26c47.333 0 91.333 -6.33301 132 -19l-5 -124c-0.666992 -9.33301 -3.33398 -16.833 -8.00098 -22.5s-10.834 -10 -18.501 -13
s-16.5 -5 -26.5 -6s-20.667 -1.5 -32 -1.5c-29.333 0 -55.5 -3.16699 -78.5 -9.5s-42.5 -17.333 -58.5 -33s-28.167 -36.334 -36.5 -62.001s-12.5 -57.5 -12.5 -95.5v-68h267v-176h-259v-841h-247z" />
    <glyph glyph-name="t_iogonek.liga" unicode="t&#x12f;" horiz-adv-x="1288" 
d="M1031 1170c-21.333 0 -41.333 4.16699 -60 12.5s-35 19.5 -49 33.5s-25.167 30.333 -33.5 49s-12.5 38.667 -12.5 60c0 22 4.16699 42.667 12.5 62s19.5 36 33.5 50s30.333 25.167 49 33.5s38.667 12.5 60 12.5c22 0 42.833 -4.16699 62.5 -12.5s36.667 -19.5 51 -33.5
s25.833 -30.667 34.5 -50s13 -40 13 -62c0 -21.333 -4.33301 -41.333 -13 -60s-20.167 -35 -34.5 -49s-31.333 -25.167 -51 -33.5s-40.5 -12.5 -62.5 -12.5zM1236 -294c-21.333 -14.667 -48.5039 -26.833 -81.5039 -36.5s-67.833 -14.5 -104.5 -14.5
c-65.333 0 -115.666 13.667 -150.999 41s-53 62.666 -53 105.999c0 36.667 12.167 71.834 36.5 105.501s59.166 64.5 104.499 92.5h-77v841h-476v-556c0 -32 8 -57 24 -75s37.667 -27 65 -27c14.667 0 27.334 1.83301 38.001 5.5s19.834 7.5 27.501 11.5
s14.5 7.83301 20.5 11.5s12 5.5 18 5.5c7.33301 0 13.333 -1.83301 18 -5.5s9.66699 -9.16699 15 -16.5l74 -120c-36 -30 -77.333 -52.667 -124 -68s-95 -23 -145 -23c-89.333 0 -158 25.167 -206 75.5s-72 119.833 -72 208.5v573h-104
c-13.333 0 -24.666 4.33301 -33.999 13s-14 21.667 -14 39v98l164 28l53 279c3.33301 13.333 9.5 23.666 18.5 30.999s21.167 11 36.5 11h127v-323h723v-1017h-21c-13.333 -7.33301 -26.333 -15.666 -39 -24.999s-24 -19.833 -34 -31.5s-18 -24.167 -24 -37.5
s-9 -27.333 -9 -42c0 -20 6.33301 -35.833 19 -47.5s30.334 -17.5 53.001 -17.5c12.667 0 23 0.666992 31 2s14.5 3 19.5 5s9.33301 3.66699 13 5s7.16699 2 10.5 2c12 0 19.667 -5.33301 23 -16z" />
    <glyph glyph-name="t_dotlessi.liga" unicode="t&#x131;" horiz-adv-x="1288" 
d="M1157 0l-246.999 0.000976562v841h-476v-556c0 -32 7.83301 -57 23.5 -75s37.167 -27 64.5 -27c15.333 0 28.166 1.83301 38.499 5.5s19.333 7.5 27 11.5s14.5 7.83301 20.5 11.5s12 5.5 18 5.5c7.33301 0 13.333 -1.83301 18 -5.5s9.66699 -9.16699 15 -16.5l74 -120
c-36 -30 -77.333 -52.667 -124 -68s-95 -23 -145 -23c-89.333 0 -157.833 25.167 -205.5 75.5s-71.5 119.833 -71.5 208.5v573h-105c-13.333 0 -24.666 4.33301 -33.999 13s-14 21.667 -14 39v98l165 28l52 279c3.33301 13.333 9.66602 23.666 18.999 30.999
s21.333 11 36 11h128v-323h723v-1017z" />
    <glyph glyph-name="t_t.liga" unicode="tt" horiz-adv-x="1406" 
d="M464 -16c-89.333 0 -157.834 25.1689 -205.501 75.502s-71.5 119.833 -71.5 208.5v573h-105c-13.333 0 -24.666 4.33301 -33.999 13s-14 21.667 -14 39v98l165 27l52 280c3.33301 13.333 9.66602 23.666 18.999 30.999s21.333 11 36 11h128v-323h427l53 281
c3.33301 13.333 9.5 23.666 18.5 30.999s21.167 11 36.5 11h127v-323h274v-176h-274v-556c0 -32 8 -57 24 -75s37.667 -27 65 -27c14.667 0 27.334 1.83301 38.001 5.5s19.834 7.5 27.501 11.5s14.5 7.83301 20.5 11.5s12 5.5 18 5.5c7.33301 0 13.333 -1.83301 18 -5.5
s9.66699 -9.16699 15 -16.5l74 -120c-36 -30 -77.333 -52.667 -124 -68s-95 -23 -145 -23c-89.333 0 -158 25.167 -206 75.5s-72 119.833 -72 208.5v573h-415v-556c0 -32 7.83301 -57 23.5 -75s37.167 -27 64.5 -27c15.333 0 28.166 1.83301 38.499 5.5s19.333 7.5 27 11.5
s14.5 7.83301 20.5 11.5s12 5.5 18 5.5c7.33301 0 13.333 -1.83301 18 -5.5s9.66699 -9.16699 15 -16.5l74 -120c-36 -30 -77.333 -52.667 -124 -68s-95 -23 -145 -23z" />
    <glyph glyph-name="t_t_f.liga" unicode="ttf" horiz-adv-x="2068" 
d="M2053 1328c-1.33301 -19.333 -10.167 -31.332 -26.5 -35.999s-35.5 -7 -57.5 -7c-29.333 0 -55.5 -3.16699 -78.5 -9.5s-42.5 -17.333 -58.5 -33s-28.167 -36.334 -36.5 -62.001s-12.5 -57.5 -12.5 -95.5v-68h266v-176h-258v-841h-247v841h-448v-556c0 -32 8 -57 24 -75
s37.667 -27 65 -27c14.667 0 27.334 1.83301 38.001 5.5s19.834 7.5 27.501 11.5s14.5 7.83301 20.5 11.5s12 5.5 18 5.5c7.33301 0 13.333 -1.83301 18 -5.5s9.66699 -9.16699 15 -16.5l74 -120c-36 -30 -77.333 -52.667 -124 -68s-95 -23 -145 -23
c-89.333 0 -158 25.167 -206 75.5s-72 119.833 -72 208.5v573h-415v-556c0 -32 7.83301 -57 23.5 -75s37.167 -27 64.5 -27c15.333 0 28.166 1.83301 38.499 5.5s19.333 7.5 27 11.5s14.5 7.83301 20.5 11.5s12 5.5 18 5.5c7.33301 0 13.333 -1.83301 18 -5.5
s9.66699 -9.16699 15 -16.5l74 -120c-36 -30 -77.333 -52.667 -124 -68s-95 -23 -145 -23c-89.333 0 -157.833 25.167 -205.5 75.5s-71.5 119.833 -71.5 208.5v573h-105c-13.333 0 -24.666 4.33301 -33.999 13s-14 21.667 -14 39v98l165 28l52 279
c3.33301 13.333 9.66602 23.666 18.999 30.999s21.333 11 36 11h128v-323h427l53 281c3.33301 13.333 9.5 23.666 18.5 30.999s21.167 11 36.5 11h127v-323h448v76c0 58.667 8.83301 111.334 26.5 158.001s43 86.334 76 119.001s73.167 57.667 120.5 75
s100.666 26 159.999 26c46 0 90 -6.33301 132 -19z" />
    <glyph glyph-name="t_t_iogonek.liga" unicode="tt&#x12f;" horiz-adv-x="1931" 
d="M1674 1170c-21.333 0 -41.333 4.16699 -60 12.5s-35.167 19.5 -49.5 33.5s-25.666 30.333 -33.999 49s-12.5 38.667 -12.5 60c0 22 4.16699 42.667 12.5 62s19.666 36 33.999 50s30.833 25.167 49.5 33.5s38.667 12.5 60 12.5c22 0 42.667 -4.16699 62 -12.5
s36.333 -19.5 51 -33.5s26.334 -30.667 35.001 -50s13 -40 13 -62c0 -21.333 -4.33301 -41.333 -13 -60s-20.334 -35 -35.001 -49s-31.667 -25.167 -51 -33.5s-40 -12.5 -62 -12.5zM1882 -294c-22 -14.667 -49.5049 -26.832 -82.5049 -36.499s-67.833 -14.5 -104.5 -14.5
c-65.333 0 -115.666 13.667 -150.999 41s-53 62.666 -53 105.999c0 36.667 12.167 71.834 36.5 105.501s59.166 64.5 104.499 92.5h-79v841h-456v-556c0 -32 8 -57 24 -75s37.333 -27 64 -27c15.333 0 28.333 1.83301 39 5.5s19.834 7.5 27.501 11.5
s14.334 7.83301 20.001 11.5s11.5 5.5 17.5 5.5c13.333 0 24.333 -7.33301 33 -22l75 -120c-36 -30 -77.333 -52.667 -124 -68s-95 -23 -145 -23c-89.333 0 -158 25.167 -206 75.5s-72 119.833 -72 208.5v573h-416v-556c0 -32 8 -57 24 -75s37.667 -27 65 -27
c14.667 0 27.334 1.83301 38.001 5.5s19.834 7.5 27.501 11.5s14.5 7.83301 20.5 11.5s12 5.5 18 5.5c7.33301 0 13.333 -1.83301 18 -5.5s9.66699 -9.16699 15 -16.5l74 -120c-36 -30 -77.333 -52.667 -124 -68s-95 -23 -145 -23c-89.333 0 -158 25.167 -206 75.5
s-72 119.833 -72 208.5v573h-104c-13.333 0 -24.666 4.33301 -33.999 13s-14 21.667 -14 39v98l164 28l53 279c3.33301 13.333 9.5 23.666 18.5 30.999s21.167 11 36.5 11h127v-323h428l52 281c3.33301 13.333 9.66602 23.666 18.999 30.999s21.333 11 36 11h128v-323h703
v-1017h-19c-13.333 -7.33301 -26.333 -15.666 -39 -24.999s-24 -19.833 -34 -31.5s-18 -24.167 -24 -37.5s-9 -27.333 -9 -42c0 -20 6.33301 -35.833 19 -47.5s30.334 -17.5 53.001 -17.5c12.667 0 23 0.666992 31 2s14.5 3 19.5 5s9.33301 3.66699 13 5s7.16699 2 10.5 2
c12 0 19.667 -5.33301 23 -16z" />
    <glyph glyph-name="t_t_dotlessi.liga" unicode="tt&#x131;" horiz-adv-x="1931" 
d="M1799 0l-247.001 0.00195312v841h-456v-556c0 -32 8 -57 24 -75s37.667 -27 65 -27c14.667 0 27.334 1.83301 38.001 5.5s19.834 7.5 27.501 11.5s14.5 7.83301 20.5 11.5s12 5.5 18 5.5c7.33301 0 13.333 -1.83301 18 -5.5s9.66699 -9.16699 15 -16.5l74 -120
c-36 -30 -77.333 -52.667 -124 -68s-95 -23 -145 -23c-89.333 0 -158 25.167 -206 75.5s-72 119.833 -72 208.5v573h-415v-556c0 -32 7.83301 -57 23.5 -75s37.167 -27 64.5 -27c15.333 0 28.166 1.83301 38.499 5.5s19.333 7.5 27 11.5s14.5 7.83301 20.5 11.5
s12 5.5 18 5.5c7.33301 0 13.333 -1.83301 18 -5.5s9.66699 -9.16699 15 -16.5l74 -120c-36 -30 -77.333 -52.667 -124 -68s-95 -23 -145 -23c-89.333 0 -157.833 25.167 -205.5 75.5s-71.5 119.833 -71.5 208.5v573h-105c-13.333 0 -24.666 4.33301 -33.999 13
s-14 21.667 -14 39v98l165 28l52 279c3.33301 13.333 9.66602 23.666 18.999 30.999s21.333 11 36 11h128v-323h427l53 281c3.33301 13.333 9.5 23.666 18.5 30.999s21.167 11 36.5 11h127v-323h703v-1017z" />
    <glyph glyph-name="f_uni01D0.liga" unicode="f&#x1d0;" horiz-adv-x="1201" 
d="M195 0v839.999l-89 14c-19.333 4 -34.833 10.833 -46.5 20.5s-17.5 23.5 -17.5 41.5v101h153v117c0 54.667 7 103.334 21 146.001s34.167 78.667 60.5 108s58.833 51.833 97.5 67.5s83 23.5 133 23.5c18 0 34.333 -0.833008 49 -2.5s29 -4.83398 43 -9.50098v-135
c0 -12.667 -5.5 -21.167 -16.5 -25.5s-24.167 -6.5 -39.5 -6.5c-39.333 0 -67.333 -12.667 -84 -38s-25 -67.666 -25 -126.999v-118h636v-1017h-247v841h-381v-841h-247zM1068 1168h-231l-206 278h171c10 0 20 -1.5 30 -4.5s16.667 -7.16699 20 -12.5l82 -111l11 -19.5
c4 -7 7.66699 -14.167 11 -21.5c6.66699 15.333 13.667 29 21 41l82 111c3.33301 5.33301 10 9.5 20 12.5s20 4.5 30 4.5h165z" />
    <glyph glyph-name="f_uni0209.liga" unicode="f&#x209;" horiz-adv-x="1201" 
d="M541 1479c28 0 52.0078 -1.16602 72.0078 -3.49902s37.167 -6.16602 51.5 -11.499s26.666 -12.5 36.999 -21.5s20.166 -20.167 29.499 -33.5l178 -243h-117c-18.667 0 -33.834 2.5 -45.501 7.5s-23.834 14.167 -36.501 27.5l-93 98
c-36 -1.33301 -65.833 -4.83301 -89.5 -10.5s-42.334 -14.667 -56.001 -27s-23.334 -28.833 -29.001 -49.5s-8.5 -46.334 -8.5 -77.001v-118h636v-1017h-247v841h-381v-841h-247v840l-89 14c-19.333 4 -34.833 10.833 -46.5 20.5s-17.5 23.5 -17.5 41.5v101h153v117
c0 55.333 8.5 104.333 25.5 147s40.667 78.667 71 108s66.666 51.666 108.999 66.999s89.166 23 140.499 23zM968.008 1462c26.667 0 46.833 -4.5 60.5 -13.5s25.167 -22.167 34.5 -39.5l127 -243h-102c-18.667 0 -34.167 2.5 -46.5 7.5s-23.833 14.167 -34.5 27.5l-200 261
h161z" />
    <glyph glyph-name="f_uni020B.liga" unicode="f&#x20b;" horiz-adv-x="1201" 
d="M195 0v839.999l-89 14c-19.333 4 -34.833 10.833 -46.5 20.5s-17.5 23.5 -17.5 41.5v101h153v117c0 54.667 7 103.334 21 146.001s34.167 78.667 60.5 108s58.833 51.833 97.5 67.5s83 23.5 133 23.5c18 0 34.333 -0.833008 49 -2.5s29 -4.83398 43 -9.50098v-135
c0 -12.667 -5.5 -21.167 -16.5 -25.5s-24.167 -6.5 -39.5 -6.5c-39.333 0 -67.333 -12.667 -84 -38s-25 -67.666 -25 -126.999v-118h636v-1017h-247v841h-381v-841h-247zM954 1456c56.667 0 104.335 -7.5 143.002 -22.5s69.834 -35.5 93.501 -61.5s40.5 -56.333 50.5 -91
s15 -71.334 15 -110.001h-173c0 20 -2 38 -6 54s-10.833 29.667 -20.5 41s-22.834 20 -39.501 26s-37.667 9 -63 9c-26 0 -47.333 -3 -64 -9s-29.834 -14.667 -39.501 -26s-16.5 -25 -20.5 -41s-6 -34 -6 -54h-173c0 38.667 5.16699 75.334 15.5 110.001
s27.166 65 50.499 91s54.333 46.5 93 61.5s86.667 22.5 144 22.5z" />
    <glyph glyph-name="f_uni1E2F.liga" unicode="f&#x1e2f;" horiz-adv-x="1201" 
d="M905 1211c0 -16.667 -3.33301 -32.167 -10 -46.5s-15.834 -27 -27.501 -38s-25 -19.667 -40 -26s-30.833 -9.5 -47.5 -9.5s-32.334 3.16699 -47.001 9.5s-27.5 15 -38.5 26s-19.833 23.667 -26.5 38s-10 29.833 -10 46.5s3.33301 32.667 10 48s15.5 28.666 26.5 39.999
s23.833 20.333 38.5 27s30.334 10 47.001 10s32.5 -3.33301 47.5 -10s28.333 -15.667 40 -27s20.834 -24.666 27.501 -39.999s10 -31.333 10 -48zM1251 1211c0 -16.667 -3.33301 -32.167 -10 -46.5s-15.5 -27 -26.5 -38s-24 -19.667 -39 -26s-30.833 -9.5 -47.5 -9.5
c-17.333 0 -33.333 3.16699 -48 9.5s-27.667 15 -39 26s-20.166 23.667 -26.499 38s-9.5 29.833 -9.5 46.5s3.16699 32.667 9.5 48s15.166 28.666 26.499 39.999s24.333 20.333 39 27s30.667 10 48 10c16.667 0 32.5 -3.33301 47.5 -10s28 -15.667 39 -27
s19.833 -24.666 26.5 -39.999s10 -31.333 10 -48zM1312 1601l-224.001 -211.001c-13.333 -11.333 -27.666 -20.166 -42.999 -26.499s-33.333 -9.5 -54 -9.5h-133l119 194c10 17.333 21.667 30.5 35 39.5s33.333 13.5 60 13.5h240zM194.999 -0.000976562v839.999l-89 14
c-19.333 4 -34.833 10.833 -46.5 20.5s-17.5 23.5 -17.5 41.5v101h153v117c0 54.667 7 103.334 21 146.001s34.167 78.667 60.5 108s58.833 51.833 97.5 67.5s83 23.5 133 23.5c18 0 34.333 -0.833008 49 -2.5s29 -4.83398 43 -9.50098v-135
c0 -12.667 -5.5 -21.167 -16.5 -25.5s-24.167 -6.5 -39.5 -6.5c-39.333 0 -67.333 -12.667 -84 -38s-25 -67.666 -25 -126.999v-118h636v-1017h-247v841h-381v-841h-247z" />
    <glyph glyph-name="f_f_uni01D0.liga" unicode="ff&#x1d0;" horiz-adv-x="1848" 
d="M1471 0l-0.000976562 840.998h-381v-841h-248v841h-400v-841h-247v840l-89 14c-19.333 4 -34.833 10.833 -46.5 20.5s-17.5 23.5 -17.5 41.5v101h153v58c0 58.667 8.83301 111.334 26.5 158.001s43 86.334 76 119.001s73.167 57.667 120.5 75s100.666 26 159.999 26
c46.667 0 90.334 -6.33301 131.001 -19l-5 -123c-1.33301 -19.333 -10.166 -31.5 -26.499 -36.5s-35.5 -7.5 -57.5 -7.5c-29.333 0 -55.5 -3.16699 -78.5 -9.5s-42.5 -17.333 -58.5 -33s-28.167 -36.334 -36.5 -62.001s-12.5 -57.5 -12.5 -95.5v-50h408v117
c0 54.667 7 103.334 21 146.001s34.333 78.667 61 108s59.334 51.833 98.001 67.5s82.667 23.5 132 23.5c18.667 0 35.167 -0.833008 49.5 -2.5s28.5 -4.83398 42.5 -9.50098v-135c0 -12.667 -5.33301 -21.167 -16 -25.5s-24 -6.5 -40 -6.5
c-38.667 0 -66.334 -12.667 -83.001 -38s-25 -67.666 -25 -126.999v-118h636v-1017h-247zM1709 1168h-230.998l-206 278h171c10 0 20 -1.5 30 -4.5s16.667 -7.16699 20 -12.5l82 -111l11 -19.5c4 -7 7.66699 -14.167 11 -21.5c6.66699 15.333 13.667 29 21 41l82 111
c3.33301 5.33301 10.166 9.5 20.499 12.5s20.166 4.5 29.499 4.5h165z" />
    <glyph glyph-name="f_f_uni0209.liga" unicode="ff&#x209;" horiz-adv-x="1848" 
d="M195 0v840.001l-89 14c-19.333 4 -34.833 10.833 -46.5 20.5s-17.5 23.5 -17.5 41.5v101h153v58c0 58.667 8.83301 111.334 26.5 158.001s43 86.334 76 119.001s73.167 57.667 120.5 75s100.666 26 159.999 26c46.667 0 90.334 -6.33301 131.001 -19l-5 -123
c-1.33301 -19.333 -10.166 -31.5 -26.499 -36.5s-35.5 -7.5 -57.5 -7.5c-29.333 0 -55.5 -3.16699 -78.5 -9.5s-42.5 -17.333 -58.5 -33s-28.167 -36.334 -36.5 -62.001s-12.5 -57.5 -12.5 -95.5v-50h408v117c0 54.667 7.66699 103.334 23 146.001s38 78.667 68 108
s67.167 51.833 111.5 67.5s95.5 23.5 153.5 23.5c28 0 52 -1.16699 72 -3.5s37.167 -6.16602 51.5 -11.499s26.666 -12.5 36.999 -21.5s20.166 -20.167 29.499 -33.5l178 -243h-117c-18.667 0 -33.667 2.66699 -45 8s-23.666 14.333 -36.999 27l-93 98
c-36 -0.666992 -66.333 -3.83398 -91 -9.50098s-44.5 -14.834 -59.5 -27.501s-25.667 -29.334 -32 -50.001s-9.5 -46.334 -9.5 -77.001v-118h636v-1017h-247v841h-381v-841h-248v841h-400v-841h-247zM1626 1462c27.333 0 47.667 -4.5 61 -13.5s24.666 -22.167 33.999 -39.5
l127 -243h-101c-19.333 0 -35.166 2.5 -47.499 7.5s-23.833 14.167 -34.5 27.5l-199 261h160z" />
    <glyph glyph-name="f_f_uni020B.liga" unicode="ff&#x20b;" horiz-adv-x="1848" 
d="M195 0l-0.000976562 839.998l-89 14c-19.333 4 -34.833 10.833 -46.5 20.5s-17.5 23.5 -17.5 41.5v101h153v58c0 58.667 8.83301 111.334 26.5 158.001s43 86.334 76 119.001s73.167 57.667 120.5 75s100.666 26 159.999 26c46.667 0 90.334 -6.33301 131.001 -19
l-5 -123c-1.33301 -19.333 -10.166 -31.5 -26.499 -36.5s-35.5 -7.5 -57.5 -7.5c-29.333 0 -55.5 -3.16699 -78.5 -9.5s-42.5 -17.333 -58.5 -33s-28.167 -36.334 -36.5 -62.001s-12.5 -57.5 -12.5 -95.5v-50h408v117c0 54.667 7 103.334 21 146.001s34.333 78.667 61 108
s59.334 51.833 98.001 67.5s82.667 23.5 132 23.5c18.667 0 35.167 -0.833008 49.5 -2.5s28.5 -4.83398 42.5 -9.50098v-135c0 -12.667 -5.33301 -21.167 -16 -25.5s-24 -6.5 -40 -6.5c-38.667 0 -66.334 -12.667 -83.001 -38s-25 -67.666 -25 -126.999v-118h636v-1017h-247
v841h-381v-841h-248v841h-400v-841h-247zM1587 1456c56.667 0 104.336 -7.5 143.003 -22.5s69.834 -35.5 93.501 -61.5s40.5 -56.333 50.5 -91s15 -71.334 15 -110.001h-173c0 20 -2 38 -6 54s-10.833 29.667 -20.5 41s-22.834 20 -39.501 26s-37.667 9 -63 9
c-26 0 -47.333 -3 -64 -9s-29.834 -14.667 -39.501 -26s-16.334 -25 -20.001 -41s-5.5 -34 -5.5 -54h-173c0 38.667 5 75.334 15 110.001s26.833 65 50.5 91s54.667 46.5 93 61.5s86.166 22.5 143.499 22.5z" />
    <glyph glyph-name="f_f_uni1E2F.liga" unicode="ff&#x1e2f;" horiz-adv-x="1848" 
d="M1471 0l-0.000976562 840.998h-381v-841h-248v841h-400v-841h-247v840l-89 14c-19.333 4 -34.833 10.833 -46.5 20.5s-17.5 23.5 -17.5 41.5v101h153v58c0 58.667 8.83301 111.334 26.5 158.001s43 86.334 76 119.001s73.167 57.667 120.5 75s100.666 26 159.999 26
c46.667 0 90.334 -6.33301 131.001 -19l-5 -123c-1.33301 -19.333 -10.166 -31.5 -26.499 -36.5s-35.5 -7.5 -57.5 -7.5c-29.333 0 -55.5 -3.16699 -78.5 -9.5s-42.5 -17.333 -58.5 -33s-28.167 -36.334 -36.5 -62.001s-12.5 -57.5 -12.5 -95.5v-50h408v117
c0 54.667 7 103.334 21 146.001s34.333 78.667 61 108s59.334 51.833 98.001 67.5s82.667 23.5 132 23.5c18.667 0 35.167 -0.833008 49.5 -2.5s28.5 -4.83398 42.5 -9.50098v-135c0 -12.667 -5.33301 -21.167 -16 -25.5s-24 -6.5 -40 -6.5
c-38.667 0 -66.334 -12.667 -83.001 -38s-25 -67.666 -25 -126.999v-118h636v-1017h-247zM1957 1601l-224.001 -211.001c-13.333 -11.333 -27.666 -20.166 -42.999 -26.499s-33.333 -9.5 -54 -9.5h-132l119 194c10 17.333 21.5 30.5 34.5 39.5s33.167 13.5 60.5 13.5h239z
M1897 1211c0 -16.667 -3.33301 -32.167 -10 -46.5s-15.5 -27 -26.5 -38s-24.167 -19.667 -39.5 -26s-31.333 -9.5 -48 -9.5s-32.5 3.16699 -47.5 9.5s-28 15 -39 26s-19.833 23.667 -26.5 38s-10 29.833 -10 46.5s3.33301 32.667 10 48s15.5 28.666 26.5 39.999
s24 20.333 39 27s30.833 10 47.5 10s32.667 -3.33301 48 -10s28.5 -15.667 39.5 -27s19.833 -24.666 26.5 -39.999s10 -31.333 10 -48zM1551 1211c0 -16.667 -3.33301 -32.167 -10 -46.5s-15.834 -27 -27.501 -38s-25.167 -19.667 -40.5 -26s-31.333 -9.5 -48 -9.5
c-16 0 -31.333 3.16699 -46 9.5s-27.5 15 -38.5 26s-19.833 23.667 -26.5 38s-10 29.833 -10 46.5s3.33301 32.667 10 48s15.5 28.666 26.5 39.999s23.833 20.333 38.5 27s30 10 46 10c16.667 0 32.667 -3.33301 48 -10s28.833 -15.667 40.5 -27
s20.834 -24.666 27.501 -39.999s10 -31.333 10 -48z" />
    <glyph glyph-name="f_uni0237.liga" unicode="f&#x237;" horiz-adv-x="1201" 
d="M195 0l0.00195312 839.999l-89 14c-19.333 4 -34.833 10.833 -46.5 20.5s-17.5 23.5 -17.5 41.5v101h153v117c0 54.667 7 103.334 21 146.001s34.167 78.667 60.5 108s58.833 51.833 97.5 67.5s83 23.5 133 23.5c18 0 34.333 -0.833008 49 -2.5s29 -4.83398 43 -9.50098
v-135c0 -12.667 -5.5 -21.167 -16.5 -25.5s-24.167 -6.5 -39.5 -6.5c-39.333 0 -67.333 -12.667 -84 -38s-25 -67.666 -25 -126.999v-118h636v-1052c0 -44.667 -5.83301 -86.667 -17.5 -126s-30.334 -73.833 -56.001 -103.5s-59.334 -53 -101.001 -70
s-92.5 -25.5 -152.5 -25.5c-23.333 0 -45 1.5 -65 4.5s-40.333 7.83301 -61 14.5l9 133c1.33301 13.333 6.33301 21.833 15 25.5s25.667 5.5 51 5.5c24.667 0 45.334 2.5 62.001 7.5s30.167 13 40.5 24s17.666 25.5 21.999 43.5s6.5 40.333 6.5 67v876h-381v-841h-247z" />
    <glyph glyph-name="f_f_uni0237.liga" unicode="ff&#x237;" horiz-adv-x="1849" 
d="M1718 -35c0 -44.667 -5.83203 -86.6689 -17.499 -126.002s-30.334 -73.833 -56.001 -103.5s-59.334 -53 -101.001 -70s-92.5 -25.5 -152.5 -25.5c-23.333 0 -45 1.5 -65 4.5s-40.333 7.83301 -61 14.5l8 133c2 13.333 7.33301 21.833 16 25.5s25.334 5.5 50.001 5.5
s45.5 2.5 62.5 7.5s30.667 13 41 24s17.666 25.5 21.999 43.5s6.5 40.333 6.5 67v876h-381v-841h-248v841h-400v-841h-247v840l-89 14c-19.333 4 -34.833 10.833 -46.5 20.5s-17.5 23.5 -17.5 41.5v101h153v58c0 58.667 8.83301 111.334 26.5 158.001s43 86.334 76 119.001
s73.167 57.667 120.5 75s100.666 26 159.999 26c46.667 0 90.334 -6.33301 131.001 -19l-5 -123c-1.33301 -19.333 -10.166 -31.5 -26.499 -36.5s-35.5 -7.5 -57.5 -7.5c-29.333 0 -55.5 -3.16699 -78.5 -9.5s-42.5 -17.333 -58.5 -33s-28.167 -36.334 -36.5 -62.001
s-12.5 -57.5 -12.5 -95.5v-50h408v117c0 54.667 7 103.334 21 146.001s34.333 78.667 61 108s59.334 51.833 98.001 67.5s82.667 23.5 132 23.5c18.667 0 35.167 -0.833008 49.5 -2.5s28.5 -4.83398 42.5 -9.50098v-135c0 -12.667 -5.33301 -21.167 -16 -25.5
s-24 -6.5 -40 -6.5c-38.667 0 -66.334 -12.667 -83.001 -38s-25 -67.666 -25 -126.999v-118h636v-1052v0z" />
    <glyph glyph-name="f_jcircumflex.liga" unicode="f&#x135;" horiz-adv-x="1201" 
d="M195 0l0.00195312 839.999l-89 14c-19.333 4 -34.833 10.833 -46.5 20.5s-17.5 23.5 -17.5 41.5v101h153v117c0 54.667 7 103.334 21 146.001s34.167 78.667 60.5 108s58.833 51.833 97.5 67.5s83 23.5 133 23.5c18 0 34.333 -0.833008 49 -2.5s29 -4.83398 43 -9.50098
v-135c0 -12.667 -5.5 -21.167 -16.5 -25.5s-24.167 -6.5 -39.5 -6.5c-39.333 0 -67.333 -12.667 -84 -38s-25 -67.666 -25 -126.999v-118h636v-1052c0 -44.667 -5.83301 -86.667 -17.5 -126s-30.334 -73.833 -56.001 -103.5s-59.334 -53 -101.001 -70
s-92.5 -25.5 -152.5 -25.5c-23.333 0 -45 1.5 -65 4.5s-40.333 7.83301 -61 14.5l9 133c1.33301 13.333 6.33301 21.833 15 25.5s25.667 5.5 51 5.5c24.667 0 45.334 2.5 62.001 7.5s30.167 13 40.5 24s17.666 25.5 21.999 43.5s6.5 40.333 6.5 67v876h-381v-841h-247z
M1294 1168h-165c-9.33301 0 -18.833 1.83301 -28.5 5.5s-19.167 10.167 -28.5 19.5l-98 104c-7.33301 6.66699 -14.333 14.667 -21 24c-7.33301 -9.33301 -14.333 -17.333 -21 -24l-100 -104c-8 -8.66699 -17 -15 -27 -19s-20 -6 -30 -6h-171l229 278h232z" />
    <glyph glyph-name="f_lcaron.liga" unicode="f&#x13e;" horiz-adv-x="1223" 
d="M195 0l0.000976562 840.002l-89 14c-19.333 4 -34.833 10.833 -46.5 20.5s-17.5 23.5 -17.5 41.5v101h153v43c0 54.667 8.66699 107 26 157s43.666 94.167 78.999 132.5s80 69 134 92s117.667 34.5 191 34.5c56.667 0 110.167 -1.83301 160.5 -5.5
s100.5 -5.83398 150.5 -6.50098h163v-1464h-246v1292c-35.333 1.33301 -69.833 3 -103.5 5s-62.167 3 -85.5 3c-74.667 0 -131.667 -20.833 -171 -62.5s-59 -100.834 -59 -177.501v-43h243v-176h-235v-841h-247zM1429 1488c18.667 0 30.166 -4.16797 34.499 -12.501
s6.5 -16.5 6.5 -24.5c0 -6 -1.16699 -14.167 -3.5 -24.5s-7 -25.333 -14 -45s-16.833 -45 -29.5 -76l-49 -118.5c-8.66699 -19.333 -19.667 -31.666 -33 -36.999s-30.666 -8 -51.999 -8h-88l62 346h166z" />
    <glyph glyph-name="f_lcommaaccent.liga" unicode="f&#x13c;" horiz-adv-x="1224" 
d="M195 0l0.000976562 840.002l-89 14c-19.333 4 -34.833 10.833 -46.5 20.5s-17.5 23.5 -17.5 41.5v101h153v43c0 54.667 8.66699 107 26 157s43.666 94.167 78.999 132.5s80 69 134 92s117.667 34.5 191 34.5c56.667 0 110.167 -1.83301 160.5 -5.5
s100.5 -5.83398 150.5 -6.50098h163v-1464h-246v1292c-35.333 1.33301 -69.833 3 -103.5 5s-62.167 3 -85.5 3c-74.667 0 -131.667 -20.833 -171 -62.5s-59 -100.834 -59 -177.501v-43h243v-176h-235v-841h-247zM1045 -89.998c18.667 0 30.166 -4.16699 34.499 -12.5
s6.5 -16.5 6.5 -24.5c0 -6 -0.833008 -14.333 -2.5 -25s-4.83398 -24.5 -9.50098 -41.5s-11.667 -37.833 -21 -62.5s-21.333 -54 -36 -88c-9.33301 -18.667 -20.666 -30.667 -33.999 -36s-30.666 -8 -51.999 -8h-87l50 298h151z" />
    <glyph glyph-name="f_uni021B.liga" unicode="f&#x21b;" horiz-adv-x="1415" 
d="M1105 841l0.00488281 -556c0 -32 8 -57 24 -75s37.333 -27 64 -27c15.333 0 28.166 1.83301 38.499 5.5s19.333 7.5 27 11.5s14.5 7.83301 20.5 11.5s12 5.5 18 5.5c7.33301 0 13.333 -1.83301 18 -5.5s9.66699 -9.16699 15 -16.5l74 -120
c-36 -30 -77.167 -52.667 -123.5 -68s-94.5 -23 -144.5 -23c-89.333 0 -158 25.167 -206 75.5s-72 119.833 -72 208.5v573h-417v-841h-247v840l-89 14c-19.333 4 -34.833 10.833 -46.5 20.5s-17.5 23.5 -17.5 41.5v101h153v76c0 58.667 8.83301 111.334 26.5 158.001
s43 86.334 76 119.001s73.167 57.667 120.5 75s100.666 26 159.999 26c47.333 0 91.333 -6.33301 132 -19l-5 -124c-0.666992 -9.33301 -3.33398 -16.833 -8.00098 -22.5s-10.834 -10 -18.501 -13s-16.5 -5 -26.5 -6s-20.667 -1.5 -32 -1.5
c-29.333 0 -55.5 -3.16699 -78.5 -9.5s-42.5 -17.333 -58.5 -33s-28.167 -36.334 -36.5 -62.001s-12.5 -57.5 -12.5 -95.5v-68h436l53 281c3.33301 13.333 9.66602 23.666 18.999 30.999s21.333 11 36 11h128v-323h274v-176h-274zM1181 -90
c18.667 0 30.166 -4.16699 34.499 -12.5s6.5 -16.5 6.5 -24.5c0 -6 -0.833008 -14.333 -2.5 -25s-4.83398 -24.5 -9.50098 -41.5s-11.667 -37.833 -21 -62.5s-21.333 -54 -36 -88c-9.33301 -18.667 -20.666 -30.667 -33.999 -36s-30.666 -8 -51.999 -8h-87l50 298h151z" />
    <glyph glyph-name="f_tcaron.liga" unicode="f&#x165;" horiz-adv-x="1415" 
d="M1105 841l0.00488281 -556c0 -32 8 -57 24 -75s37.333 -27 64 -27c15.333 0 28.166 1.83301 38.499 5.5s19.333 7.5 27 11.5s14.5 7.83301 20.5 11.5s12 5.5 18 5.5c7.33301 0 13.333 -1.83301 18 -5.5s9.66699 -9.16699 15 -16.5l74 -120
c-36 -30 -77.167 -52.667 -123.5 -68s-94.5 -23 -144.5 -23c-89.333 0 -158 25.167 -206 75.5s-72 119.833 -72 208.5v573h-417v-841h-247v840l-89 14c-19.333 4 -34.833 10.833 -46.5 20.5s-17.5 23.5 -17.5 41.5v101h153v76c0 58.667 8.83301 111.334 26.5 158.001
s43 86.334 76 119.001s73.167 57.667 120.5 75s100.666 26 159.999 26c47.333 0 91.333 -6.33301 132 -19l-5 -124c-0.666992 -9.33301 -3.33398 -16.833 -8.00098 -22.5s-10.834 -10 -18.501 -13s-16.5 -5 -26.5 -6s-20.667 -1.5 -32 -1.5
c-29.333 0 -55.5 -3.16699 -78.5 -9.5s-42.5 -17.333 -58.5 -33s-28.167 -36.334 -36.5 -62.001s-12.5 -57.5 -12.5 -95.5v-68h436l53 281c3.33301 13.333 9.66602 23.666 18.999 30.999s21.333 11 36 11h128v-323h274v-176h-274zM1499 1488
c18.667 0 30.166 -4.16797 34.499 -12.501s6.5 -16.5 6.5 -24.5c0 -6 -1.16699 -14.167 -3.5 -24.5s-7 -25.333 -14 -45s-16.833 -45 -29.5 -76l-49 -118.5c-8.66699 -19.333 -19.667 -31.666 -33 -36.999s-30.666 -8 -51.999 -8h-88l62 346h166z" />
    <glyph glyph-name="f_uni1ECB.liga" unicode="f&#x1ecb;" horiz-adv-x="1201" 
d="M195 0l0.000976562 840l-89 14c-19.333 4 -34.833 10.833 -46.5 20.5s-17.5 23.5 -17.5 41.5v101h153v33c0 62.667 10.333 120.834 31 174.501s52 100.167 94 139.5s95.167 70.166 159.5 92.499s140.166 33.5 227.499 33.5c28 0 56.5 -1.5 85.5 -4.5
s54.167 -7.83301 75.5 -14.5l-8 -128c-1.33301 -15.333 -9.66602 -24.5 -24.999 -27.5s-34.333 -4.5 -57 -4.5c-64.667 0 -118.834 -5.66699 -162.501 -17s-79 -28.166 -106 -50.499s-46.333 -50.333 -58 -84s-17.5 -72.834 -17.5 -117.501v-25h636v-1017h-247v841h-381
v-841h-247zM1087 -238c0 -18.667 -3.83301 -36.334 -11.5 -53.001s-17.834 -31.334 -30.501 -44.001s-27.667 -22.667 -45 -30s-35.333 -11 -54 -11s-36.334 3.66699 -53.001 11s-31.167 17.333 -43.5 30s-22.166 27.334 -29.499 44.001s-11 34.334 -11 53.001
s3.66699 36.5 11 53.5s17.166 31.667 29.499 44s26.833 22.166 43.5 29.499s34.334 11 53.001 11s36.667 -3.66699 54 -11s32.333 -17.166 45 -29.499s22.834 -27 30.501 -44s11.5 -34.833 11.5 -53.5z" />
    <glyph glyph-name="f_uni1E2D.liga" unicode="f&#x1e2d;" horiz-adv-x="1201" 
d="M195 0l0.000976562 840l-89 14c-19.333 4 -34.833 10.833 -46.5 20.5s-17.5 23.5 -17.5 41.5v101h153v33c0 62.667 10.333 120.834 31 174.501s52 100.167 94 139.5s95.167 70.166 159.5 92.499s140.166 33.5 227.499 33.5c28 0 56.5 -1.5 85.5 -4.5
s54.167 -7.83301 75.5 -14.5l-8 -128c-1.33301 -15.333 -9.66602 -24.5 -24.999 -27.5s-34.333 -4.5 -57 -4.5c-64.667 0 -118.834 -5.66699 -162.501 -17s-79 -28.166 -106 -50.499s-46.333 -50.333 -58 -84s-17.5 -72.834 -17.5 -117.501v-25h636v-1017h-247v841h-381
v-841h-247zM1051 -152c20 0 35.668 5.50098 47.001 16.501s17 30.833 17 59.5h150c0 -37.333 -5.16699 -71.166 -15.5 -101.499s-24.5 -56.333 -42.5 -78s-39.5 -38.334 -64.5 -50.001s-52.5 -17.5 -82.5 -17.5c-24 0 -46.333 4.33301 -67 13s-40 18 -58 28l-50.5 28
c-15.667 8.66699 -30.167 13 -43.5 13c-19.333 0 -34.5 -5.83301 -45.5 -17.5s-16.5 -31.5 -16.5 -59.5h-153c0 37.333 5.16699 71.166 15.5 101.499s24.833 56.333 43.5 78s40.5 38.5 65.5 50.5s52.167 18 81.5 18c24 0 46.5 -4.33301 67.5 -13s40.5 -18 58.5 -28l50 -28
c15.333 -8.66699 29.666 -13 42.999 -13z" />
    <glyph glyph-name="f_uni0268.liga" unicode="f&#x268;" horiz-adv-x="1243" 
d="M823 573l0.000976562 268h-381v-841h-247v840l-89 14c-19.333 4 -34.833 10.833 -46.5 20.5s-17.5 23.5 -17.5 41.5v101h153v33c0 62.667 10.333 120.834 31 174.501s52 100.167 94 139.5s95.167 70.166 159.5 92.499s140.166 33.5 227.499 33.5
c28 0 56.5 -1.5 85.5 -4.5s54.167 -7.83301 75.5 -14.5l-8 -128c-1.33301 -15.333 -9.66602 -24.5 -24.999 -27.5s-34.333 -4.5 -57 -4.5c-64.667 0 -118.834 -5.66699 -162.501 -17s-79 -28.166 -106 -50.499s-46.333 -50.333 -58 -84s-17.5 -72.834 -17.5 -117.501v-25
h636v-444h142v-175h-142v-398h-247v398h-136v175h136z" />
    <glyph glyph-name="f_iacute.liga" unicode="f&#xed;" horiz-adv-x="1201" 
d="M195 0v839.999l-89 14c-19.333 4 -34.833 10.833 -46.5 20.5s-17.5 23.5 -17.5 41.5v101h153v117c0 54.667 7 103.334 21 146.001s34.167 78.667 60.5 108s58.833 51.833 97.5 67.5s83 23.5 133 23.5c18 0 34.333 -0.833008 49 -2.5s29 -4.83398 43 -9.50098v-135
c0 -12.667 -5.5 -21.167 -16.5 -25.5s-24.167 -6.5 -39.5 -6.5c-39.333 0 -67.333 -12.667 -84 -38s-25 -67.666 -25 -126.999v-118h636v-1017h-247v841h-381v-841h-247zM1291 1462l-246.998 -261c-12.667 -13.333 -24.834 -22.5 -36.501 -27.5s-26.834 -7.5 -45.501 -7.5
h-148l142 243c10 17.333 21.667 30.5 35 39.5s33.333 13.5 60 13.5h240z" />
    <glyph glyph-name="f_uni1EC9.liga" unicode="f&#x1ec9;" horiz-adv-x="1201" 
d="M195 0v839.999l-89 14c-19.333 4 -34.833 10.833 -46.5 20.5s-17.5 23.5 -17.5 41.5v101h153v117c0 54.667 7 103.334 21 146.001s34.167 78.667 60.5 108s58.833 51.833 97.5 67.5s83 23.5 133 23.5c18 0 34.333 -0.833008 49 -2.5s29 -4.83398 43 -9.50098v-135
c0 -12.667 -5.5 -21.167 -16.5 -25.5s-24.167 -6.5 -39.5 -6.5c-39.333 0 -67.333 -12.667 -84 -38s-25 -67.666 -25 -126.999v-118h636v-1017h-247v841h-381v-841h-247zM728 1444c10.667 8 23.6689 15.4971 39.002 22.4971s32.166 12.833 50.499 17.5
s37.833 8.33398 58.5 11.001s41.667 4 63 4c69.333 0 120.5 -13 153.5 -39s49.5 -59 49.5 -99c0 -35.333 -11.667 -66.166 -35 -92.499s-52.333 -47.166 -87 -62.499l-22 -86h-118v150c34.667 4.66699 58 13 70 25s18 25 18 39s-4.66699 25.667 -14 35s-25 14 -47 14
c-12 0 -23 -1.33301 -33 -4s-19.167 -5.66699 -27.5 -9l-22.5 -9c-6.66699 -2.66699 -13 -4 -19 -4c-7.33301 0 -13.333 2 -18 6s-9.33398 9.33301 -14.001 16z" />
    <glyph glyph-name="f_f_uni1ECB.liga" unicode="ff&#x1ecb;" horiz-adv-x="1849" 
d="M195 0l0.000976562 839.999l-89 14c-19.333 4 -34.833 10.833 -46.5 20.5s-17.5 23.5 -17.5 41.5v101h153v58c0 58.667 8.83301 111.334 26.5 158.001s43 86.334 76 119.001s73.167 57.667 120.5 75s100.666 26 159.999 26c46.667 0 90.334 -6.33301 131.001 -19l-5 -123
c-1.33301 -19.333 -10.166 -31.5 -26.499 -36.5s-35.5 -7.5 -57.5 -7.5c-29.333 0 -55.5 -3.16699 -78.5 -9.5s-42.5 -17.333 -58.5 -33s-28.167 -36.334 -36.5 -62.001s-12.5 -57.5 -12.5 -95.5v-50h408v33c0 62.667 10.333 120.834 31 174.501s52 100.167 94 139.5
s95.167 70.166 159.5 92.499s140.166 33.5 227.499 33.5c28 0 56.667 -1.5 86 -4.5s54.666 -7.83301 75.999 -14.5l-8 -128c-1.33301 -15.333 -9.66602 -24.5 -24.999 -27.5s-34.333 -4.5 -57 -4.5c-64.667 0 -118.834 -5.66699 -162.501 -17s-79 -28.166 -106 -50.499
s-46.333 -50.333 -58 -84s-17.5 -72.834 -17.5 -117.501v-25h636v-1017h-247v841h-381v-841h-248v841h-400v-841h-247zM1738 -238.001c0 -18.667 -3.83301 -36.334 -11.5 -53.001s-17.834 -31.334 -30.501 -44.001s-27.667 -22.667 -45 -30s-35.333 -11 -54 -11
s-36.334 3.66699 -53.001 11s-31.167 17.333 -43.5 30s-22.166 27.334 -29.499 44.001s-11 34.334 -11 53.001s3.66699 36.5 11 53.5s17.166 31.667 29.499 44s26.833 22.166 43.5 29.499s34.334 11 53.001 11s36.667 -3.66699 54 -11s32.333 -17.166 45 -29.499
s22.834 -27 30.501 -44s11.5 -34.833 11.5 -53.5z" />
    <glyph glyph-name="f_f_uni1E2D.liga" unicode="ff&#x1e2d;" horiz-adv-x="1849" 
d="M195 0l0.000976562 839.999l-89 14c-19.333 4 -34.833 10.833 -46.5 20.5s-17.5 23.5 -17.5 41.5v101h153v58c0 58.667 8.83301 111.334 26.5 158.001s43 86.334 76 119.001s73.167 57.667 120.5 75s100.666 26 159.999 26c46.667 0 90.334 -6.33301 131.001 -19l-5 -123
c-1.33301 -19.333 -10.166 -31.5 -26.499 -36.5s-35.5 -7.5 -57.5 -7.5c-29.333 0 -55.5 -3.16699 -78.5 -9.5s-42.5 -17.333 -58.5 -33s-28.167 -36.334 -36.5 -62.001s-12.5 -57.5 -12.5 -95.5v-50h408v33c0 62.667 10.333 120.834 31 174.501s52 100.167 94 139.5
s95.167 70.166 159.5 92.499s140.166 33.5 227.499 33.5c28 0 56.667 -1.5 86 -4.5s54.666 -7.83301 75.999 -14.5l-8 -128c-1.33301 -15.333 -9.66602 -24.5 -24.999 -27.5s-34.333 -4.5 -57 -4.5c-64.667 0 -118.834 -5.66699 -162.501 -17s-79 -28.166 -106 -50.499
s-46.333 -50.333 -58 -84s-17.5 -72.834 -17.5 -117.501v-25h636v-1017h-247v841h-381v-841h-248v841h-400v-841h-247zM1702 -152.001c20 0 35.668 5.50098 47.001 16.501s17 30.833 17 59.5h150c0 -37.333 -5.16699 -71.166 -15.5 -101.499s-24.5 -56.333 -42.5 -78
s-39.5 -38.334 -64.5 -50.001s-52.5 -17.5 -82.5 -17.5c-24 0 -46.333 4.33301 -67 13s-40 18 -58 28l-50.5 28c-15.667 8.66699 -30.167 13 -43.5 13c-19.333 0 -34.5 -5.83301 -45.5 -17.5s-16.5 -31.5 -16.5 -59.5h-153c0 37.333 5.16699 71.166 15.5 101.499
s24.833 56.333 43.5 78s40.5 38.5 65.5 50.5s52.167 18 81.5 18c24 0 46.5 -4.33301 67.5 -13s40.5 -18 58.5 -28l50 -28c15.333 -8.66699 29.666 -13 42.999 -13z" />
    <glyph glyph-name="f_f_uni0268.liga" unicode="ff&#x268;" horiz-adv-x="1894" 
d="M1471 573l0.000976562 267.999h-381v-841h-248v841h-400v-841h-247v840l-89 14c-19.333 4 -34.833 10.833 -46.5 20.5s-17.5 23.5 -17.5 41.5v101h153v58c0 58.667 8.83301 111.334 26.5 158.001s43 86.334 76 119.001s73.167 57.667 120.5 75s100.666 26 159.999 26
c46.667 0 90.334 -6.33301 131.001 -19l-5 -123c-1.33301 -19.333 -10.166 -31.5 -26.499 -36.5s-35.5 -7.5 -57.5 -7.5c-29.333 0 -55.5 -3.16699 -78.5 -9.5s-42.5 -17.333 -58.5 -33s-28.167 -36.334 -36.5 -62.001s-12.5 -57.5 -12.5 -95.5v-50h408v33
c0 62.667 10.333 120.834 31 174.501s52 100.167 94 139.5s95.167 70.166 159.5 92.499s140.166 33.5 227.499 33.5c28 0 56.667 -1.5 86 -4.5s54.666 -7.83301 75.999 -14.5l-8 -128c-1.33301 -15.333 -9.66602 -24.5 -24.999 -27.5s-34.333 -4.5 -57 -4.5
c-64.667 0 -118.834 -5.66699 -162.501 -17s-79 -28.166 -106 -50.499s-46.333 -50.333 -58 -84s-17.5 -72.834 -17.5 -117.501v-25h636v-444h144v-175h-144v-398h-247v398h-134v175h134z" />
    <glyph glyph-name="f_f_iacute.liga" unicode="ff&#xed;" horiz-adv-x="1848" 
d="M195 0l-0.000976562 839.998l-89 14c-19.333 4 -34.833 10.833 -46.5 20.5s-17.5 23.5 -17.5 41.5v101h153v58c0 58.667 8.83301 111.334 26.5 158.001s43 86.334 76 119.001s73.167 57.667 120.5 75s100.666 26 159.999 26c46.667 0 90.334 -6.33301 131.001 -19
l-5 -123c-1.33301 -19.333 -10.166 -31.5 -26.499 -36.5s-35.5 -7.5 -57.5 -7.5c-29.333 0 -55.5 -3.16699 -78.5 -9.5s-42.5 -17.333 -58.5 -33s-28.167 -36.334 -36.5 -62.001s-12.5 -57.5 -12.5 -95.5v-50h408v117c0 54.667 7 103.334 21 146.001s34.333 78.667 61 108
s59.334 51.833 98.001 67.5s82.667 23.5 132 23.5c18.667 0 35.167 -0.833008 49.5 -2.5s28.5 -4.83398 42.5 -9.50098v-135c0 -12.667 -5.33301 -21.167 -16 -25.5s-24 -6.5 -40 -6.5c-38.667 0 -66.334 -12.667 -83.001 -38s-25 -67.666 -25 -126.999v-118h636v-1017h-247
v841h-381v-841h-248v841h-400v-841h-247zM1943 1462l-246.998 -261c-12.667 -13.333 -24.834 -22.5 -36.501 -27.5s-26.834 -7.5 -45.501 -7.5h-148l142 243c10 17.333 21.667 30.5 35 39.5s33.333 13.5 60 13.5h240z" />
    <glyph glyph-name="f_f_uni1EC9.liga" unicode="ff&#x1ec9;" horiz-adv-x="1839" 
d="M195 0l-0.000976562 839.998l-89 14c-19.333 4 -34.833 10.833 -46.5 20.5s-17.5 23.5 -17.5 41.5v101h153v58c0 58.667 8.83301 111.334 26.5 158.001s43 86.334 76 119.001s73.167 57.667 120.5 75s100.666 26 159.999 26c46.667 0 90.334 -6.33301 131.001 -19
l-5 -123c-1.33301 -19.333 -10.166 -31.5 -26.499 -36.5s-35.5 -7.5 -57.5 -7.5c-29.333 0 -55.5 -3.16699 -78.5 -9.5s-42.5 -17.333 -58.5 -33s-28.167 -36.334 -36.5 -62.001s-12.5 -57.5 -12.5 -95.5v-50h408v117c0 54.667 7 103.334 21 146.001s34.333 78.667 61 108
s59.334 51.833 98.001 67.5s82.667 23.5 132 23.5c18.667 0 35.167 -0.833008 49.5 -2.5s28.5 -4.83398 42.5 -9.50098v-135c0 -12.667 -5.33301 -21.167 -16 -25.5s-24 -6.5 -40 -6.5c-38.667 0 -66.334 -12.667 -83.001 -38s-25 -67.666 -25 -126.999v-118h636v-1017h-247
v841h-381v-841h-248v841h-400v-841h-247zM1380 1444c10.667 8 23.6689 15.4971 39.002 22.4971s32.166 12.833 50.499 17.5s37.833 8.33398 58.5 11.001s41.667 4 63 4c69.333 0 120.5 -13 153.5 -39s49.5 -59 49.5 -99c0 -35.333 -11.667 -66.166 -35 -92.499
s-52.333 -47.166 -87 -62.499l-22 -86h-118v150c34.667 4.66699 58 13 70 25s18 25 18 39s-4.66699 25.667 -14 35s-25 14 -47 14c-12 0 -23 -1.33301 -33 -4s-19.167 -5.66699 -27.5 -9l-22.5 -9c-6.66699 -2.66699 -13 -4 -19 -4c-7.33301 0 -13.333 2 -18 6
s-9.33398 9.33301 -14.001 16z" />
    <glyph glyph-name="f_lacute.liga" unicode="f&#x13a;" horiz-adv-x="1224" 
d="M195 0l0.000976562 840.002l-89 14c-19.333 4 -34.833 10.833 -46.5 20.5s-17.5 23.5 -17.5 41.5v101h153v43c0 54.667 8.66699 107 26 157s43.666 94.167 78.999 132.5s80 69 134 92s117.667 34.5 191 34.5c56.667 0 110.167 -1.83301 160.5 -5.5
s100.5 -5.83398 150.5 -6.50098h163v-1464h-246v1292c-35.333 1.33301 -69.833 3 -103.5 5s-62.167 3 -85.5 3c-74.667 0 -131.667 -20.833 -171 -62.5s-59 -100.834 -59 -177.501v-43h243v-176h-235v-841h-247zM1399 1861l-324.001 -286.002
c-13.333 -12 -26 -19.333 -38 -22s-27.333 -4 -46 -4h-179l209 271c6.66699 9.33301 13.334 16.833 20.001 22.5s14 9.83398 22 12.501s16.833 4.33398 26.5 5.00098s21.167 1 34.5 1h275z" />
    <glyph glyph-name="t_i.liga" unicode="ti" horiz-adv-x="1287" 
d="M1157 0l-246.999 0.000976562v841h-476v-556c0 -32 7.83301 -57 23.5 -75s37.167 -27 64.5 -27c15.333 0 28.166 1.83301 38.499 5.5s19.333 7.5 27 11.5s14.5 7.83301 20.5 11.5s12 5.5 18 5.5c7.33301 0 13.333 -1.83301 18 -5.5s9.66699 -9.16699 15 -16.5l74 -120
c-36 -30 -77.333 -52.667 -124 -68s-95 -23 -145 -23c-89.333 0 -157.833 25.167 -205.5 75.5s-71.5 119.833 -71.5 208.5v573h-105c-13.333 0 -24.666 4.33301 -33.999 13s-14 21.667 -14 39v98l165 28l52 279c3.33301 13.333 9.66602 23.666 18.999 30.999
s21.333 11 36 11h128v-323h723v-1017zM1200 1329c0 -21.333 -4.33301 -41.5 -13 -60.5s-20.167 -35.5 -34.5 -49.5s-31.333 -25.167 -51 -33.5s-40.5 -12.5 -62.5 -12.5c-21.333 0 -41.333 4.16699 -60 12.5s-35 19.5 -49 33.5s-25.167 30.5 -33.5 49.5
s-12.5 39.167 -12.5 60.5c0 22 4.16699 42.5 12.5 61.5s19.5 35.667 33.5 50s30.333 25.666 49 33.999s38.667 12.5 60 12.5c22 0 42.833 -4.16699 62.5 -12.5s36.667 -19.666 51 -33.999s25.833 -31 34.5 -50s13 -39.5 13 -61.5z" />
    <glyph glyph-name="t_igrave.liga" unicode="t&#xec;" horiz-adv-x="1287" 
d="M1157 0l-246.999 0.000976562v841h-476v-556c0 -32 7.83301 -57 23.5 -75s37.167 -27 64.5 -27c15.333 0 28.166 1.83301 38.499 5.5s19.333 7.5 27 11.5s14.5 7.83301 20.5 11.5s12 5.5 18 5.5c7.33301 0 13.333 -1.83301 18 -5.5s9.66699 -9.16699 15 -16.5l74 -120
c-36 -30 -77.333 -52.667 -124 -68s-95 -23 -145 -23c-89.333 0 -157.833 25.167 -205.5 75.5s-71.5 119.833 -71.5 208.5v573h-105c-13.333 0 -24.666 4.33301 -33.999 13s-14 21.667 -14 39v98l165 28l52 279c3.33301 13.333 9.66602 23.666 18.999 30.999
s21.333 11 36 11h128v-323h723v-1017zM952.001 1462c27.333 0 47.6689 -4.5 61.002 -13.5s24.666 -22.167 33.999 -39.5l143 -243h-141c-18.667 0 -33.834 2.5 -45.501 7.5s-23.5 14.167 -35.5 27.5l-247 261h231z" />
    <glyph glyph-name="t_iacute.liga" unicode="t&#xed;" horiz-adv-x="1286" 
d="M1156 0l-246.999 0.000976562v841h-476v-556c0 -32 7.83301 -57 23.5 -75s37.167 -27 64.5 -27c15.333 0 28.166 1.83301 38.499 5.5s19.333 7.5 27 11.5s14.5 7.83301 20.5 11.5s12 5.5 18 5.5c7.33301 0 13.333 -1.83301 18 -5.5s9.66699 -9.16699 15 -16.5l74 -120
c-36 -30 -77.333 -52.667 -124 -68s-95 -23 -145 -23c-89.333 0 -157.833 25.167 -205.5 75.5s-71.5 119.833 -71.5 208.5v573h-105c-13.333 0 -24.666 4.33301 -33.999 13s-14 21.667 -14 39v98l165 28l52 279c3.33301 13.333 9.66602 23.666 18.999 30.999
s21.333 11 36 11h128v-323h723v-1017zM1386 1462l-246.998 -261c-12.667 -13.333 -24.834 -22.5 -36.501 -27.5s-26.834 -7.5 -45.501 -7.5h-148l142 243c10 17.333 21.667 30.5 35 39.5s33.333 13.5 60 13.5h240z" />
    <glyph glyph-name="t_icircumflex.liga" unicode="t&#xee;" horiz-adv-x="1287" 
d="M1157 0l-246.999 0.000976562v841h-476v-556c0 -32 7.83301 -57 23.5 -75s37.167 -27 64.5 -27c15.333 0 28.166 1.83301 38.499 5.5s19.333 7.5 27 11.5s14.5 7.83301 20.5 11.5s12 5.5 18 5.5c7.33301 0 13.333 -1.83301 18 -5.5s9.66699 -9.16699 15 -16.5l74 -120
c-36 -30 -77.333 -52.667 -124 -68s-95 -23 -145 -23c-89.333 0 -157.833 25.167 -205.5 75.5s-71.5 119.833 -71.5 208.5v573h-105c-13.333 0 -24.666 4.33301 -33.999 13s-14 21.667 -14 39v98l165 28l52 279c3.33301 13.333 9.66602 23.666 18.999 30.999
s21.333 11 36 11h128v-323h723v-1017zM1386 1168h-165c-9.33301 0 -18.833 1.83301 -28.5 5.5s-19.167 10.167 -28.5 19.5l-98 104c-7.33301 6.66699 -14.333 14.667 -21 24c-7.33301 -9.33301 -14.333 -17.333 -21 -24l-100 -104c-8 -8.66699 -17 -15 -27 -19
s-20 -6 -30 -6h-171l229 278h232z" />
    <glyph glyph-name="t_idieresis.liga" unicode="t&#xef;" horiz-adv-x="1287" 
d="M1157 0l-246.999 0.000976562v841h-476v-556c0 -32 7.83301 -57 23.5 -75s37.167 -27 64.5 -27c15.333 0 28.166 1.83301 38.499 5.5s19.333 7.5 27 11.5s14.5 7.83301 20.5 11.5s12 5.5 18 5.5c7.33301 0 13.333 -1.83301 18 -5.5s9.66699 -9.16699 15 -16.5l74 -120
c-36 -30 -77.333 -52.667 -124 -68s-95 -23 -145 -23c-89.333 0 -157.833 25.167 -205.5 75.5s-71.5 119.833 -71.5 208.5v573h-105c-13.333 0 -24.666 4.33301 -33.999 13s-14 21.667 -14 39v98l165 28l52 279c3.33301 13.333 9.66602 23.666 18.999 30.999
s21.333 11 36 11h128v-323h723v-1017zM1009 1292c0 -18.667 -3.66699 -36.167 -11 -52.5s-17.5 -30.5 -30.5 -42.5s-28 -21.5 -45 -28.5s-34.833 -10.5 -53.5 -10.5c-18 0 -35.167 3.5 -51.5 10.5s-30.833 16.5 -43.5 28.5s-22.667 26.167 -30 42.5s-11 33.833 -11 52.5
c0 19.333 3.66699 37.5 11 54.5s17.333 31.833 30 44.5s27.167 22.667 43.5 30s33.5 11 51.5 11c18.667 0 36.5 -3.66699 53.5 -11s32 -17.333 45 -30s23.167 -27.5 30.5 -44.5s11 -35.167 11 -54.5zM1349 1292c0 -18.667 -3.66699 -36.167 -11 -52.5
s-17.166 -30.5 -29.499 -42.5s-27 -21.5 -44 -28.5s-35.167 -10.5 -54.5 -10.5c-18.667 0 -36.334 3.5 -53.001 10.5s-31.167 16.5 -43.5 28.5s-22.166 26.167 -29.499 42.5s-11 33.833 -11 52.5c0 19.333 3.66699 37.5 11 54.5s17.166 31.833 29.499 44.5
s26.833 22.667 43.5 30s34.334 11 53.001 11c19.333 0 37.5 -3.66699 54.5 -11s31.667 -17.333 44 -30s22.166 -27.5 29.499 -44.5s11 -35.167 11 -54.5z" />
    <glyph glyph-name="t_imacron.liga" unicode="t&#x12b;" horiz-adv-x="1287" 
d="M1157 0l-246.999 0.000976562v841h-476v-556c0 -32 7.83301 -57 23.5 -75s37.167 -27 64.5 -27c15.333 0 28.166 1.83301 38.499 5.5s19.333 7.5 27 11.5s14.5 7.83301 20.5 11.5s12 5.5 18 5.5c7.33301 0 13.333 -1.83301 18 -5.5s9.66699 -9.16699 15 -16.5l74 -120
c-36 -30 -77.333 -52.667 -124 -68s-95 -23 -145 -23c-89.333 0 -157.833 25.167 -205.5 75.5s-71.5 119.833 -71.5 208.5v573h-105c-13.333 0 -24.666 4.33301 -33.999 13s-14 21.667 -14 39v98l165 28l52 279c3.33301 13.333 9.66602 23.666 18.999 30.999
s21.333 11 36 11h128v-323h723v-1017zM742.001 1372h598v-158h-598v158z" />
    <glyph glyph-name="t_itilde.liga" unicode="t&#x129;" horiz-adv-x="1287" 
d="M1156 0l-246.999 0.000976562v841h-476v-556c0 -32 7.83301 -57 23.5 -75s37.167 -27 64.5 -27c15.333 0 28.166 1.83301 38.499 5.5s19.333 7.5 27 11.5s14.5 7.83301 20.5 11.5s12 5.5 18 5.5c7.33301 0 13.333 -1.83301 18 -5.5s9.66699 -9.16699 15 -16.5l74 -120
c-36 -30 -77.333 -52.667 -124 -68s-95 -23 -145 -23c-89.333 0 -157.833 25.167 -205.5 75.5s-71.5 119.833 -71.5 208.5v573h-105c-13.333 0 -24.666 4.33301 -33.999 13s-14 21.667 -14 39v98l165 28l52 279c3.33301 13.333 9.66602 23.666 18.999 30.999
s21.333 11 36 11h128v-323h723v-1017zM1147 1359c20 0 35.668 5.50098 47.001 16.501s17 30.833 17 59.5h150c0 -37.333 -5.16699 -71.166 -15.5 -101.499s-24.5 -56.333 -42.5 -78s-39.5 -38.334 -64.5 -50.001s-52.5 -17.5 -82.5 -17.5c-24 0 -46.333 4.33301 -67 13
s-40 18 -58 28l-50.5 28c-15.667 8.66699 -30.167 13 -43.5 13c-19.333 0 -34.5 -5.83301 -45.5 -17.5s-16.5 -31.5 -16.5 -59.5h-153c0 37.333 5.16699 71.166 15.5 101.499s24.833 56.333 43.5 78s40.5 38.5 65.5 50.5s52.167 18 81.5 18c24 0 46.5 -4.33301 67.5 -13
s40.5 -18 58.5 -28l50 -28c15.333 -8.66699 29.666 -13 42.999 -13z" />
    <glyph glyph-name="t_ibreve.liga" unicode="t&#x12d;" horiz-adv-x="1287" 
d="M1157 0l-246.999 0.000976562v841h-476v-556c0 -32 7.83301 -57 23.5 -75s37.167 -27 64.5 -27c15.333 0 28.166 1.83301 38.499 5.5s19.333 7.5 27 11.5s14.5 7.83301 20.5 11.5s12 5.5 18 5.5c7.33301 0 13.333 -1.83301 18 -5.5s9.66699 -9.16699 15 -16.5l74 -120
c-36 -30 -77.333 -52.667 -124 -68s-95 -23 -145 -23c-89.333 0 -157.833 25.167 -205.5 75.5s-71.5 119.833 -71.5 208.5v573h-105c-13.333 0 -24.666 4.33301 -33.999 13s-14 21.667 -14 39v98l165 28l52 279c3.33301 13.333 9.66602 23.666 18.999 30.999
s21.333 11 36 11h128v-323h723v-1017zM1041 1161c-57.333 0 -105.169 7.5 -143.502 22.5s-69.333 35.5 -93 61.5s-40.5 56.333 -50.5 91s-15 71.334 -15 110.001h173c0 -20 1.83301 -38 5.5 -54s10.334 -29.5 20.001 -40.5s22.834 -19.5 39.501 -25.5s38 -9 64 -9
s47.333 3 64 9s29.834 14.5 39.501 25.5s16.334 24.5 20.001 40.5s5.5 34 5.5 54h173c0 -38.667 -5 -75.334 -15 -110.001s-26.833 -65 -50.5 -91s-54.834 -46.5 -93.501 -61.5s-86.334 -22.5 -143.001 -22.5z" />
    <glyph glyph-name="t_uni01D0.liga" unicode="t&#x1d0;" horiz-adv-x="1287" 
d="M1157 0l-246.999 0.000976562v841h-476v-556c0 -32 7.83301 -57 23.5 -75s37.167 -27 64.5 -27c15.333 0 28.166 1.83301 38.499 5.5s19.333 7.5 27 11.5s14.5 7.83301 20.5 11.5s12 5.5 18 5.5c7.33301 0 13.333 -1.83301 18 -5.5s9.66699 -9.16699 15 -16.5l74 -120
c-36 -30 -77.333 -52.667 -124 -68s-95 -23 -145 -23c-89.333 0 -157.833 25.167 -205.5 75.5s-71.5 119.833 -71.5 208.5v573h-105c-13.333 0 -24.666 4.33301 -33.999 13s-14 21.667 -14 39v98l165 28l52 279c3.33301 13.333 9.66602 23.666 18.999 30.999
s21.333 11 36 11h128v-323h723v-1017zM1386 1446l-228.998 -278h-232l-229 278h171c10 0 19.5 -1.66699 28.5 -5s16.167 -7.33301 21.5 -12l106 -111c3.33301 -3.33301 6.83301 -7.16602 10.5 -11.499l11.5 -13.5c3.33301 4.66699 6.83301 9.16699 10.5 13.5
s7.16699 8.16602 10.5 11.499l105 111c5.33301 4 12.666 7.83301 21.999 11.5s18.666 5.5 27.999 5.5h165z" />
    <glyph glyph-name="t_uni1E2D.liga" unicode="t&#x1e2d;" horiz-adv-x="1287" 
d="M1156 0l-246.999 0.000976562v841h-476v-556c0 -32 7.83301 -57 23.5 -75s37.167 -27 64.5 -27c15.333 0 28.166 1.83301 38.499 5.5s19.333 7.5 27 11.5s14.5 7.83301 20.5 11.5s12 5.5 18 5.5c7.33301 0 13.333 -1.83301 18 -5.5s9.66699 -9.16699 15 -16.5l74 -120
c-36 -30 -77.333 -52.667 -124 -68s-95 -23 -145 -23c-89.333 0 -157.833 25.167 -205.5 75.5s-71.5 119.833 -71.5 208.5v573h-105c-13.333 0 -24.666 4.33301 -33.999 13s-14 21.667 -14 39v98l165 28l52 279c3.33301 13.333 9.66602 23.666 18.999 30.999
s21.333 11 36 11h128v-323h723v-1017zM1199 1329c0 -21.333 -4.33301 -41.5 -13 -60.5s-20.167 -35.5 -34.5 -49.5s-31.333 -25.167 -51 -33.5s-40.5 -12.5 -62.5 -12.5c-21.333 0 -41.333 4.16699 -60 12.5s-35 19.5 -49 33.5s-25.167 30.5 -33.5 49.5
s-12.5 39.167 -12.5 60.5c0 22 4.16699 42.5 12.5 61.5s19.5 35.667 33.5 50s30.333 25.666 49 33.999s38.667 12.5 60 12.5c22 0 42.833 -4.16699 62.5 -12.5s36.667 -19.666 51 -33.999s25.833 -31 34.5 -50s13 -39.5 13 -61.5zM1144 -151.999
c20 0 35.668 5.50098 47.001 16.501s17 30.833 17 59.5h150c0 -37.333 -5.16699 -71.166 -15.5 -101.499s-24.5 -56.333 -42.5 -78s-39.5 -38.334 -64.5 -50.001s-52.5 -17.5 -82.5 -17.5c-24 0 -46.333 4.33301 -67 13s-40 18 -58 28l-50.5 28
c-15.667 8.66699 -30.167 13 -43.5 13c-19.333 0 -34.5 -5.83301 -45.5 -17.5s-16.5 -31.5 -16.5 -59.5h-153c0 37.333 5.16699 71.166 15.5 101.499s24.833 56.333 43.5 78s40.5 38.5 65.5 50.5s52.167 18 81.5 18c24 0 46.5 -4.33301 67.5 -13s40.5 -18 58.5 -28l50 -28
c15.333 -8.66699 29.666 -13 42.999 -13z" />
    <glyph glyph-name="t_uni1E2F.liga" unicode="t&#x1e2f;" horiz-adv-x="1286" 
d="M1156 0l-246.999 0.000976562v841h-476v-556c0 -32 7.83301 -57 23.5 -75s37.167 -27 64.5 -27c15.333 0 28.166 1.83301 38.499 5.5s19.333 7.5 27 11.5s14.5 7.83301 20.5 11.5s12 5.5 18 5.5c7.33301 0 13.333 -1.83301 18 -5.5s9.66699 -9.16699 15 -16.5l74 -120
c-36 -30 -77.333 -52.667 -124 -68s-95 -23 -145 -23c-89.333 0 -157.833 25.167 -205.5 75.5s-71.5 119.833 -71.5 208.5v573h-105c-13.333 0 -24.666 4.33301 -33.999 13s-14 21.667 -14 39v98l165 28l52 279c3.33301 13.333 9.66602 23.666 18.999 30.999
s21.333 11 36 11h128v-323h723v-1017zM1428 1784l-246.998 -261c-12.667 -13.333 -24.834 -22.5 -36.501 -27.5s-26.834 -7.5 -45.501 -7.5h-148l142 243c10 17.333 21.667 30.5 35 39.5s33.333 13.5 60 13.5h240zM976.003 1292c0 -18.667 -3.66699 -36.167 -11 -52.5
s-17.5 -30.5 -30.5 -42.5s-28 -21.5 -45 -28.5s-35.167 -10.5 -54.5 -10.5c-18 0 -35.167 3.5 -51.5 10.5s-30.666 16.5 -42.999 28.5s-22.166 26.167 -29.499 42.5s-11 33.833 -11 52.5c0 19.333 3.66699 37.5 11 54.5s17.166 31.833 29.499 44.5s26.666 22.667 42.999 30
s33.5 11 51.5 11c19.333 0 37.5 -3.66699 54.5 -11s32 -17.333 45 -30s23.167 -27.5 30.5 -44.5s11 -35.167 11 -54.5zM1380 1292c0 -18.667 -3.66699 -36.167 -11 -52.5s-17.166 -30.5 -29.499 -42.5s-27 -21.5 -44 -28.5s-35.167 -10.5 -54.5 -10.5
c-18.667 0 -36.334 3.5 -53.001 10.5s-31.167 16.5 -43.5 28.5s-22.166 26.167 -29.499 42.5s-11 33.833 -11 52.5c0 19.333 3.66699 37.5 11 54.5s17.166 31.833 29.499 44.5s26.833 22.667 43.5 30s34.334 11 53.001 11c19.333 0 37.5 -3.66699 54.5 -11
s31.667 -17.333 44 -30s22.166 -27.5 29.499 -44.5s11 -35.167 11 -54.5z" />
    <glyph glyph-name="t_uni0268.liga" unicode="t&#x268;" horiz-adv-x="1342" 
d="M1039 1173c-21.333 0 -41.333 4.16699 -60 12.5s-35 19.5 -49 33.5s-25.167 30.5 -33.5 49.5s-12.5 39.167 -12.5 60.5c0 22 4.16699 42.5 12.5 61.5s19.5 35.667 33.5 50s30.333 25.666 49 33.999s38.667 12.5 60 12.5c22 0 42.833 -4.16699 62.5 -12.5
s36.667 -19.666 51 -33.999s25.833 -31 34.5 -50s13 -39.5 13 -61.5c0 -21.333 -4.33301 -41.5 -13 -60.5s-20.167 -35.5 -34.5 -49.5s-31.333 -25.167 -51 -33.5s-40.5 -12.5 -62.5 -12.5zM1306 398l-148.999 0.000976562v-398h-247v398h-129v175h129v268h-476v-556
c0 -32 7.83301 -57 23.5 -75s37.167 -27 64.5 -27c15.333 0 28.166 1.83301 38.499 5.5s19.333 7.5 27 11.5s14.5 7.83301 20.5 11.5s12 5.5 18 5.5c7.33301 0 13.333 -1.83301 18 -5.5s9.66699 -9.16699 15 -16.5l74 -120c-36 -30 -77.333 -52.667 -124 -68
s-95 -23 -145 -23c-89.333 0 -157.833 25.167 -205.5 75.5s-71.5 119.833 -71.5 208.5v573h-105c-13.333 0 -24.666 4.33301 -33.999 13s-14 21.667 -14 39v98l165 28l52 279c3.33301 13.333 9.66602 23.666 18.999 30.999s21.333 11 36 11h128v-323h723v-444h149v-175z" />
    <glyph glyph-name="t_uni020B.liga" unicode="t&#x20b;" horiz-adv-x="1287" 
d="M1157 0l-246.999 0.000976562v841h-476v-556c0 -32 7.83301 -57 23.5 -75s37.167 -27 64.5 -27c15.333 0 28.166 1.83301 38.499 5.5s19.333 7.5 27 11.5s14.5 7.83301 20.5 11.5s12 5.5 18 5.5c7.33301 0 13.333 -1.83301 18 -5.5s9.66699 -9.16699 15 -16.5l74 -120
c-36 -30 -77.333 -52.667 -124 -68s-95 -23 -145 -23c-89.333 0 -157.833 25.167 -205.5 75.5s-71.5 119.833 -71.5 208.5v573h-105c-13.333 0 -24.666 4.33301 -33.999 13s-14 21.667 -14 39v98l165 28l52 279c3.33301 13.333 9.66602 23.666 18.999 30.999
s21.333 11 36 11h128v-323h723v-1017zM1041 1461c56.667 0 104.337 -7.5 143.004 -22.5s69.834 -35.5 93.501 -61.5s40.5 -56.333 50.5 -91s15 -71.334 15 -110.001h-173c0 20 -1.83301 38 -5.5 54s-10.334 29.667 -20.001 41s-22.834 20 -39.501 26s-38 9 -64 9
s-47.333 -3 -64 -9s-29.834 -14.667 -39.501 -26s-16.334 -25 -20.001 -41s-5.5 -34 -5.5 -54h-173c0 38.667 5 75.334 15 110.001s26.833 65 50.5 91s54.667 46.5 93 61.5s86.166 22.5 143.499 22.5z" />
    <glyph glyph-name="t_uni0209.liga" unicode="t&#x209;" horiz-adv-x="1287" 
d="M1157 0l-246.999 0.000976562v841h-476v-556c0 -32 7.83301 -57 23.5 -75s37.167 -27 64.5 -27c15.333 0 28.166 1.83301 38.499 5.5s19.333 7.5 27 11.5s14.5 7.83301 20.5 11.5s12 5.5 18 5.5c7.33301 0 13.333 -1.83301 18 -5.5s9.66699 -9.16699 15 -16.5l74 -120
c-36 -30 -77.333 -52.667 -124 -68s-95 -23 -145 -23c-89.333 0 -157.833 25.167 -205.5 75.5s-71.5 119.833 -71.5 208.5v573h-105c-13.333 0 -24.666 4.33301 -33.999 13s-14 21.667 -14 39v98l165 28l52 279c3.33301 13.333 9.66602 23.666 18.999 30.999
s21.333 11 36 11h128v-323h723v-1017zM1070 1462c27.333 0 47.667 -4.5 61 -13.5s24.666 -22.167 33.999 -39.5l127 -243h-101c-19.333 0 -35.166 2.5 -47.499 7.5s-23.833 14.167 -34.5 27.5l-199 261h160zM739.002 1462c13.333 0 24.668 -1.16699 34.001 -3.5
s17.5 -5.83301 24.5 -10.5s13.333 -10.167 19 -16.5s11.5 -13.833 17.5 -22.5l177 -243h-117c-18.667 0 -33.834 2.5 -45.501 7.5s-23.5 14.167 -35.5 27.5l-252 261h178z" />
    <glyph glyph-name="t_t_i.liga" unicode="tti" horiz-adv-x="1930" 
d="M1799 0l-247.001 0.00195312v841h-456v-556c0 -32 8 -57 24 -75s37.667 -27 65 -27c14.667 0 27.334 1.83301 38.001 5.5s19.834 7.5 27.501 11.5s14.5 7.83301 20.5 11.5s12 5.5 18 5.5c7.33301 0 13.333 -1.83301 18 -5.5s9.66699 -9.16699 15 -16.5l74 -120
c-36 -30 -77.333 -52.667 -124 -68s-95 -23 -145 -23c-89.333 0 -158 25.167 -206 75.5s-72 119.833 -72 208.5v573h-415v-556c0 -32 7.83301 -57 23.5 -75s37.167 -27 64.5 -27c15.333 0 28.166 1.83301 38.499 5.5s19.333 7.5 27 11.5s14.5 7.83301 20.5 11.5
s12 5.5 18 5.5c7.33301 0 13.333 -1.83301 18 -5.5s9.66699 -9.16699 15 -16.5l74 -120c-36 -30 -77.333 -52.667 -124 -68s-95 -23 -145 -23c-89.333 0 -157.833 25.167 -205.5 75.5s-71.5 119.833 -71.5 208.5v573h-105c-13.333 0 -24.666 4.33301 -33.999 13
s-14 21.667 -14 39v98l165 28l52 279c3.33301 13.333 9.66602 23.666 18.999 30.999s21.333 11 36 11h128v-323h427l53 281c3.33301 13.333 9.5 23.666 18.5 30.999s21.167 11 36.5 11h127v-323h703v-1017zM1838 1329c0 -21.333 -4.33301 -41.5 -13 -60.5
s-20.167 -35.5 -34.5 -49.5s-31.333 -25.167 -51 -33.5s-40.5 -12.5 -62.5 -12.5c-21.333 0 -41.333 4.16699 -60 12.5s-35 19.5 -49 33.5s-25.167 30.5 -33.5 49.5s-12.5 39.167 -12.5 60.5c0 22 4.16699 42.5 12.5 61.5s19.5 35.667 33.5 50s30.333 25.666 49 33.999
s38.667 12.5 60 12.5c22 0 42.833 -4.16699 62.5 -12.5s36.667 -19.666 51 -33.999s25.833 -31 34.5 -50s13 -39.5 13 -61.5z" />
    <glyph glyph-name="t_t_igrave.liga" unicode="tt&#xec;" horiz-adv-x="1930" 
d="M1799 0l-247.001 0.00195312v841h-456v-556c0 -32 8 -57 24 -75s37.667 -27 65 -27c14.667 0 27.334 1.83301 38.001 5.5s19.834 7.5 27.501 11.5s14.5 7.83301 20.5 11.5s12 5.5 18 5.5c7.33301 0 13.333 -1.83301 18 -5.5s9.66699 -9.16699 15 -16.5l74 -120
c-36 -30 -77.333 -52.667 -124 -68s-95 -23 -145 -23c-89.333 0 -158 25.167 -206 75.5s-72 119.833 -72 208.5v573h-415v-556c0 -32 7.83301 -57 23.5 -75s37.167 -27 64.5 -27c15.333 0 28.166 1.83301 38.499 5.5s19.333 7.5 27 11.5s14.5 7.83301 20.5 11.5
s12 5.5 18 5.5c7.33301 0 13.333 -1.83301 18 -5.5s9.66699 -9.16699 15 -16.5l74 -120c-36 -30 -77.333 -52.667 -124 -68s-95 -23 -145 -23c-89.333 0 -157.833 25.167 -205.5 75.5s-71.5 119.833 -71.5 208.5v573h-105c-13.333 0 -24.666 4.33301 -33.999 13
s-14 21.667 -14 39v98l165 28l52 279c3.33301 13.333 9.66602 23.666 18.999 30.999s21.333 11 36 11h128v-323h427l53 281c3.33301 13.333 9.5 23.666 18.5 30.999s21.167 11 36.5 11h127v-323h703v-1017zM1590 1462c27.333 0 47.6689 -4.5 61.002 -13.5
s24.666 -22.167 33.999 -39.5l143 -243h-141c-18.667 0 -33.834 2.5 -45.501 7.5s-23.5 14.167 -35.5 27.5l-247 261h231z" />
    <glyph glyph-name="t_t_iacute.liga" unicode="tt&#xed;" horiz-adv-x="1929" 
d="M1798 0l-247.001 0.00195312v841h-456v-556c0 -32 8 -57 24 -75s37.667 -27 65 -27c14.667 0 27.334 1.83301 38.001 5.5s19.834 7.5 27.501 11.5s14.5 7.83301 20.5 11.5s12 5.5 18 5.5c7.33301 0 13.333 -1.83301 18 -5.5s9.66699 -9.16699 15 -16.5l74 -120
c-36 -30 -77.333 -52.667 -124 -68s-95 -23 -145 -23c-89.333 0 -158 25.167 -206 75.5s-72 119.833 -72 208.5v573h-415v-556c0 -32 7.83301 -57 23.5 -75s37.167 -27 64.5 -27c15.333 0 28.166 1.83301 38.499 5.5s19.333 7.5 27 11.5s14.5 7.83301 20.5 11.5
s12 5.5 18 5.5c7.33301 0 13.333 -1.83301 18 -5.5s9.66699 -9.16699 15 -16.5l74 -120c-36 -30 -77.333 -52.667 -124 -68s-95 -23 -145 -23c-89.333 0 -157.833 25.167 -205.5 75.5s-71.5 119.833 -71.5 208.5v573h-105c-13.333 0 -24.666 4.33301 -33.999 13
s-14 21.667 -14 39v98l165 28l52 279c3.33301 13.333 9.66602 23.666 18.999 30.999s21.333 11 36 11h128v-323h427l53 281c3.33301 13.333 9.5 23.666 18.5 30.999s21.167 11 36.5 11h127v-323h703v-1017zM2025 1462l-246.998 -261
c-12.667 -13.333 -24.834 -22.5 -36.501 -27.5s-26.834 -7.5 -45.501 -7.5h-148l142 243c10 17.333 21.667 30.5 35 39.5s33.333 13.5 60 13.5h240z" />
    <glyph glyph-name="t_t_icircumflex.liga" unicode="tt&#xee;" horiz-adv-x="1930" 
d="M1799 0l-247.001 0.00195312v841h-456v-556c0 -32 8 -57 24 -75s37.667 -27 65 -27c14.667 0 27.334 1.83301 38.001 5.5s19.834 7.5 27.501 11.5s14.5 7.83301 20.5 11.5s12 5.5 18 5.5c7.33301 0 13.333 -1.83301 18 -5.5s9.66699 -9.16699 15 -16.5l74 -120
c-36 -30 -77.333 -52.667 -124 -68s-95 -23 -145 -23c-89.333 0 -158 25.167 -206 75.5s-72 119.833 -72 208.5v573h-415v-556c0 -32 7.83301 -57 23.5 -75s37.167 -27 64.5 -27c15.333 0 28.166 1.83301 38.499 5.5s19.333 7.5 27 11.5s14.5 7.83301 20.5 11.5
s12 5.5 18 5.5c7.33301 0 13.333 -1.83301 18 -5.5s9.66699 -9.16699 15 -16.5l74 -120c-36 -30 -77.333 -52.667 -124 -68s-95 -23 -145 -23c-89.333 0 -157.833 25.167 -205.5 75.5s-71.5 119.833 -71.5 208.5v573h-105c-13.333 0 -24.666 4.33301 -33.999 13
s-14 21.667 -14 39v98l165 28l52 279c3.33301 13.333 9.66602 23.666 18.999 30.999s21.333 11 36 11h128v-323h427l53 281c3.33301 13.333 9.5 23.666 18.5 30.999s21.167 11 36.5 11h127v-323h703v-1017zM2024 1168h-165c-9.33301 0 -18.833 1.83301 -28.5 5.5
s-19.167 10.167 -28.5 19.5l-98 104c-7.33301 6.66699 -14.333 14.667 -21 24c-7.33301 -9.33301 -14.333 -17.333 -21 -24l-100 -104c-8 -8.66699 -17 -15 -27 -19s-20 -6 -30 -6h-171l229 278h232z" />
    <glyph glyph-name="t_t_idieresis.liga" unicode="tt&#xef;" horiz-adv-x="1930" 
d="M1799 0l-247.001 0.00195312v841h-456v-556c0 -32 8 -57 24 -75s37.667 -27 65 -27c14.667 0 27.334 1.83301 38.001 5.5s19.834 7.5 27.501 11.5s14.5 7.83301 20.5 11.5s12 5.5 18 5.5c7.33301 0 13.333 -1.83301 18 -5.5s9.66699 -9.16699 15 -16.5l74 -120
c-36 -30 -77.333 -52.667 -124 -68s-95 -23 -145 -23c-89.333 0 -158 25.167 -206 75.5s-72 119.833 -72 208.5v573h-415v-556c0 -32 7.83301 -57 23.5 -75s37.167 -27 64.5 -27c15.333 0 28.166 1.83301 38.499 5.5s19.333 7.5 27 11.5s14.5 7.83301 20.5 11.5
s12 5.5 18 5.5c7.33301 0 13.333 -1.83301 18 -5.5s9.66699 -9.16699 15 -16.5l74 -120c-36 -30 -77.333 -52.667 -124 -68s-95 -23 -145 -23c-89.333 0 -157.833 25.167 -205.5 75.5s-71.5 119.833 -71.5 208.5v573h-105c-13.333 0 -24.666 4.33301 -33.999 13
s-14 21.667 -14 39v98l165 28l52 279c3.33301 13.333 9.66602 23.666 18.999 30.999s21.333 11 36 11h128v-323h427l53 281c3.33301 13.333 9.5 23.666 18.5 30.999s21.167 11 36.5 11h127v-323h703v-1017zM1647 1292c0 -18.667 -3.66699 -36.167 -11 -52.5
s-17.5 -30.5 -30.5 -42.5s-28 -21.5 -45 -28.5s-34.833 -10.5 -53.5 -10.5c-18 0 -35.167 3.5 -51.5 10.5s-30.833 16.5 -43.5 28.5s-22.667 26.167 -30 42.5s-11 33.833 -11 52.5c0 19.333 3.66699 37.5 11 54.5s17.333 31.833 30 44.5s27.167 22.667 43.5 30
s33.5 11 51.5 11c18.667 0 36.5 -3.66699 53.5 -11s32 -17.333 45 -30s23.167 -27.5 30.5 -44.5s11 -35.167 11 -54.5zM1987 1292c0 -18.667 -3.66699 -36.167 -11 -52.5s-17.166 -30.5 -29.499 -42.5s-27 -21.5 -44 -28.5s-35.167 -10.5 -54.5 -10.5
c-18.667 0 -36.334 3.5 -53.001 10.5s-31.167 16.5 -43.5 28.5s-22.166 26.167 -29.499 42.5s-11 33.833 -11 52.5c0 19.333 3.66699 37.5 11 54.5s17.166 31.833 29.499 44.5s26.833 22.667 43.5 30s34.334 11 53.001 11c19.333 0 37.5 -3.66699 54.5 -11
s31.667 -17.333 44 -30s22.166 -27.5 29.499 -44.5s11 -35.167 11 -54.5z" />
    <glyph glyph-name="t_t_imacron.liga" unicode="tt&#x12b;" horiz-adv-x="1930" 
d="M1799 0l-247.001 0.00195312v841h-456v-556c0 -32 8 -57 24 -75s37.667 -27 65 -27c14.667 0 27.334 1.83301 38.001 5.5s19.834 7.5 27.501 11.5s14.5 7.83301 20.5 11.5s12 5.5 18 5.5c7.33301 0 13.333 -1.83301 18 -5.5s9.66699 -9.16699 15 -16.5l74 -120
c-36 -30 -77.333 -52.667 -124 -68s-95 -23 -145 -23c-89.333 0 -158 25.167 -206 75.5s-72 119.833 -72 208.5v573h-415v-556c0 -32 7.83301 -57 23.5 -75s37.167 -27 64.5 -27c15.333 0 28.166 1.83301 38.499 5.5s19.333 7.5 27 11.5s14.5 7.83301 20.5 11.5
s12 5.5 18 5.5c7.33301 0 13.333 -1.83301 18 -5.5s9.66699 -9.16699 15 -16.5l74 -120c-36 -30 -77.333 -52.667 -124 -68s-95 -23 -145 -23c-89.333 0 -157.833 25.167 -205.5 75.5s-71.5 119.833 -71.5 208.5v573h-105c-13.333 0 -24.666 4.33301 -33.999 13
s-14 21.667 -14 39v98l165 28l52 279c3.33301 13.333 9.66602 23.666 18.999 30.999s21.333 11 36 11h128v-323h427l53 281c3.33301 13.333 9.5 23.666 18.5 30.999s21.167 11 36.5 11h127v-323h703v-1017zM1380 1372h598v-158h-598v158z" />
    <glyph glyph-name="t_t_itilde.liga" unicode="tt&#x129;" horiz-adv-x="1929" 
d="M1798 0l-247.001 0.00195312v841h-456v-556c0 -32 8 -57 24 -75s37.667 -27 65 -27c14.667 0 27.334 1.83301 38.001 5.5s19.834 7.5 27.501 11.5s14.5 7.83301 20.5 11.5s12 5.5 18 5.5c7.33301 0 13.333 -1.83301 18 -5.5s9.66699 -9.16699 15 -16.5l74 -120
c-36 -30 -77.333 -52.667 -124 -68s-95 -23 -145 -23c-89.333 0 -158 25.167 -206 75.5s-72 119.833 -72 208.5v573h-415v-556c0 -32 7.83301 -57 23.5 -75s37.167 -27 64.5 -27c15.333 0 28.166 1.83301 38.499 5.5s19.333 7.5 27 11.5s14.5 7.83301 20.5 11.5
s12 5.5 18 5.5c7.33301 0 13.333 -1.83301 18 -5.5s9.66699 -9.16699 15 -16.5l74 -120c-36 -30 -77.333 -52.667 -124 -68s-95 -23 -145 -23c-89.333 0 -157.833 25.167 -205.5 75.5s-71.5 119.833 -71.5 208.5v573h-105c-13.333 0 -24.666 4.33301 -33.999 13
s-14 21.667 -14 39v98l165 28l52 279c3.33301 13.333 9.66602 23.666 18.999 30.999s21.333 11 36 11h128v-323h427l53 281c3.33301 13.333 9.5 23.666 18.5 30.999s21.167 11 36.5 11h127v-323h703v-1017zM1786 1359c20 0 35.668 5.50098 47.001 16.501s17 30.833 17 59.5
h150c0 -37.333 -5.16699 -71.166 -15.5 -101.499s-24.5 -56.333 -42.5 -78s-39.5 -38.334 -64.5 -50.001s-52.5 -17.5 -82.5 -17.5c-24 0 -46.333 4.33301 -67 13s-40 18 -58 28l-50.5 28c-15.667 8.66699 -30.167 13 -43.5 13c-19.333 0 -34.5 -5.83301 -45.5 -17.5
s-16.5 -31.5 -16.5 -59.5h-153c0 37.333 5.16699 71.166 15.5 101.499s24.833 56.333 43.5 78s40.5 38.5 65.5 50.5s52.167 18 81.5 18c24 0 46.5 -4.33301 67.5 -13s40.5 -18 58.5 -28l50 -28c15.333 -8.66699 29.666 -13 42.999 -13z" />
    <glyph glyph-name="t_t_ibreve.liga" unicode="tt&#x12d;" horiz-adv-x="1930" 
d="M1799 0l-247.001 0.00195312v841h-456v-556c0 -32 8 -57 24 -75s37.667 -27 65 -27c14.667 0 27.334 1.83301 38.001 5.5s19.834 7.5 27.501 11.5s14.5 7.83301 20.5 11.5s12 5.5 18 5.5c7.33301 0 13.333 -1.83301 18 -5.5s9.66699 -9.16699 15 -16.5l74 -120
c-36 -30 -77.333 -52.667 -124 -68s-95 -23 -145 -23c-89.333 0 -158 25.167 -206 75.5s-72 119.833 -72 208.5v573h-415v-556c0 -32 7.83301 -57 23.5 -75s37.167 -27 64.5 -27c15.333 0 28.166 1.83301 38.499 5.5s19.333 7.5 27 11.5s14.5 7.83301 20.5 11.5
s12 5.5 18 5.5c7.33301 0 13.333 -1.83301 18 -5.5s9.66699 -9.16699 15 -16.5l74 -120c-36 -30 -77.333 -52.667 -124 -68s-95 -23 -145 -23c-89.333 0 -157.833 25.167 -205.5 75.5s-71.5 119.833 -71.5 208.5v573h-105c-13.333 0 -24.666 4.33301 -33.999 13
s-14 21.667 -14 39v98l165 28l52 279c3.33301 13.333 9.66602 23.666 18.999 30.999s21.333 11 36 11h128v-323h427l53 281c3.33301 13.333 9.5 23.666 18.5 30.999s21.167 11 36.5 11h127v-323h703v-1017zM1679 1161c-57.333 0 -105.169 7.5 -143.502 22.5
s-69.333 35.5 -93 61.5s-40.5 56.333 -50.5 91s-15 71.334 -15 110.001h173c0 -20 1.83301 -38 5.5 -54s10.334 -29.5 20.001 -40.5s22.834 -19.5 39.501 -25.5s38 -9 64 -9s47.333 3 64 9s29.834 14.5 39.501 25.5s16.334 24.5 20.001 40.5s5.5 34 5.5 54h173
c0 -38.667 -5 -75.334 -15 -110.001s-26.833 -65 -50.5 -91s-54.834 -46.5 -93.501 -61.5s-86.334 -22.5 -143.001 -22.5z" />
    <glyph glyph-name="t_t_uni01D0.liga" unicode="tt&#x1d0;" horiz-adv-x="1930" 
d="M1799 0l-247.001 0.00195312v841h-456v-556c0 -32 8 -57 24 -75s37.667 -27 65 -27c14.667 0 27.334 1.83301 38.001 5.5s19.834 7.5 27.501 11.5s14.5 7.83301 20.5 11.5s12 5.5 18 5.5c7.33301 0 13.333 -1.83301 18 -5.5s9.66699 -9.16699 15 -16.5l74 -120
c-36 -30 -77.333 -52.667 -124 -68s-95 -23 -145 -23c-89.333 0 -158 25.167 -206 75.5s-72 119.833 -72 208.5v573h-415v-556c0 -32 7.83301 -57 23.5 -75s37.167 -27 64.5 -27c15.333 0 28.166 1.83301 38.499 5.5s19.333 7.5 27 11.5s14.5 7.83301 20.5 11.5
s12 5.5 18 5.5c7.33301 0 13.333 -1.83301 18 -5.5s9.66699 -9.16699 15 -16.5l74 -120c-36 -30 -77.333 -52.667 -124 -68s-95 -23 -145 -23c-89.333 0 -157.833 25.167 -205.5 75.5s-71.5 119.833 -71.5 208.5v573h-105c-13.333 0 -24.666 4.33301 -33.999 13
s-14 21.667 -14 39v98l165 28l52 279c3.33301 13.333 9.66602 23.666 18.999 30.999s21.333 11 36 11h128v-323h427l53 281c3.33301 13.333 9.5 23.666 18.5 30.999s21.167 11 36.5 11h127v-323h703v-1017zM2024 1446l-228.998 -278h-232l-229 278h171
c10 0 19.5 -1.66699 28.5 -5s16.167 -7.33301 21.5 -12l106 -111c3.33301 -3.33301 6.83301 -7.16602 10.5 -11.499l11.5 -13.5c3.33301 4.66699 6.83301 9.16699 10.5 13.5s7.16699 8.16602 10.5 11.499l105 111c5.33301 4 12.666 7.83301 21.999 11.5
s18.666 5.5 27.999 5.5h165z" />
    <glyph glyph-name="t_t_uni1E2D.liga" unicode="tt&#x1e2d;" horiz-adv-x="1929" 
d="M1798 0l-247.001 0.00195312v841h-456v-556c0 -32 8 -57 24 -75s37.667 -27 65 -27c14.667 0 27.334 1.83301 38.001 5.5s19.834 7.5 27.501 11.5s14.5 7.83301 20.5 11.5s12 5.5 18 5.5c7.33301 0 13.333 -1.83301 18 -5.5s9.66699 -9.16699 15 -16.5l74 -120
c-36 -30 -77.333 -52.667 -124 -68s-95 -23 -145 -23c-89.333 0 -158 25.167 -206 75.5s-72 119.833 -72 208.5v573h-415v-556c0 -32 7.83301 -57 23.5 -75s37.167 -27 64.5 -27c15.333 0 28.166 1.83301 38.499 5.5s19.333 7.5 27 11.5s14.5 7.83301 20.5 11.5
s12 5.5 18 5.5c7.33301 0 13.333 -1.83301 18 -5.5s9.66699 -9.16699 15 -16.5l74 -120c-36 -30 -77.333 -52.667 -124 -68s-95 -23 -145 -23c-89.333 0 -157.833 25.167 -205.5 75.5s-71.5 119.833 -71.5 208.5v573h-105c-13.333 0 -24.666 4.33301 -33.999 13
s-14 21.667 -14 39v98l165 28l52 279c3.33301 13.333 9.66602 23.666 18.999 30.999s21.333 11 36 11h128v-323h427l53 281c3.33301 13.333 9.5 23.666 18.5 30.999s21.167 11 36.5 11h127v-323h703v-1017zM1785 -151.998c20 0 35.668 5.50098 47.001 16.501
s17 30.833 17 59.5h150c0 -37.333 -5.16699 -71.166 -15.5 -101.499s-24.5 -56.333 -42.5 -78s-39.5 -38.334 -64.5 -50.001s-52.5 -17.5 -82.5 -17.5c-24 0 -46.333 4.33301 -67 13s-40 18 -58 28l-50.5 28c-15.667 8.66699 -30.167 13 -43.5 13
c-19.333 0 -34.5 -5.83301 -45.5 -17.5s-16.5 -31.5 -16.5 -59.5h-153c0 37.333 5.16699 71.166 15.5 101.499s24.833 56.333 43.5 78s40.5 38.5 65.5 50.5s52.167 18 81.5 18c24 0 46.5 -4.33301 67.5 -13s40.5 -18 58.5 -28l50 -28c15.333 -8.66699 29.666 -13 42.999 -13
zM1838 1329c0 -21.333 -4.33301 -41.5 -13 -60.5s-20.167 -35.5 -34.5 -49.5s-31.333 -25.167 -51 -33.5s-40.5 -12.5 -62.5 -12.5c-21.333 0 -41.333 4.16699 -60 12.5s-35 19.5 -49 33.5s-25.167 30.5 -33.5 49.5s-12.5 39.167 -12.5 60.5c0 22 4.16699 42.5 12.5 61.5
s19.5 35.667 33.5 50s30.333 25.666 49 33.999s38.667 12.5 60 12.5c22 0 42.833 -4.16699 62.5 -12.5s36.667 -19.666 51 -33.999s25.833 -31 34.5 -50s13 -39.5 13 -61.5z" />
    <glyph glyph-name="t_t_uni1E2F.liga" unicode="tt&#x1e2f;" horiz-adv-x="1929" 
d="M1798 0l-247.001 0.00195312v841h-456v-556c0 -32 8 -57 24 -75s37.667 -27 65 -27c14.667 0 27.334 1.83301 38.001 5.5s19.834 7.5 27.501 11.5s14.5 7.83301 20.5 11.5s12 5.5 18 5.5c7.33301 0 13.333 -1.83301 18 -5.5s9.66699 -9.16699 15 -16.5l74 -120
c-36 -30 -77.333 -52.667 -124 -68s-95 -23 -145 -23c-89.333 0 -158 25.167 -206 75.5s-72 119.833 -72 208.5v573h-415v-556c0 -32 7.83301 -57 23.5 -75s37.167 -27 64.5 -27c15.333 0 28.166 1.83301 38.499 5.5s19.333 7.5 27 11.5s14.5 7.83301 20.5 11.5
s12 5.5 18 5.5c7.33301 0 13.333 -1.83301 18 -5.5s9.66699 -9.16699 15 -16.5l74 -120c-36 -30 -77.333 -52.667 -124 -68s-95 -23 -145 -23c-89.333 0 -157.833 25.167 -205.5 75.5s-71.5 119.833 -71.5 208.5v573h-105c-13.333 0 -24.666 4.33301 -33.999 13
s-14 21.667 -14 39v98l165 28l52 279c3.33301 13.333 9.66602 23.666 18.999 30.999s21.333 11 36 11h128v-323h427l53 281c3.33301 13.333 9.5 23.666 18.5 30.999s21.167 11 36.5 11h127v-323h703v-1017zM2066 1784l-246.998 -261
c-12.667 -13.333 -24.834 -22.5 -36.501 -27.5s-26.834 -7.5 -45.501 -7.5h-148l142 243c10 17.333 21.667 30.5 35 39.5s33.333 13.5 60 13.5h240zM1615 1292c0 -18.667 -3.66699 -36.167 -11 -52.5s-17.5 -30.5 -30.5 -42.5s-28 -21.5 -45 -28.5
s-35.167 -10.5 -54.5 -10.5c-18 0 -35.167 3.5 -51.5 10.5s-30.666 16.5 -42.999 28.5s-22.166 26.167 -29.499 42.5s-11 33.833 -11 52.5c0 19.333 3.66699 37.5 11 54.5s17.166 31.833 29.499 44.5s26.666 22.667 42.999 30s33.5 11 51.5 11
c19.333 0 37.5 -3.66699 54.5 -11s32 -17.333 45 -30s23.167 -27.5 30.5 -44.5s11 -35.167 11 -54.5zM2019 1292c0 -18.667 -3.66699 -36.167 -11 -52.5s-17.166 -30.5 -29.499 -42.5s-27 -21.5 -44 -28.5s-35.167 -10.5 -54.5 -10.5c-18.667 0 -36.334 3.5 -53.001 10.5
s-31.167 16.5 -43.5 28.5s-22.166 26.167 -29.499 42.5s-11 33.833 -11 52.5c0 19.333 3.66699 37.5 11 54.5s17.166 31.833 29.499 44.5s26.833 22.667 43.5 30s34.334 11 53.001 11c19.333 0 37.5 -3.66699 54.5 -11s31.667 -17.333 44 -30s22.166 -27.5 29.499 -44.5
s11 -35.167 11 -54.5z" />
    <glyph glyph-name="t_t_uni0268.liga" unicode="tt&#x268;" horiz-adv-x="1980" 
d="M1677 1173c-21.333 0 -41.333 4.16699 -60 12.5s-35 19.5 -49 33.5s-25.167 30.5 -33.5 49.5s-12.5 39.167 -12.5 60.5c0 22 4.16699 42.5 12.5 61.5s19.5 35.667 33.5 50s30.333 25.666 49 33.999s38.667 12.5 60 12.5c22 0 42.833 -4.16699 62.5 -12.5
s36.667 -19.666 51 -33.999s25.833 -31 34.5 -50s13 -39.5 13 -61.5c0 -21.333 -4.33301 -41.5 -13 -60.5s-20.167 -35.5 -34.5 -49.5s-31.333 -25.167 -51 -33.5s-40.5 -12.5 -62.5 -12.5zM1947 398l-148.001 0.00195312v-398h-247v398h-130v175h130v268h-456v-556
c0 -32 8 -57 24 -75s37.667 -27 65 -27c14.667 0 27.334 1.83301 38.001 5.5s19.834 7.5 27.501 11.5s14.5 7.83301 20.5 11.5s12 5.5 18 5.5c7.33301 0 13.333 -1.83301 18 -5.5s9.66699 -9.16699 15 -16.5l74 -120c-36 -30 -77.333 -52.667 -124 -68s-95 -23 -145 -23
c-89.333 0 -158 25.167 -206 75.5s-72 119.833 -72 208.5v573h-415v-556c0 -32 7.83301 -57 23.5 -75s37.167 -27 64.5 -27c15.333 0 28.166 1.83301 38.499 5.5s19.333 7.5 27 11.5s14.5 7.83301 20.5 11.5s12 5.5 18 5.5c7.33301 0 13.333 -1.83301 18 -5.5
s9.66699 -9.16699 15 -16.5l74 -120c-36 -30 -77.333 -52.667 -124 -68s-95 -23 -145 -23c-89.333 0 -157.833 25.167 -205.5 75.5s-71.5 119.833 -71.5 208.5v573h-105c-13.333 0 -24.666 4.33301 -33.999 13s-14 21.667 -14 39v98l165 28l52 279
c3.33301 13.333 9.66602 23.666 18.999 30.999s21.333 11 36 11h128v-323h427l53 281c3.33301 13.333 9.5 23.666 18.5 30.999s21.167 11 36.5 11h127v-323h703v-444h148v-175z" />
    <glyph glyph-name="t_t_uni020B.liga" unicode="tt&#x20b;" horiz-adv-x="1930" 
d="M1799 0l-247.001 0.00195312v841h-456v-556c0 -32 8 -57 24 -75s37.667 -27 65 -27c14.667 0 27.334 1.83301 38.001 5.5s19.834 7.5 27.501 11.5s14.5 7.83301 20.5 11.5s12 5.5 18 5.5c7.33301 0 13.333 -1.83301 18 -5.5s9.66699 -9.16699 15 -16.5l74 -120
c-36 -30 -77.333 -52.667 -124 -68s-95 -23 -145 -23c-89.333 0 -158 25.167 -206 75.5s-72 119.833 -72 208.5v573h-415v-556c0 -32 7.83301 -57 23.5 -75s37.167 -27 64.5 -27c15.333 0 28.166 1.83301 38.499 5.5s19.333 7.5 27 11.5s14.5 7.83301 20.5 11.5
s12 5.5 18 5.5c7.33301 0 13.333 -1.83301 18 -5.5s9.66699 -9.16699 15 -16.5l74 -120c-36 -30 -77.333 -52.667 -124 -68s-95 -23 -145 -23c-89.333 0 -157.833 25.167 -205.5 75.5s-71.5 119.833 -71.5 208.5v573h-105c-13.333 0 -24.666 4.33301 -33.999 13
s-14 21.667 -14 39v98l165 28l52 279c3.33301 13.333 9.66602 23.666 18.999 30.999s21.333 11 36 11h128v-323h427l53 281c3.33301 13.333 9.5 23.666 18.5 30.999s21.167 11 36.5 11h127v-323h703v-1017zM1679 1461c56.667 0 104.337 -7.5 143.004 -22.5
s69.834 -35.5 93.501 -61.5s40.5 -56.333 50.5 -91s15 -71.334 15 -110.001h-173c0 20 -1.83301 38 -5.5 54s-10.334 29.667 -20.001 41s-22.834 20 -39.501 26s-38 9 -64 9s-47.333 -3 -64 -9s-29.834 -14.667 -39.501 -26s-16.334 -25 -20.001 -41s-5.5 -34 -5.5 -54h-173
c0 38.667 5 75.334 15 110.001s26.833 65 50.5 91s54.667 46.5 93 61.5s86.166 22.5 143.499 22.5z" />
    <glyph glyph-name="t_t_uni0209.liga" unicode="tt&#x209;" horiz-adv-x="1930" 
d="M1799 0l-247.001 0.00195312v841h-456v-556c0 -32 8 -57 24 -75s37.667 -27 65 -27c14.667 0 27.334 1.83301 38.001 5.5s19.834 7.5 27.501 11.5s14.5 7.83301 20.5 11.5s12 5.5 18 5.5c7.33301 0 13.333 -1.83301 18 -5.5s9.66699 -9.16699 15 -16.5l74 -120
c-36 -30 -77.333 -52.667 -124 -68s-95 -23 -145 -23c-89.333 0 -158 25.167 -206 75.5s-72 119.833 -72 208.5v573h-415v-556c0 -32 7.83301 -57 23.5 -75s37.167 -27 64.5 -27c15.333 0 28.166 1.83301 38.499 5.5s19.333 7.5 27 11.5s14.5 7.83301 20.5 11.5
s12 5.5 18 5.5c7.33301 0 13.333 -1.83301 18 -5.5s9.66699 -9.16699 15 -16.5l74 -120c-36 -30 -77.333 -52.667 -124 -68s-95 -23 -145 -23c-89.333 0 -157.833 25.167 -205.5 75.5s-71.5 119.833 -71.5 208.5v573h-105c-13.333 0 -24.666 4.33301 -33.999 13
s-14 21.667 -14 39v98l165 28l52 279c3.33301 13.333 9.66602 23.666 18.999 30.999s21.333 11 36 11h128v-323h427l53 281c3.33301 13.333 9.5 23.666 18.5 30.999s21.167 11 36.5 11h127v-323h703v-1017zM1708 1462c27.333 0 47.667 -4.5 61 -13.5
s24.666 -22.167 33.999 -39.5l127 -243h-101c-19.333 0 -35.166 2.5 -47.499 7.5s-23.833 14.167 -34.5 27.5l-199 261h160zM1377 1462c13.333 0 24.668 -1.16699 34.001 -3.5s17.5 -5.83301 24.5 -10.5s13.333 -10.167 19 -16.5s11.5 -13.833 17.5 -22.5l177 -243h-117
c-18.667 0 -33.834 2.5 -45.501 7.5s-23.5 14.167 -35.5 27.5l-252 261h178z" />
    <glyph glyph-name=".notdef" horiz-adv-x="1094" 
d="M239 1147c38 30.667 81.167 56.499 129.5 77.499s105.5 31.5 171.5 31.5c46.667 0 88.667 -6.33301 126 -19s69 -30.5 95 -53.5s45.833 -50.667 59.5 -83s20.5 -68.166 20.5 -107.499c0 -36.667 -4.66699 -68.167 -14 -94.5s-21 -49.333 -35 -69s-29.333 -36.5 -46 -50.5
l-48 -39.5c-15.333 -12.333 -28.833 -24.5 -40.5 -36.5s-19.167 -25.333 -22.5 -40l-22 -96h-169l-17 114c-4 24.667 -2.16699 45.834 5.5 63.501s18.334 33.667 32.001 48s29 27.666 46 39.999s33 25.333 48 39s27.667 29 38 46s15.5 37.167 15.5 60.5s-8 42.333 -24 57
s-39.333 22 -70 22c-24 0 -44.167 -2.33301 -60.5 -7s-30.5 -9.66699 -42.5 -15s-22.5 -10.333 -31.5 -15s-18.5 -7 -28.5 -7c-22.667 0 -39.334 9.66699 -50.001 29zM385 312.999c0 18.667 3.5 36.334 10.5 53.001s16.5 31.167 28.5 43.5s26.333 22 43 29
s34.667 10.5 54 10.5c18.667 0 36.167 -3.5 52.5 -10.5s30.666 -16.667 42.999 -29s22 -26.833 29 -43.5s10.5 -34.334 10.5 -53.001c0 -19.333 -3.5 -37.166 -10.5 -53.499s-16.667 -30.5 -29 -42.5s-26.666 -21.5 -42.999 -28.5s-33.833 -10.5 -52.5 -10.5
c-19.333 0 -37.333 3.5 -54 10.5s-31 16.5 -43 28.5s-21.5 26.167 -28.5 42.5s-10.5 34.166 -10.5 53.499zM42 1446h1010v-1446h-1010v1446zM107 68.999h873v1309h-873v-1309z" />
    <glyph glyph-name="glyph1" horiz-adv-x="0" 
 />
    <glyph glyph-name="glyph1" horiz-adv-x="0" 
 />
    <glyph glyph-name="space" unicode=" " horiz-adv-x="486" 
 />
    <glyph glyph-name="space" unicode="&#xa0;" horiz-adv-x="486" 
 />
    <glyph glyph-name="exclam" unicode="!" horiz-adv-x="562" 
d="M398 1446v-572c0 -60.667 -3 -120.167 -9 -178.5s-13.667 -120.166 -23 -185.499h-168c-9.33301 65.333 -17 127.166 -23 185.499s-9 117.833 -9 178.5v572h232zM127 136c0 20.667 3.83301 40.334 11.5 59.001s18.334 34.667 32.001 48s29.834 24 48.501 32
s38.667 12 60 12c20.667 0 40.334 -4 59.001 -12s34.834 -18.667 48.501 -32s24.5 -29.333 32.5 -48s12 -38.334 12 -59.001c0 -21.333 -4 -41.166 -12 -59.499s-18.833 -34.166 -32.5 -47.499s-29.834 -23.833 -48.501 -31.5s-38.334 -11.5 -59.001 -11.5
c-21.333 0 -41.333 3.83301 -60 11.5s-34.834 18.167 -48.501 31.5s-24.334 29.166 -32.001 47.499s-11.5 38.166 -11.5 59.499z" />
    <glyph glyph-name="quotedbl" unicode="&#x22;" horiz-adv-x="791" 
d="M319 1446l-0.000976562 -288l-22 -156c-5.33301 -29.333 -14 -51.833 -26 -67.5s-32 -23.5 -60 -23.5c-24.667 0 -43.667 7.83301 -57 23.5s-22.666 38.167 -27.999 67.5l-22 156v288h215zM686.999 1446l-0.000976562 -288l-22 -156
c-5.33301 -29.333 -14 -51.833 -26 -67.5s-32 -23.5 -60 -23.5c-24.667 0 -43.667 7.83301 -57 23.5s-22.666 38.167 -27.999 67.5l-22 156v288h215z" />
    <glyph glyph-name="numbersign" unicode="#" horiz-adv-x="1160" 
d="M701 862h-205l-51 -276h205zM1131 1040l-17.998 -102.999c-5.33301 -25.333 -16 -44.166 -32 -56.499s-41.667 -18.5 -77 -18.5h-100l-51 -276h141c25.333 0 43.5 -7.5 54.5 -22.5s13.833 -40.833 8.5 -77.5l-13 -78h-217l-76 -408h-114c-11.333 0 -22 2.66699 -32 8
s-18.333 12.666 -25 21.999s-11.5 20.166 -14.5 32.499s-2.83301 25.5 0.5 39.5l58 306h-204l-59 -318c-5.33301 -32 -18.666 -55 -39.999 -69s-45 -21 -71 -21h-110l76 408h-115c-25.333 0 -43.333 7.5 -54 22.5s-13.334 40.5 -8.00098 76.5l13 79h190l51 276h-214l19 103
c5.33301 25.333 16 44.166 32 56.499s41.667 18.5 77 18.5h112l61 322c5.33301 26.667 17.666 47.334 36.999 62.001s42 22 68 22h113l-77 -406h205l77 406h110c25.333 0 45.666 -8.16699 60.999 -24.5s21 -36.833 17 -61.5l-61 -320h201z" />
    <glyph glyph-name="dollar" unicode="$" horiz-adv-x="1160" 
d="M631 193c70.667 9.33301 124.167 33.166 160.5 71.499s54.5 88.5 54.5 150.5c0 25.333 -4.5 47.5 -13.5 66.5s-21.667 35.833 -38 50.5s-35.5 27.334 -57.5 38.001s-46 20.667 -72 30zM567 1250c-37.333 -4.66699 -68.998 -12.5 -94.998 -23.5s-47.333 -24.5 -64 -40.5
s-28.834 -34 -36.501 -54s-11.5 -41 -11.5 -63c0 -25.333 4.5 -47.5 13.5 -66.5s21.333 -36 37 -51s34.167 -28.333 55.5 -40s44.666 -22.5 69.999 -32.5zM684.002 831c48 -14.667 95.667 -30.832 143 -48.499s89.833 -40.5 127.5 -68.5s68.167 -62.833 91.5 -104.5
s35 -93.834 35 -156.501c0 -62 -10.333 -120.167 -31 -174.5s-51 -102.333 -91 -144s-89 -75.667 -147 -102s-124.333 -41.833 -199 -46.5l-12 -147c-0.666992 -15.333 -7.16699 -29.5 -19.5 -42.5s-27.833 -19.5 -46.5 -19.5h-91l18 214c-78 10.667 -151.333 32 -220 64
s-127 71.667 -175 119l76 113c6.66699 10 15.5 18.167 26.5 24.5s22.833 9.5 35.5 9.5c14.667 0 30.334 -5.16699 47.001 -15.5l57 -36c21.333 -13.667 45.666 -27.5 72.999 -41.5s59.666 -24.333 96.999 -31l37 447c-47.333 13.333 -94.166 29 -140.499 47
s-88 41.833 -125 71.5s-66.833 67.167 -89.5 112.5s-34 102 -34 170c0 50.667 10 100.167 30 148.5s49.5 91.5 88.5 129.5s86.833 69.333 143.5 94s121.667 38.667 195 42l11 126c1.33301 16 8 30.333 20 43s27.667 19 47 19h91l-16 -196
c70.667 -11.333 131.667 -31.5 183 -60.5s95.666 -61.5 132.999 -97.5l-60 -91c-8.66699 -13.333 -17.667 -23.333 -27 -30s-20.666 -10 -33.999 -10c-10 0 -22 3.16699 -36 9.5s-29.667 14 -47 23s-36.833 18.167 -58.5 27.5s-45.5 17 -71.5 23z" />
    <glyph glyph-name="percent" unicode="%" horiz-adv-x="1639" 
d="M745 1096c0 -54.667 -9.16602 -104 -27.499 -148s-42.833 -81.5 -73.5 -112.5s-66.334 -54.833 -107.001 -71.5s-83 -25 -127 -25c-48 0 -92.333 8.33301 -133 25s-75.834 40.5 -105.501 71.5s-52.834 68.5 -69.501 112.5s-25 93.333 -25 148
c0 56 8.33301 106.667 25 152s39.834 83.666 69.501 114.999s64.834 55.5 105.501 72.5s85 25.5 133 25.5s92.5 -8.5 133.5 -25.5s76.5 -41.167 106.5 -72.5s53.333 -69.666 70 -114.999s25 -96 25 -152zM555.001 1096c0 38.667 -3.83301 71 -11.5 97s-18 47 -31 63
s-28.333 27.5 -46 34.5s-36.5 10.5 -56.5 10.5s-38.667 -3.5 -56 -10.5s-32.166 -18.5 -44.499 -34.5s-22.166 -37 -29.499 -63s-11 -58.333 -11 -97c0 -37.333 3.66699 -68.5 11 -93.5s17.166 -45.167 29.499 -60.5s27.166 -26.333 44.499 -33s36 -10 56 -10
s38.833 3.33301 56.5 10s33 17.667 46 33s23.333 35.5 31 60.5s11.5 56.167 11.5 93.5zM1226 1407c8.66699 10 18.833 19 30.5 27s28.167 12 49.5 12h180l-1074 -1409c-8.66699 -10.667 -19 -19.5 -31 -26.5s-26.667 -10.5 -44 -10.5h-184zM1562 340
c0 -54.667 -9.16602 -104 -27.499 -148s-42.833 -81.5 -73.5 -112.5s-66.334 -55 -107.001 -72s-83 -25.5 -127 -25.5c-48 0 -92.333 8.5 -133 25.5s-75.834 41 -105.501 72s-52.834 68.5 -69.501 112.5s-25 93.333 -25 148c0 56 8.33301 106.667 25 152
s39.834 83.666 69.501 114.999s64.834 55.5 105.501 72.5s85 25.5 133 25.5s92.5 -8.5 133.5 -25.5s76.333 -41.167 106 -72.5s53 -69.666 70 -114.999s25.5 -96 25.5 -152zM1371 340c0 38.667 -3.66699 71 -11 97s-17.5 47 -30.5 63s-28.333 27.5 -46 34.5
s-36.5 10.5 -56.5 10.5s-38.667 -3.5 -56 -10.5s-32.333 -18.5 -45 -34.5s-22.5 -37 -29.5 -63s-10.5 -58.333 -10.5 -97c0 -37.333 3.5 -68.666 10.5 -93.999s16.833 -45.666 29.5 -60.999s27.667 -26.333 45 -33s36 -10 56 -10s38.833 3.33301 56.5 10s33 17.667 46 33
s23.167 35.666 30.5 60.999s11 56.666 11 93.999z" />
    <glyph glyph-name="ampersand" unicode="&#x26;" horiz-adv-x="1447" 
d="M478 676c-53.333 -34.667 -92.1689 -73.834 -116.502 -117.501s-36.5 -90.5 -36.5 -140.5c0 -36.667 6.33301 -69.667 19 -99s29.834 -54.166 51.501 -74.499s47 -36 76 -47s59.833 -16.5 92.5 -16.5c58.667 0 112.334 9.16699 161.001 27.5s92.667 43.833 132 76.5z
M1441 0l-242.001 0.00292969c-25.333 0 -45.833 3 -61.5 9s-32.167 18.667 -49.5 38l-100 103c-63.333 -52 -134.333 -92.667 -213 -122s-163.667 -44 -255 -44c-55.333 0 -109.833 9.5 -163.5 28.5s-101.5 46.5 -143.5 82.5s-75.833 79.5 -101.5 130.5
s-38.5 108.5 -38.5 172.5c0 45.333 7.33301 88.166 22 128.499s35 77.833 61 112.5s57 65.834 93 93.501s75.333 51.5 118 71.5c-36 50 -62 98.833 -78 146.5s-24 95.167 -24 142.5c0 50 9.16699 97.5 27.5 142.5s44.833 84.167 79.5 117.5s77.334 59.833 128.001 79.5
s108 29.5 172 29.5c58.667 0 111.167 -9 157.5 -27s86 -42 119 -72s59 -64.333 78 -103s30.167 -78.667 33.5 -120l-157 -33c-29.333 -6 -50.666 6.66699 -63.999 38c-6 17.333 -13.833 33.833 -23.5 49.5s-21.167 29.334 -34.5 41.001s-29 21 -47 28s-38.667 10.5 -62 10.5
c-28 0 -53 -4.83301 -75 -14.5s-40.5 -22.667 -55.5 -39s-26.5 -35.333 -34.5 -57s-12 -44.5 -12 -68.5c0 -20 2 -39.333 6 -58s10.667 -37.334 20 -56.001s21.5 -37.834 36.5 -57.501s33.5 -40.834 55.5 -63.501l384 -399c22 42 39.667 86.333 53 133s22 94 26 142
c2 15.333 7.33301 27.666 16 36.999s20.667 14 36 14h154c-0.666992 -88 -13.334 -172 -38.001 -252s-60 -153.667 -106 -221z" />
    <glyph glyph-name="quotesingle" unicode="'" horiz-adv-x="423" 
d="M319 1446l-0.000976562 -288l-22 -156c-5.33301 -29.333 -14 -51.833 -26 -67.5s-32 -23.5 -60 -23.5c-24.667 0 -43.667 7.83301 -57 23.5s-22.666 38.167 -27.999 67.5l-22 156v288h215z" />
    <glyph glyph-name="parenleft" unicode="(" horiz-adv-x="549" 
d="M287 627c0 -137.333 16.667 -272.33 50 -404.997s81 -257.334 143 -374.001c6.66699 -13.333 10.5 -25.166 11.5 -35.499s0.166992 -19.333 -2.5 -27s-6.83398 -14.334 -12.501 -20.001s-11.834 -10.5 -18.501 -14.5l-110 -67c-49.333 76 -91.333 152.333 -126 229
s-63 154 -85 232s-38.167 157 -48.5 237s-15.5 161.667 -15.5 245s5.16699 165.166 15.5 245.499s26.5 159.5 48.5 237.5s50.333 155.167 85 231.5s76.667 152.5 126 228.5l110 -66c6.66699 -4 12.834 -8.83301 18.501 -14.5s9.83398 -12.334 12.501 -20.001
s3.5 -16.667 2.5 -27s-4.83301 -22.5 -11.5 -36.5c-62 -116 -109.667 -240.5 -143 -373.5s-50 -268.167 -50 -405.5z" />
    <glyph glyph-name="parenright" unicode=")" horiz-adv-x="549" 
d="M261 627c0 137.333 -16.5 272.497 -49.5 405.497s-80.5 257.5 -142.5 373.5c-7.33301 14 -11.5 26.167 -12.5 36.5s-0.166992 19.333 2.5 27s6.83398 14.334 12.501 20.001s12.167 10.5 19.5 14.5l110 66c49.333 -76 91.333 -152.167 126 -228.5s63 -153.5 85 -231.5
s38 -157.167 48 -237.5s15 -162.166 15 -245.499s-5 -165 -15 -245s-26 -159 -48 -237s-50.333 -155.333 -85 -232s-76.667 -153 -126 -229l-110 67c-7.33301 4 -13.833 8.83301 -19.5 14.5s-9.83398 12.334 -12.501 20.001s-3.5 16.667 -2.5 27s5.16699 22.166 12.5 35.499
c62 116.667 109.5 241.334 142.5 374.001s49.5 267.667 49.5 405z" />
    <glyph glyph-name="asterisk" unicode="*" horiz-adv-x="850" 
d="M589 1205c-12 -7.33301 -23.832 -13.5 -35.499 -18.5s-23.834 -8.5 -36.501 -10.5c26 -4 50 -13.333 72 -28l159 -93l-58 -100l-159 93c-12 7.33301 -23.167 15 -33.5 23s-19.166 16.667 -26.499 26c8.66699 -22 13 -47.333 13 -76v-184h-118v183
c0 13.333 0.833008 26.333 2.5 39s4.5 24.667 8.5 36c-7.33301 -9.33301 -16 -17.666 -26 -24.999s-20.667 -14.666 -32 -21.999l-158 -92l-59 100l159 92c25.333 14.667 49.333 24 72 28c-23.333 4 -47.333 13.667 -72 29l-159 93l58 100l159 -94
c12 -7.33301 23 -14.833 33 -22.5s19 -16.167 27 -25.5c-8.66699 22 -13 47 -13 75v185h118v-183c0 -14 -0.833008 -27.333 -2.5 -40s-4.83398 -24.667 -9.50098 -36c8 9.33301 17 17.666 27 24.999s20.667 14.666 32 21.999l158 92l59 -100z" />
    <glyph glyph-name="plus" unicode="+" horiz-adv-x="1160" 
d="M1068 580h-388v-412h-201v412h-386v183h386v410h201v-410h388v-183z" />
    <glyph glyph-name="comma" unicode="," horiz-adv-x="468" 
d="M118 -245c-12 10 -18 22.332 -18 36.999c0 5.33301 1.83301 11.333 5.5 18s8.16699 12.667 13.5 18l27 29.5c10.667 11.667 21.334 25 32.001 40s20.5 31.333 29.5 49s15.833 36.5 20.5 56.5c-21.333 0 -40.666 3.83301 -57.999 11.5s-32.166 18.167 -44.499 31.5
s-22 29 -29 47s-10.5 37.667 -10.5 59c0 18.667 3.5 36.167 10.5 52.5s16.833 30.666 29.5 42.999s28 22 46 29s37.667 10.5 59 10.5c25.333 0 47.5 -4.5 66.5 -13.5s34.667 -21.333 47 -37s21.666 -33.667 27.999 -54s9.5 -41.833 9.5 -64.5
c0 -32 -4.83301 -65.667 -14.5 -101s-23.834 -70.666 -42.501 -105.999s-41.834 -69.666 -69.501 -102.999s-59.167 -64 -94.5 -92z" />
    <glyph glyph-name="hyphen" unicode="-" horiz-adv-x="746" 
d="M114 707h518v-206h-518v206z" />
    <glyph glyph-name="hyphen" unicode="&#x2010;" horiz-adv-x="746" 
d="M114 707h518v-206h-518v206z" />
    <glyph glyph-name="hyphen" unicode="&#xad;" horiz-adv-x="746" 
d="M114 707h518v-206h-518v206z" />
    <glyph glyph-name="period" unicode="." horiz-adv-x="475" 
d="M86 136c0 20.667 3.83301 40.334 11.5 59.001s18.167 34.667 31.5 48s29.333 24 48 32s38.667 12 60 12s41.166 -4 59.499 -12s34.333 -18.667 48 -32s24.5 -29.333 32.5 -48s12 -38.334 12 -59.001c0 -21.333 -4 -41.166 -12 -59.499s-18.833 -34.166 -32.5 -47.499
s-29.667 -23.833 -48 -31.5s-38.166 -11.5 -59.499 -11.5s-41.333 3.83301 -60 11.5s-34.667 18.167 -48 31.5s-23.833 29.166 -31.5 47.499s-11.5 38.166 -11.5 59.499z" />
    <glyph glyph-name="slash" unicode="/" horiz-adv-x="932" 
d="M294 -3c-11.333 -30.667 -29.5 -53.667 -54.5 -69s-50.5 -23 -76.5 -23h-105l584 1494c10.667 28 27 49.5 49 64.5s47.667 22.5 77 22.5h106z" />
    <glyph glyph-name="zero" unicode="0" horiz-adv-x="1160" 
d="M1110 723c0 -126 -13.5 -235.5 -40.5 -328.5s-64.333 -169.833 -112 -230.5s-104 -105.834 -169 -135.501s-135.167 -44.5 -210.5 -44.5s-145.166 14.833 -209.499 44.5s-120.166 74.834 -167.499 135.501s-84.333 137.5 -111 230.5s-40 202.5 -40 328.5
c0 126.667 13.333 236.334 40 329.001s63.667 169.334 111 230.001s103.166 105.834 167.499 135.501s134.166 44.5 209.499 44.5s145.5 -14.833 210.5 -44.5s121.333 -74.834 169 -135.501s85 -137.334 112 -230.001s40.5 -202.334 40.5 -329.001zM855 723
c0 104.667 -7.66699 191.334 -23 260.001s-35.833 123.334 -61.5 164.001s-55.167 69.167 -88.5 85.5s-68 24.5 -104 24.5c-35.333 0 -69.5 -8.16699 -102.5 -24.5s-62.167 -44.833 -87.5 -85.5s-45.5 -95.334 -60.5 -164.001s-22.5 -155.334 -22.5 -260.001
s7.5 -191.334 22.5 -260.001s35.167 -123.334 60.5 -164.001s54.5 -69.167 87.5 -85.5s67.167 -24.5 102.5 -24.5c36 0 70.667 8.16699 104 24.5s62.833 44.833 88.5 85.5s46.167 95.334 61.5 164.001s23 155.334 23 260.001z" />
    <glyph glyph-name="one" unicode="1" horiz-adv-x="1160" 
d="M1035 185v-185h-800v185h293v843c0 33.333 1 67.666 3 102.999l-208 -174c-12 -9.33301 -23.833 -15.166 -35.5 -17.499s-22.667 -2.5 -33 -0.5s-19.5 5.5 -27.5 10.5s-14 10.5 -18 16.5l-78 107l441 375h203v-1263h260z" />
    <glyph glyph-name="two" unicode="2" horiz-adv-x="1160" 
d="M981 230c26.667 0 47.833 -7.5 63.5 -22.5s23.5 -34.833 23.5 -59.5v-148h-992v82c0 16.667 3.5 34.167 10.5 52.5s18.167 34.833 33.5 49.5l439 440c36.667 37.333 69.5 73 98.5 107s53.167 67.667 72.5 101s34.166 67.166 44.499 101.499s15.5 70.5 15.5 108.5
c0 34.667 -5 65.167 -15 91.5s-24.167 48.5 -42.5 66.5s-40.333 31.5 -66 40.5s-54.5 13.5 -86.5 13.5c-29.333 0 -56.5 -4.16699 -81.5 -12.5s-47.167 -20 -66.5 -35s-35.666 -32.5 -48.999 -52.5s-23.333 -42 -30 -66c-11.333 -30.667 -26 -51 -44 -61s-44 -12.333 -78 -7
l-130 23c10 69.333 29.333 130.166 58 182.499s64.5 96 107.5 131s92.333 61.333 148 79s115.5 26.5 179.5 26.5c66.667 0 127.667 -9.83301 183 -29.5s102.666 -47.5 141.999 -83.5s70 -79.333 92 -130s33 -107 33 -169c0 -53.333 -7.83301 -102.666 -23.5 -147.999
s-36.667 -88.666 -63 -129.999s-57.166 -81.333 -92.499 -120l-111 -118l-326 -333c31.333 9.33301 62.5 16.5 93.5 21.5s60.5 7.5 88.5 7.5h371z" />
    <glyph glyph-name="three" unicode="3" horiz-adv-x="1160" 
d="M108 1043c10 69.333 29.3291 130.166 57.9961 182.499s64.5 96 107.5 131s92.333 61.333 148 79s115.5 26.5 179.5 26.5c66.667 0 126.834 -9.5 180.501 -28.5s99.5 -45.333 137.5 -79s67.167 -73.167 87.5 -118.5s30.5 -94.333 30.5 -147
c0 -46 -5.16699 -86.5 -15.5 -121.5s-25.166 -65.5 -44.499 -91.5s-43.333 -48 -72 -66s-61 -33 -97 -45c86.667 -27.333 151.334 -69 194.001 -125s64 -126.333 64 -211c0 -72 -13.333 -135.667 -40 -191s-62.667 -101.833 -108 -139.5s-97.833 -66.167 -157.5 -85.5
s-122.834 -29 -189.501 -29c-72.667 0 -136 8.33301 -190 25s-101 41.334 -141 74.001s-74 72.667 -102 120s-52 102 -72 164l109 45c28.667 12 55.5 15.167 80.5 9.5s43.167 -19.167 54.5 -40.5c12 -23.333 25.167 -46.333 39.5 -69s31.5 -42.834 51.5 -60.501
s43.5 -32 70.5 -43s59.167 -16.5 96.5 -16.5c42 0 78.667 6.83301 110 20.5s57.5 31.5 78.5 53.5s36.667 46.5 47 73.5s15.5 54.167 15.5 81.5c0 34.667 -3.66699 66.167 -11 94.5s-22.666 52.5 -45.999 72.5s-56.833 35.667 -100.5 47s-102.167 17 -175.5 17v176
c60.667 0.666992 111 6.33398 151 17.001s71.833 25.5 95.5 44.5s40.167 41.833 49.5 68.5s14 56 14 88c0 68 -19 119.667 -57 155s-88.667 53 -152 53c-29.333 0 -56.333 -4.16699 -81 -12.5s-46.834 -20 -66.501 -35s-36.167 -32.5 -49.5 -52.5s-23.333 -42 -30 -66
c-11.333 -30.667 -26.166 -51 -44.499 -61s-44.166 -12.333 -77.499 -7z" />
    <glyph glyph-name="four" unicode="4" horiz-adv-x="1160" 
d="M712 545v473c0 44.667 3 94 9 148l-449 -621h440zM1109 545l0.000976562 -142.999c0 -13.333 -4.33301 -24.833 -13 -34.5s-21 -14.5 -37 -14.5h-132v-353h-215v353h-610c-16.667 0 -31.334 5.16699 -44.001 15.5s-20.667 23.166 -24 38.499l-26 125l685 915h234v-902
h182z" />
    <glyph glyph-name="five" unicode="5" horiz-adv-x="1160" 
d="M406 921c32 6.66699 62.6699 11.502 92.0029 14.502s57.666 4.5 84.999 4.5c76 0 143 -11.333 201 -34s106.667 -54 146 -94s69 -86.833 89 -140.5s30 -111.5 30 -173.5c0 -76.667 -13.5 -146.667 -40.5 -210s-64.5 -117.5 -112.5 -162.5s-104.833 -79.833 -170.5 -104.5
s-137.167 -37 -214.5 -37c-45.333 0 -88.333 4.66699 -129 14s-78.834 21.833 -114.501 37.5s-68.667 33.667 -99 54s-57.5 41.833 -81.5 64.5l76 105c16 22.667 37 34 63 34c16.667 0 33.667 -5.33301 51 -16l59.5 -35c22.333 -12.667 48.666 -24.334 78.999 -35.001
s66.833 -16 109.5 -16c45.333 0 85.333 7.33301 120 22s63.5 35.167 86.5 61.5s40.333 57.666 52 93.999s17.5 75.833 17.5 118.5c0 78.667 -22.833 140.167 -68.5 184.5s-113.167 66.5 -202.5 66.5c-68.667 0 -139 -12.667 -211 -38l-154 44l120 702h714v-105
c0 -35.333 -11 -64 -33 -86s-59.333 -33 -112 -33h-397z" />
    <glyph glyph-name="six" unicode="6" horiz-adv-x="1160" 
d="M522 921l-50.001 -61.999c28 14 58.167 24.833 90.5 32.5s67.166 11.5 104.499 11.5c54.667 0 107.834 -9 159.501 -27s97.167 -45.167 136.5 -81.5s71 -81.5 95 -135.5s36 -117 36 -189c0 -67.333 -12.333 -130.5 -37 -189.5s-59.334 -110.5 -104.001 -154.5
s-98.5 -78.667 -161.5 -104s-132.5 -38 -208.5 -38c-77.333 0 -146.666 12.333 -207.999 37s-113.666 59.167 -156.999 103.5s-76.5 97.666 -99.5 159.999s-34.5 131.5 -34.5 207.5c0 68 13.833 137.833 41.5 209.5s70.5 146.167 128.5 223.5l345 463
c12 16 29.5 29.667 52.5 41s49.5 17 79.5 17h220zM577.999 186.001c39.333 0 75.501 6.66602 108.501 19.999s61.333 32 85 56s42.167 52.167 55.5 84.5s20 67.5 20 105.5c0 41.333 -6.33301 78.5 -19 111.5s-30.667 61 -54 84s-51.333 40.5 -84 52.5s-68.667 18 -108 18
s-75 -6.66699 -107 -20s-59.333 -31.833 -82 -55.5s-40.334 -51.667 -53.001 -84s-19 -67.166 -19 -104.499c0 -40 5.5 -76.5 16.5 -109.5s27.333 -61.167 49 -84.5s48.5 -41.5 80.5 -54.5s69 -19.5 111 -19.5z" />
    <glyph glyph-name="seven" unicode="7" horiz-adv-x="1160" 
d="M1092 1446l0.00195312 -107c0 -32 -3.33301 -57.833 -10 -77.5s-13.334 -36.167 -20.001 -49.5l-548 -1128c-11.333 -23.333 -27.333 -43.166 -48 -59.499s-48.334 -24.5 -83.001 -24.5h-179l559 1105c12.667 22.667 25.167 43.5 37.5 62.5s26.166 37.167 41.499 54.5
h-692c-15.333 0 -28.666 5.66699 -39.999 17s-17 24.666 -17 39.999v167h999z" />
    <glyph glyph-name="eight" unicode="8" horiz-adv-x="1160" 
d="M580 177c40.667 0 76.332 5.83301 106.999 17.5s56.5 27.834 77.5 48.501s36.833 45.334 47.5 74.001s16 59.667 16 93c0 79.333 -22 139.333 -66 180s-104.667 61 -182 61s-138 -20.333 -182 -61s-66 -100.667 -66 -180c0 -33.333 5.33301 -64.333 16 -93
s26.5 -53.334 47.5 -74.001s46.833 -36.834 77.5 -48.501s66.334 -17.5 107.001 -17.5zM579.998 1276c-36.667 0 -68.3311 -5.66699 -94.998 -17s-48.834 -26.5 -66.501 -45.5s-30.667 -40.833 -39 -65.5s-12.5 -50.667 -12.5 -78c0 -28.667 3.5 -56.5 10.5 -83.5
s18.833 -51 35.5 -72s38.667 -37.833 66 -50.5s61 -19 101 -19s73.667 6.33301 101 19s49.333 29.5 66 50.5s28.5 45 35.5 72s10.5 54.833 10.5 83.5c0 27.333 -4.33301 53.333 -13 78s-21.667 46.5 -39 65.5s-39.333 34.167 -66 45.5s-58.334 17 -95.001 17zM824.001 754
c88 -28.667 153 -72.5 195 -131.5s63 -131.167 63 -216.5c0 -64 -12.167 -122 -36.5 -174s-58.5 -96.333 -102.5 -133s-96.833 -65 -158.5 -85s-129.834 -30 -204.501 -30s-142.834 10 -204.501 30s-114.5 48.333 -158.5 85s-78.167 81 -102.5 133s-36.5 110 -36.5 174
c0 85.333 21 157.5 63 216.5s107 102.833 195 131.5c-70 29.333 -122.5 71 -157.5 125s-52.5 119 -52.5 195c0 54.667 11.167 105.667 33.5 153s53.5 88.5 93.5 123.5s87.833 62.333 143.5 82s116.834 29.5 183.501 29.5s127.834 -9.83301 183.501 -29.5
s103.5 -47 143.5 -82s71.167 -76.167 93.5 -123.5s33.5 -98.333 33.5 -153c0 -76 -17.5 -141 -52.5 -195s-87.5 -95.667 -157.5 -125z" />
    <glyph glyph-name="nine" unicode="9" horiz-adv-x="1160" 
d="M330 1012c0 -80.667 20.832 -142.166 62.499 -184.499s100.834 -63.5 177.501 -63.5c40 0 75.667 6.33301 107 19s57.666 30 78.999 52s37.5 48 48.5 78s16.5 62.333 16.5 97c0 39.333 -6 74.5 -18 105.5s-29 57.167 -51 78.5s-48.167 37.666 -78.5 48.999
s-63.5 17 -99.5 17c-37.333 0 -71 -6.16699 -101 -18.5s-55.667 -29.5 -77 -51.5s-37.666 -48.167 -48.999 -78.5s-17 -63.5 -17 -99.5zM657.999 561.001l32.001 40.9971l29 40c-33.333 -21.333 -70 -37.5 -110 -48.5s-82 -16.5 -126 -16.5c-50 0 -99 8.66699 -147 26
s-90.667 43.5 -128 78.5s-67.5 78.333 -90.5 130s-34.5 112.167 -34.5 181.5c0 64.667 12 125.334 36 182.001s57.667 106.334 101 149.001s95.333 76.334 156 101.001s127.667 37 201 37c74 0 140.5 -11.667 199.5 -35s109.333 -56 151 -98s73.667 -92.333 96 -151
s33.5 -123 33.5 -193c0 -44.667 -3.83301 -87 -11.5 -127s-18.5 -78.5 -32.5 -115.5s-31 -73.167 -51 -108.5s-42.333 -70.333 -67 -105l-331 -472c-11.333 -16 -28.333 -29.5 -51 -40.5s-48.334 -16.5 -77.001 -16.5h-227z" />
    <glyph glyph-name="colon" unicode=":" horiz-adv-x="515" 
d="M106 136c0 20.667 3.83301 40.334 11.5 59.001s18.167 34.667 31.5 48s29.333 24 48 32s38.667 12 60 12s41.166 -4 59.499 -12s34.333 -18.667 48 -32s24.5 -29.333 32.5 -48s12 -38.334 12 -59.001c0 -21.333 -4 -41.166 -12 -59.499s-18.833 -34.166 -32.5 -47.499
s-29.667 -23.833 -48 -31.5s-38.166 -11.5 -59.499 -11.5s-41.333 3.83301 -60 11.5s-34.667 18.167 -48 31.5s-23.833 29.166 -31.5 47.499s-11.5 38.166 -11.5 59.499zM106 849c0 20.667 3.83301 40.334 11.5 59.001s18.167 34.667 31.5 48s29.333 24 48 32
s38.667 12 60 12s41.166 -4 59.499 -12s34.333 -18.667 48 -32s24.5 -29.333 32.5 -48s12 -38.334 12 -59.001c0 -21.333 -4 -41.166 -12 -59.499s-18.833 -34.166 -32.5 -47.499s-29.667 -23.833 -48 -31.5s-38.166 -11.5 -59.499 -11.5s-41.333 3.83301 -60 11.5
s-34.667 18.167 -48 31.5s-23.833 29.166 -31.5 47.499s-11.5 38.166 -11.5 59.499z" />
    <glyph glyph-name="semicolon" unicode=";" horiz-adv-x="541" 
d="M156 -245c-12 10 -18 22.332 -18 36.999c0 5.33301 1.83301 11.333 5.5 18s8.16699 12.667 13.5 18l27 29.5c10.667 11.667 21.334 25 32.001 40s20.5 31.333 29.5 49s15.833 36.5 20.5 56.5c-21.333 0 -40.666 3.83301 -57.999 11.5s-32.166 18.167 -44.499 31.5
s-22 29 -29 47s-10.5 37.667 -10.5 59c0 18.667 3.5 36.167 10.5 52.5s16.833 30.666 29.5 42.999s28 22 46 29s37.667 10.5 59 10.5c25.333 0 47.5 -4.5 66.5 -13.5s34.667 -21.333 47 -37s21.666 -33.667 27.999 -54s9.5 -41.833 9.5 -64.5
c0 -32 -4.83301 -65.667 -14.5 -101s-23.834 -70.666 -42.501 -105.999s-41.834 -69.666 -69.501 -102.999s-59.167 -64 -94.5 -92zM117 848.999c0 20.667 3.83301 40.334 11.5 59.001s18.167 34.667 31.5 48s29.333 24 48 32s38.667 12 60 12s41.166 -4 59.499 -12
s34.333 -18.667 48 -32s24.5 -29.333 32.5 -48s12 -38.334 12 -59.001c0 -21.333 -4 -41.166 -12 -59.499s-18.833 -34.166 -32.5 -47.499s-29.667 -23.833 -48 -31.5s-38.166 -11.5 -59.499 -11.5s-41.333 3.83301 -60 11.5s-34.667 18.167 -48 31.5
s-23.833 29.166 -31.5 47.499s-11.5 38.166 -11.5 59.499z" />
    <glyph glyph-name="less" unicode="&#x3c;" horiz-adv-x="1160" 
d="M538 710c-31.333 -15.333 -65.666 -27.335 -102.999 -36.002c37.333 -8.66699 71.666 -20.667 102.999 -36l363 -187c15.333 -7.33301 26.333 -16.666 33 -27.999s10 -23.666 10 -36.999v-176l-793 414v100l793 413v-176c0 -13.333 -3.33301 -25.5 -10 -36.5
s-17.667 -20.5 -33 -28.5z" />
    <glyph glyph-name="equal" unicode="=" horiz-adv-x="1160" 
d="M137 588h886v-184h-886v184zM137 940h886v-183h-886v183z" />
    <glyph glyph-name="greater" unicode="&#x3e;" horiz-adv-x="1160" 
d="M1009 724v-99.998l-793 -414v176c0 13.333 3.33301 25.666 10 36.999s17.667 20.666 33 27.999l363 187c31.333 15.333 65.666 27.333 102.999 36c-37.333 8.66699 -71.666 20.667 -102.999 36l-363 186c-15.333 8 -26.333 17.5 -33 28.5s-10 23.167 -10 36.5v176z" />
    <glyph glyph-name="question" unicode="?" horiz-adv-x="920" 
d="M71 1315c22.667 20 47.4971 38.9971 74.4971 56.9971s56.167 33.667 87.5 47s65.333 23.833 102 31.5s76.334 11.5 119.001 11.5c58 0 110.833 -8 158.5 -24s88.5 -38.833 122.5 -68.5s60.333 -65.5 79 -107.5s28 -89 28 -141c0 -50.667 -7.33301 -94.5 -22 -131.5
s-33 -69.167 -55 -96.5s-46.167 -51 -72.5 -71l-74.5 -56.5c-23.333 -17.667 -43.5 -35 -60.5 -52s-27.167 -36.167 -30.5 -57.5l-23 -146h-169l-17 163c-4 31.333 0.5 58.833 13.5 82.5s30.333 45.334 52 65.001s45.834 38.667 72.501 57s51.667 38.333 75 60
s42.833 46 58.5 73s23.5 59.167 23.5 96.5c0 24 -4.5 45.5 -13.5 64.5s-21.5 35.333 -37.5 49s-35.167 24.167 -57.5 31.5s-46.5 11 -72.5 11c-38 0 -70.167 -4.16699 -96.5 -12.5s-48.666 -17.666 -66.999 -27.999s-33.833 -19.666 -46.5 -27.999s-24 -12.5 -34 -12.5
c-24 0 -41.333 10 -52 30zM259.997 135.997c0 20.667 3.83301 40.334 11.5 59.001s18.167 34.667 31.5 48s29.333 24 48 32s38.667 12 60 12s41.166 -4 59.499 -12s34.333 -18.667 48 -32s24.5 -29.333 32.5 -48s12 -38.334 12 -59.001c0 -21.333 -4 -41.166 -12 -59.499
s-18.833 -34.166 -32.5 -47.499s-29.667 -23.833 -48 -31.5s-38.166 -11.5 -59.499 -11.5s-41.333 3.83301 -60 11.5s-34.667 18.167 -48 31.5s-23.833 29.166 -31.5 47.499s-11.5 38.166 -11.5 59.499z" />
    <glyph glyph-name="at" unicode="@" horiz-adv-x="1687" 
d="M1029 802c-21.333 4 -43.333 6.00195 -66 6.00195c-41.333 0 -80 -9 -116 -27s-67.167 -42.333 -93.5 -73s-47.166 -65.834 -62.499 -105.501s-23 -80.834 -23 -123.501s9.16699 -75.834 27.5 -99.501s45.166 -35.5 80.499 -35.5c17.333 0 34.833 2.66699 52.5 8
s34.5 14.833 50.5 28.5s30.667 31.834 44 54.501s24.333 51 33 85zM1146 546.002c-10.667 -42.667 -15.8301 -77.501 -15.4971 -104.501s4.5 -48.333 12.5 -64s19.333 -26.5 34 -32.5s31.334 -9 50.001 -9c28 0 54.5 8.83301 79.5 26.5s46.833 42.5 65.5 74.5
s33.5 70 44.5 114s16.5 92 16.5 144c0 86.667 -13.5 163 -40.5 229s-64.833 121.167 -113.5 165.5s-106.5 77.666 -173.5 99.999s-140.5 33.5 -220.5 33.5c-88 0 -169.333 -16.5 -244 -49.5s-139.5 -78.167 -194.5 -135.5s-98 -125 -129 -203s-46.5 -162 -46.5 -252
c0 -109.333 17 -205.5 51 -288.5s80.667 -152.333 140 -208s129.166 -97.5 209.499 -125.5s167.166 -42 260.499 -42c51.333 0 99.333 2.83301 144 8.5s85.667 13.334 123 23.001s71.333 20.667 102 33s58 25.5 82 39.5c17.333 10 32.666 13 45.999 9s23 -14 29 -30l34 -89
c-69.333 -45.333 -150.333 -82.333 -243 -111s-198.334 -43 -317.001 -43c-120.667 0 -232.334 19 -335.001 57s-191.5 92.5 -266.5 163.5s-133.667 157.5 -176 259.5s-63.5 216.667 -63.5 344c0 71.333 9.16699 140.666 27.5 207.999s44.5 130.5 78.5 189.5
s75 113.167 123 162.5s101.333 91.666 160 126.999s122.167 62.833 190.5 82.5s139.833 29.5 214.5 29.5c94.667 0 185.5 -15.833 272.5 -47.5s164 -77 231 -136s120.5 -131 160.5 -216s60 -180.833 60 -287.5c0 -71.333 -10.5 -138.166 -31.5 -200.499
s-50.333 -116.5 -88 -162.5s-82 -82.167 -133 -108.5s-106.5 -39.5 -166.5 -39.5c-46 0 -86.667 10.667 -122 32s-59.666 55.666 -72.999 102.999c-39.333 -48 -81 -82.333 -125 -103s-91.667 -31 -143 -31c-42 0 -78.5 7.33301 -109.5 22s-57 34.834 -78 60.501
s-36.667 56 -47 91s-15.5 73.167 -15.5 114.5c0 38 4.83301 76.5 14.5 115.5s24.167 76.667 43.5 113s43.5 70.333 72.5 102s63 59.334 102 83.001s83 42.334 132 56.001s102.833 20.5 161.5 20.5c52 0 96.333 -4 133 -12s72 -19.333 106 -34z" />
    <glyph glyph-name="A" unicode="A" horiz-adv-x="1389" 
d="M925 546l-176.001 481.001c-8.66699 21.333 -17.667 46.666 -27 75.999s-18.666 61 -27.999 95c-8.66699 -34 -17.667 -65.833 -27 -95.5s-18.333 -55.5 -27 -77.5l-175 -479h460zM1400 0.000976562h-208.001c-23.333 0 -42.333 5.83301 -57 17.5
s-25.667 26.167 -33 43.5l-108 295h-599l-108 -295c-5.33301 -15.333 -15.666 -29.333 -30.999 -42s-34.333 -19 -57 -19h-210l569 1446h274z" />
    <glyph glyph-name="B" unicode="B" horiz-adv-x="1317" 
d="M702 210c50 0 92 6 126 18s61.167 28 81.5 48s35 43.333 44 70s13.5 55 13.5 85c0 31.333 -5 59.5 -15 84.5s-25.667 46.333 -47 64s-48.833 31.167 -82.5 40.5s-74.167 14 -121.5 14h-271v-424h272zM430 1238l0.000976562 -418h214c92 0 161.5 16.667 208.5 50
s70.5 86.333 70.5 159c0 75.333 -21.333 129 -64 161s-109.334 48 -200.001 48h-229zM659.001 1446c94.667 0 175.667 -9.00195 243 -27.002s122.5 -43.667 165.5 -77s74.5 -73.666 94.5 -120.999s30 -100.666 30 -159.999c0 -34 -5 -66.5 -15 -97.5s-25.5 -60 -46.5 -87
s-47.667 -51.5 -80 -73.5s-70.833 -40.667 -115.5 -56c198.667 -44.667 298 -152 298 -322c0 -61.333 -11.667 -118 -35 -170s-57.333 -96.833 -102 -134.5s-99.667 -67.167 -165 -88.5s-140 -32 -224 -32h-546v1446h498z" />
    <glyph glyph-name="C" unicode="C" horiz-adv-x="1323" 
d="M1154 341c14.667 0 27.6729 -5.66699 39.0059 -17l106 -115c-58.667 -72.667 -130.834 -128.334 -216.501 -167.001s-188.5 -58 -308.5 -58c-107.333 0 -203.833 18.333 -289.5 55s-158.834 87.667 -219.501 153s-107.167 143.333 -139.5 234s-48.5 189.667 -48.5 297
c0 108.667 17.333 208.167 52 298.5s83.5 168.166 146.5 233.499s138.167 116.166 225.5 152.499s184 54.5 290 54.5c105.333 0 198.833 -17.333 280.5 -52s151.167 -80 208.5 -136l-90 -125c-5.33301 -8 -12.166 -15 -20.499 -21s-19.833 -9 -34.5 -9
c-10 0 -20.333 2.83301 -31 8.5s-22.334 12.667 -35.001 21s-27.334 17.5 -44.001 27.5s-36 19.167 -58 27.5s-47.5 15.333 -76.5 21s-62.5 8.5 -100.5 8.5c-64.667 0 -123.834 -11.5 -177.501 -34.5s-99.834 -56.333 -138.501 -100s-68.667 -97 -90 -160
s-32 -134.833 -32 -215.5c0 -81.333 11.5 -153.666 34.5 -216.999s54.167 -116.666 93.5 -159.999s85.666 -76.5 138.999 -99.5s110.666 -34.5 171.999 -34.5c36.667 0 69.834 2 99.501 6s57 10.333 82 19s48.667 19.834 71 33.501s44.5 30.5 66.5 50.5
c6.66699 6 13.667 10.833 21 14.5s15 5.5 23 5.5z" />
    <glyph glyph-name="D" unicode="D" horiz-adv-x="1521" 
d="M1445 723c0 -106 -17.667 -203.331 -53 -291.998s-85 -165 -149 -229s-141 -113.667 -231 -149s-190 -53 -300 -53h-551v1446h551c110 0 210 -17.833 300 -53.5s167 -85.334 231 -149.001s113.667 -139.834 149 -228.501s53 -186 53 -292zM1169 723.002
c0 79.333 -10.5 150.5 -31.5 213.5s-51.333 116.333 -91 160s-87.667 77.167 -144 100.5s-119.833 35 -190.5 35h-281v-1018h281c70.667 0 134.167 11.667 190.5 35s104.333 56.833 144 100.5s70 97 91 160s31.5 134.167 31.5 213.5z" />
    <glyph glyph-name="E" unicode="E" horiz-adv-x="1150" 
d="M431 1232v-401h506v-207h-506v-409h642v-215h-912v1446h912v-214h-642z" />
    <glyph glyph-name="F" unicode="F" horiz-adv-x="1132" 
d="M431 1232v-428h542v-215h-542v-589h-270v1446h912v-214h-642z" />
    <glyph glyph-name="G" unicode="G" horiz-adv-x="1452" 
d="M1353 725l0.00195312 -585.002c-73.333 -54 -151.5 -93.5 -234.5 -118.5s-171.833 -37.5 -266.5 -37.5c-118 0 -224.833 18.333 -320.5 55s-177.334 87.667 -245.001 153s-119.834 143.333 -156.501 234s-55 189.667 -55 297c0 108.667 17.667 208.334 53 299.001
s85.5 168.667 150.5 234s143.833 116 236.5 152s196.667 54 312 54c58.667 0 113.5 -4.66699 164.5 -14s98.333 -22.166 142 -38.499s83.5 -36.166 119.5 -59.499s69 -49 99 -77l-77 -122c-12 -19.333 -27.667 -31.166 -47 -35.499s-40.333 0.5 -63 14.5l-66 38
c-22 12.667 -46.5 23.667 -73.5 33s-57.333 17 -91 23s-72.5 9 -116.5 9c-71.333 0 -135.833 -12 -193.5 -36s-106.834 -58.333 -147.501 -103s-72 -98.334 -94 -161.001s-33 -132.667 -33 -210c0 -82.667 11.833 -156.5 35.5 -221.5s57 -120 100 -165
s94.833 -79.333 155.5 -103s128.334 -35.5 203.001 -35.5c53.333 0 101 5.66699 143 17s83 26.666 123 45.999v262h-182c-17.333 0 -30.833 4.83301 -40.5 14.5s-14.5 21.5 -14.5 35.5v152h480z" />
    <glyph glyph-name="H" unicode="H" horiz-adv-x="1541" 
d="M1380 1446v-1446h-270v632h-679v-632h-270v1446h270v-622h679v622h270z" />
    <glyph glyph-name="I" unicode="I" horiz-adv-x="593" 
d="M431 0h-270v1446h270v-1446z" />
    <glyph glyph-name="J" unicode="J" horiz-adv-x="859" 
d="M712 514c0 -81.333 -9.99902 -154.668 -29.999 -220.001s-49.833 -121 -89.5 -167s-89.167 -81.333 -148.5 -106s-128.333 -37 -207 -37c-36 0 -71.333 2.16699 -106 6.5s-71 11.166 -109 20.499c2 26.667 4.33301 53.334 7 80.001s5 53.334 7 80.001
c2 14.667 7.83301 26.5 17.5 35.5s23.5 13.5 41.5 13.5c11.333 0 26.166 -2.33301 44.499 -7s41.5 -7 69.5 -7c38 0 71.667 5.5 101 16.5s53.833 28.5 73.5 52.5s34.5 55.167 44.5 93.5s15 84.833 15 139.5v938h269v-932z" />
    <glyph glyph-name="K" unicode="K" horiz-adv-x="1371" 
d="M430 840h63.0029c25.333 0 46.333 3.5 63 10.5s31 18.167 43 33.5l399 505c16.667 21.333 34.167 36.166 52.5 44.499s41.5 12.5 69.5 12.5h232l-487 -601c-28.667 -36.667 -58.334 -62.667 -89.001 -78c22 -8 41.833 -19.167 59.5 -33.5s34.5 -33.166 50.5 -56.499
l502 -677h-237c-32 0 -55.833 4.5 -71.5 13.5s-28.834 22.167 -39.501 39.5l-409 534c-12.667 18 -27.334 30.667 -44.001 38s-40.667 11 -72 11h-85v-636h-269v1446h269v-606z" />
    <glyph glyph-name="L" unicode="L" horiz-adv-x="1039" 
d="M1008 222v-222h-847v1446h269v-1224h578z" />
    <glyph glyph-name="M" unicode="M" horiz-adv-x="1890" 
d="M1729 1446l0.00195312 -1446h-237v934c0 37.333 2 77.666 6 120.999l-437 -821c-20.667 -39.333 -52.334 -59 -95.001 -59h-38c-42.667 0 -74.334 19.667 -95.001 59l-442 824c2 -22 3.66699 -43.667 5 -65s2 -41 2 -59v-934h-237v1446h203c12 0 22.333 -0.333008 31 -1
s16.5 -2.33398 23.5 -5.00098s13.333 -7 19 -13s11.167 -14 16.5 -24l433 -803c11.333 -21.333 21.833 -43.333 31.5 -66l28.5 -70c9.33301 24.667 19 48.5 29 71.5s20.667 45.167 32 66.5l427 801c5.33301 10 11 18 17 24s12.5 10.333 19.5 13s14.833 4.33398 23.5 5.00098
s19 1 31 1h203z" />
    <glyph glyph-name="N" unicode="N" horiz-adv-x="1541" 
d="M1380 1446v-1446h-138c-21.333 0 -39.166 3.5 -53.499 10.5s-28.166 18.833 -41.499 35.5l-755 964c4 -44 6 -84.667 6 -122v-888h-237v1446h141c11.333 0 21.166 -0.5 29.499 -1.5s15.666 -3 21.999 -6s12.5 -7.33301 18.5 -13s12.667 -13.167 20 -22.5l758 -968
c-2 23.333 -3.66699 46.333 -5 69s-2 43.667 -2 63v879h237z" />
    <glyph glyph-name="O" unicode="O" horiz-adv-x="1616" 
d="M1540 723c0 -106 -17.5 -204.167 -52.5 -294.5s-84.5 -168.5 -148.5 -234.5s-141 -117.5 -231 -154.5s-190 -55.5 -300 -55.5c-109.333 0 -209 18.5 -299 55.5s-167.167 88.5 -231.5 154.5s-114.166 144.167 -149.499 234.5s-53 188.5 -53 294.5s17.667 204.167 53 294.5
s85.166 168.5 149.499 234.5s141.5 117.5 231.5 154.5s189.667 55.5 299 55.5c73.333 0 142.333 -8.5 207 -25.5s124 -41 178 -72s102.5 -68.667 145.5 -113s79.5 -93.833 109.5 -148.5s52.833 -114 68.5 -178s23.5 -131.333 23.5 -202zM1265 723
c0 79.333 -10.667 150.5 -32 213.5s-51.666 116.5 -90.999 160.5s-87.166 77.667 -143.499 101s-119.833 35 -190.5 35s-134.167 -11.667 -190.5 -35s-104.333 -57 -144 -101s-70.167 -97.5 -91.5 -160.5s-32 -134.167 -32 -213.5s10.667 -150.5 32 -213.5
s51.833 -116.333 91.5 -160s87.667 -77.167 144 -100.5s119.833 -35 190.5 -35s134.167 11.667 190.5 35s104.166 56.833 143.499 100.5s69.666 97 90.999 160s32 134.167 32 213.5z" />
    <glyph glyph-name="P" unicode="P" horiz-adv-x="1238" 
d="M631 719c49.333 0 92.333 6.16699 129 18.5s67.167 30 91.5 53s42.5 51 54.5 84s18 69.833 18 110.5c0 38.667 -6 73.667 -18 105s-30 58 -54 80s-54.333 38.833 -91 50.5s-80 17.5 -130 17.5h-201v-519h201zM631 1446c96.667 0 180.333 -11.3311 251 -33.998
s129 -54.334 175 -95.001s80.167 -89.334 102.5 -146.001s33.5 -118.667 33.5 -186c0 -70 -11.667 -134.167 -35 -192.5s-58.333 -108.5 -105 -150.5s-105.167 -74.667 -175.5 -98s-152.5 -35 -246.5 -35h-201v-509h-269v1446h470z" />
    <glyph glyph-name="Q" unicode="Q" horiz-adv-x="1616" 
d="M351 723c0 -79.333 10.667 -150.5 32 -213.5s51.833 -116.333 91.5 -160s87.667 -77.167 144 -100.5s119.833 -35 190.5 -35s134.167 11.667 190.5 35s104.166 56.833 143.499 100.5s69.666 97 90.999 160s32 134.167 32 213.5s-10.667 150.5 -32 213.5
s-51.666 116.5 -90.999 160.5s-87.166 77.667 -143.499 101s-119.833 35 -190.5 35s-134.167 -11.667 -190.5 -35s-104.333 -57 -144 -101s-70.167 -97.5 -91.5 -160.5s-32 -134.167 -32 -213.5zM1616 -283h-221.999c-32 0 -60.833 4.33301 -86.5 13
s-49.167 24.667 -70.5 48l-212 234c-34 -9.33301 -68.833 -16.333 -104.5 -21s-72.834 -7 -111.501 -7c-109.333 0 -209 18.5 -299 55.5s-167.167 88.5 -231.5 154.5s-114.166 144.167 -149.499 234.5s-53 188.5 -53 294.5s17.667 204.167 53 294.5
s85.166 168.5 149.499 234.5s141.5 117.5 231.5 154.5s189.667 55.5 299 55.5c73.333 0 142.333 -8.5 207 -25.5s124 -41 178 -72s102.5 -68.667 145.5 -113s79.5 -93.833 109.5 -148.5s52.833 -114 68.5 -178s23.5 -131.333 23.5 -202
c0 -64.667 -6.66699 -126.5 -20 -185.5s-32.5 -114.167 -57.5 -165.5s-55.5 -98.5 -91.5 -141.5s-77 -80.833 -123 -113.5z" />
    <glyph glyph-name="R" unicode="R" horiz-adv-x="1286" 
d="M598 758c50.667 0 94.832 6.33301 132.499 19s68.667 30.167 93 52.5s42.5 48.833 54.5 79.5s18 64.334 18 101.001c0 73.333 -24.167 129.666 -72.5 168.999s-122.166 59 -221.499 59h-172v-480h168zM1290 0l-242.998 0.000976562c-46 0 -79.333 18 -100 54l-304 463
c-11.333 17.333 -23.833 29.666 -37.5 36.999s-33.834 11 -60.501 11h-115v-565h-269v1446h441c98 0 182.167 -10.167 252.5 -30.5s128 -48.833 173 -85.5s78.167 -80.5 99.5 -131.5s32 -107.167 32 -168.5c0 -48.667 -7.16699 -94.667 -21.5 -138s-35 -82.666 -62 -117.999
s-60.333 -66.333 -100 -93s-84.834 -47.667 -135.501 -63c17.333 -10 33.333 -21.833 48 -35.5s28 -29.834 40 -48.501z" />
    <glyph glyph-name="S" unicode="S" horiz-adv-x="1097" 
d="M931 1183c-8 -14 -16.5029 -24.1631 -25.5029 -30.4961s-20.167 -9.5 -33.5 -9.5c-14 0 -29.167 5.16699 -45.5 15.5s-35.833 21.833 -58.5 34.5s-49.167 24.167 -79.5 34.5s-66.166 15.5 -107.499 15.5c-37.333 0 -70 -4.5 -98 -13.5s-51.5 -21.5 -70.5 -37.5
s-33.167 -35.167 -42.5 -57.5s-14 -46.833 -14 -73.5c0 -34 9.5 -62.333 28.5 -85s44.167 -42 75.5 -58s67 -30.333 107 -43l123 -40.5c42 -14.333 83 -31 123 -50s75.667 -43 107 -72s56.5 -64.5 75.5 -106.5s28.5 -93 28.5 -153c0 -65.333 -11.167 -126.5 -33.5 -183.5
s-55 -106.667 -98 -149s-95.5 -75.666 -157.5 -99.999s-133 -36.5 -213 -36.5c-46 0 -91.333 4.5 -136 13.5s-87.5 21.833 -128.5 38.5s-79.5 36.667 -115.5 60s-68 49.333 -96 78l79 129c6.66699 9.33301 15.334 17.166 26.001 23.499s22 9.5 34 9.5
c16.667 0 34.667 -6.83301 54 -20.5s42.333 -28.834 69 -45.501s57.834 -31.834 93.501 -45.501s78.5 -20.5 128.5 -20.5c76.667 0 136 18.167 178 54.5s63 88.5 63 156.5c0 38 -9.5 69 -28.5 93s-44.167 44.167 -75.5 60.5s-67 30.166 -107 41.499
s-80.667 23.666 -122 36.999s-82 29.333 -122 48s-75.667 43 -107 73s-56.5 67.5 -75.5 112.5s-28.5 100.5 -28.5 166.5c0 52.667 10.5 104 31.5 154s51.5 94.333 91.5 133s89.333 69.667 148 93s126 35 202 35c85.333 0 164 -13.333 236 -40s133.333 -64 184 -112z" />
    <glyph glyph-name="T" unicode="T" horiz-adv-x="1200" 
d="M1171 1225h-436v-1225h-269v1225h-436v221h1141v-221z" />
    <glyph glyph-name="U" unicode="U" horiz-adv-x="1485" 
d="M743 217c52 0 98.502 8.66895 139.502 26.002s75.5 41.666 103.5 72.999s49.5 69.333 64.5 114s22.5 94.667 22.5 150v866h269v-866c0 -86 -13.833 -165.5 -41.5 -238.5s-67.334 -136 -119.001 -189s-114.5 -94.333 -188.5 -124s-157.333 -44.5 -250 -44.5
c-93.333 0 -177 14.833 -251 44.5s-136.833 71 -188.5 124s-91.334 116 -119.001 189s-41.5 152.5 -41.5 238.5v866h269v-865c0 -55.333 7.5 -105.333 22.5 -150s36.667 -82.834 65 -114.501s63 -56.167 104 -73.5s87.5 -26 139.5 -26z" />
    <glyph glyph-name="V" unicode="V" horiz-adv-x="1389" 
d="M1400 1446l-583.998 -1446h-243l-584 1446h216c23.333 0 42.333 -5.66699 57 -17s25.667 -26 33 -44l341 -882c11.333 -28.667 22.166 -60.167 32.499 -94.5s20.166 -70.166 29.499 -107.499c8 37.333 16.667 73.166 26 107.499s19.666 65.833 30.999 94.5l339 882
c5.33301 15.333 15.833 29.333 31.5 42s34.834 19 57.501 19h217z" />
    <glyph glyph-name="W" unicode="W" horiz-adv-x="2102" 
d="M2085 1446l-449 -1446h-243l-316 988c-8.66699 24 -16.667 53.333 -24 88c-4 -16.667 -8 -32.334 -12 -47.001s-8.33301 -28.334 -13 -41.001l-319 -988h-244l-448 1446h225c23.333 0 42.833 -5.5 58.5 -16.5s26.167 -25.833 31.5 -44.5l246 -865
c5.33301 -21.333 10.5 -44.5 15.5 -69.5l15.5 -78.5c5.33301 28 11.166 54.333 17.499 79s13.166 47.667 20.499 69l284 865c5.33301 15.333 15.833 29.333 31.5 42s34.834 19 57.501 19h79c23.333 0 42.333 -5.66699 57 -17s25.667 -26 33 -44l283 -865
c14 -41.333 26.667 -89 38 -143c8.66699 52.667 18.334 100.334 29.001 143.001l246 865c4 16.667 14.167 31 30.5 43s35.833 18 58.5 18h211z" />
    <glyph glyph-name="X" unicode="X" horiz-adv-x="1341" 
d="M1336 0l-268 -0.000976562c-18.667 0 -33.5 4.66699 -44.5 14s-19.833 20 -26.5 32l-335 555c-5.33301 -16.667 -11.666 -31 -18.999 -43l-321 -512c-8 -11.333 -17.167 -21.833 -27.5 -31.5s-23.833 -14.5 -40.5 -14.5h-251l480 744l-461 702h268
c18.667 0 32.167 -2.5 40.5 -7.5s16.166 -13.167 23.499 -24.5l329 -530c6.66699 16.667 14.667 33.334 24 50.001l302 475c7.33301 12.667 15.333 22 24 28s19.667 9 33 9h257l-465 -691z" />
    <glyph glyph-name="Y" unicode="Y" horiz-adv-x="1296" 
d="M782 560l-0.000976562 -560.002h-268v560l-527 886h237c23.333 0 41.833 -5.66699 55.5 -17s25.167 -25.666 34.5 -42.999l264 -483c15.333 -28.667 28.833 -55.667 40.5 -81s22.167 -50.666 31.5 -75.999c8.66699 25.333 18.667 50.666 30 75.999s24.333 52.333 39 81
l263 483c7.33301 14.667 18.333 28.334 33 41.001s33.334 19 56.001 19h238z" />
    <glyph glyph-name="Z" unicode="Z" horiz-adv-x="1211" 
d="M1157 1347c0 -30.667 -8.66699 -58.666 -26 -83.999l-742 -1048h751v-215h-1100v106c0 13.333 2.33301 26.166 7 38.499s10.667 23.833 18 34.5l744 1053h-722v214h1070v-99z" />
    <glyph glyph-name="bracketleft" unicode="[" horiz-adv-x="627" 
d="M371 1387v-1535h139c19.333 0 35 -6.16699 47 -18.5s18 -27.166 18 -44.499v-97h-410v1855h410v-97c0 -17.333 -6 -32.166 -18 -44.499s-27.667 -18.5 -47 -18.5h-139z" />
    <glyph glyph-name="backslash" unicode="\" horiz-adv-x="932" 
d="M58 1486h106c29.333 0 55 -7.5 77 -22.5s38.333 -36.5 49 -64.5l584 -1494h-105c-26 0 -51.5 7.66699 -76.5 23s-43.167 38.333 -54.5 69z" />
    <glyph glyph-name="bracketright" unicode="]" horiz-adv-x="627" 
d="M462 -308l-410 0.00195312v97c0 17.333 6 32.166 18 44.499s27.667 18.5 47 18.5h139v1535h-139c-19.333 0 -35 6.16699 -47 18.5s-18 27.166 -18 44.499v97h410v-1855z" />
    <glyph glyph-name="asciicircum" unicode="^" horiz-adv-x="1160" 
d="M1061 681l-181 0.000976562c-15.333 0 -28 4 -38 12s-18 18 -24 30l-190 384c-21.333 43.333 -37.666 82.666 -48.999 117.999c-5.33301 -19.333 -11.833 -38.5 -19.5 -57.5l-25.5 -60.5l-180 -384c-5.33301 -12 -13.333 -22 -24 -30s-24.334 -12 -41.001 -12h-190
l397 765h160z" />
    <glyph glyph-name="underscore" unicode="_" horiz-adv-x="933" 
d="M860 -134v-160h-788v160h788z" />
    <glyph glyph-name="grave" unicode="`" 
d="M311 1462c27.333 0 47.6689 -4.5 61.002 -13.5s24.666 -22.167 33.999 -39.5l143 -243h-141c-18.667 0 -33.834 2.5 -45.501 7.5s-23.5 14.167 -35.5 27.5l-247 261h231z" />
    <glyph glyph-name="a" unicode="a" horiz-adv-x="1015" 
d="M664 438c-71.333 -3.33301 -131.333 -9.49902 -180 -18.499s-87.667 -20.5 -117 -34.5s-50.333 -30.333 -63 -49s-19 -39 -19 -61c0 -43.333 12.833 -74.333 38.5 -93s59.167 -28 100.5 -28c50.667 0 94.5 9.16699 131.5 27.5s73.167 46.166 108.5 83.499v173z
M98 883.001c118 108 260 162 426 162c60 0 113.667 -9.83301 161 -29.5s87.333 -47 120 -82s57.5 -76.833 74.5 -125.5s25.5 -102 25.5 -160v-648h-112c-23.333 0 -41.333 3.5 -54 10.5s-22.667 21.167 -30 42.5l-22 74c-26 -23.333 -51.333 -43.833 -76 -61.5
s-50.334 -32.5 -77.001 -44.5s-55.167 -21.167 -85.5 -27.5s-63.833 -9.5 -100.5 -9.5c-43.333 0 -83.333 5.83301 -120 17.5s-68.334 29.167 -95.001 52.5s-47.334 52.333 -62.001 87s-22 75 -22 121c0 26 4.33301 51.833 13 77.5s22.834 50.167 42.501 73.5
s45.167 45.333 76.5 66s69.833 38.667 115.5 54s98.834 27.833 159.501 37.5s130 15.5 208 17.5v60c0 68.667 -14.667 119.5 -44 152.5s-71.666 49.5 -126.999 49.5c-40 0 -73.167 -4.66699 -99.5 -14s-49.5 -19.833 -69.5 -31.5l-54.5 -31.5
c-16.333 -9.33301 -34.5 -14 -54.5 -14c-17.333 0 -32 4.5 -44 13.5s-21.667 19.5 -29 31.5z" />
    <glyph glyph-name="b" unicode="b" horiz-adv-x="1135" 
d="M369 266c28 -34 58.501 -58 91.501 -72s67.833 -21 104.5 -21c38 0 72.167 6.83301 102.5 20.5s56.166 35 77.499 64s37.666 66 48.999 111s17 98.833 17 161.5c0 112.667 -18.667 194.167 -56 244.5s-91 75.5 -161 75.5c-47.333 0 -88.666 -10.833 -123.999 -32.5
s-69 -52.167 -101 -91.5v-460zM369.001 900c41.333 43.333 87.167 77.834 137.5 103.501s107.833 38.5 172.5 38.5c59.333 0 112.833 -11.667 160.5 -35s88.334 -56.833 122.001 -100.5s59.5 -96.5 77.5 -158.5s27 -131.667 27 -209c0 -83.333 -10.333 -159 -31 -227
s-50.167 -126.167 -88.5 -174.5s-84.5 -85.833 -138.5 -112.5s-114 -40 -180 -40c-32 0 -61 3.16699 -87 9.5s-50 15.166 -72 26.499s-42.167 25.166 -60.5 41.499s-35.833 34.5 -52.5 54.5l-11 -69c-4 -17.333 -10.833 -29.666 -20.5 -36.999s-22.834 -11 -39.501 -11h-163
v1486h247v-586z" />
    <glyph glyph-name="c" unicode="c" horiz-adv-x="964" 
d="M857 809c-7.33301 -9.33301 -14.4971 -16.668 -21.4971 -22.001s-17.167 -8 -30.5 -8c-12.667 0 -25 3.83301 -37 11.5s-26.333 16.334 -43 26.001s-36.5 18.334 -59.5 26.001s-51.5 11.5 -85.5 11.5c-43.333 0 -81.333 -7.83301 -114 -23.5
s-59.834 -38.167 -81.501 -67.5s-37.834 -64.833 -48.501 -106.5s-16 -88.834 -16 -141.501c0 -54.667 5.83301 -103.334 17.5 -146.001s28.5 -78.5 50.5 -107.5s48.667 -51 80 -66s66.666 -22.5 105.999 -22.5s71.166 4.83301 95.499 14.5s44.833 20.334 61.5 32.001
s31.167 22.334 43.5 32.001s26.166 14.5 41.499 14.5c20 0 35 -7.66699 45 -23l71 -90c-27.333 -32 -57 -58.833 -89 -80.5s-65.167 -39 -99.5 -52s-69.666 -22.167 -105.999 -27.5s-72.5 -8 -108.5 -8c-63.333 0 -123 11.833 -179 35.5s-105 58.167 -147 103.5
s-75.167 100.833 -99.5 166.5s-36.5 140.5 -36.5 224.5c0 75.333 10.833 145.166 32.5 209.499s53.5 120 95.5 167s94 83.833 156 110.5s133.333 40 214 40c76.667 0 143.834 -12.333 201.501 -37s109.5 -60 155.5 -106z" />
    <glyph glyph-name="d" unicode="d" horiz-adv-x="1135" 
d="M766 764c-28 34 -58.501 58.001 -91.501 72.001s-68.5 21 -106.5 21c-37.333 0 -71 -7 -101 -21s-55.667 -35.167 -77 -63.5s-37.666 -64.333 -48.999 -108s-17 -95.167 -17 -154.5c0 -60 4.83301 -110.833 14.5 -152.5s23.5 -75.667 41.5 -102s40 -45.333 66 -57
s55 -17.5 87 -17.5c51.333 0 95 10.667 131 32s70 51.666 102 90.999v460zM1013 1486l0.000976562 -1486h-151c-32.667 0 -53.334 15 -62.001 45l-21 99c-41.333 -47.333 -88.833 -85.666 -142.5 -114.999s-116.167 -44 -187.5 -44c-56 0 -107.333 11.667 -154 35
s-86.834 57.166 -120.501 101.499s-59.667 99.166 -78 164.499s-27.5 140 -27.5 224c0 76 10.333 146.667 31 212s50.334 122 89.001 170s85 85.5 139 112.5s114.667 40.5 182 40.5c57.333 0 106.333 -9 147 -27s77 -42.333 109 -73v541h247z" />
    <glyph glyph-name="e" unicode="e" horiz-adv-x="1068" 
d="M783 631c0 32 -4.49902 62.1699 -13.499 90.5029s-22.5 53.166 -40.5 74.499s-40.833 38.166 -68.5 50.499s-59.834 18.5 -96.501 18.5c-71.333 0 -127.5 -20.333 -168.5 -61s-67.167 -98.334 -78.5 -173.001h466zM312.001 482.003
c4 -52.667 13.332 -98.1641 27.999 -136.497s34 -70 58 -95s52.5 -43.667 85.5 -56s69.5 -18.5 109.5 -18.5s74.5 4.66699 103.5 14s54.333 19.666 76 30.999s40.667 21.666 57 30.999s32.166 14 47.499 14c20.667 0 36 -7.66699 46 -23l71 -90
c-27.333 -32 -58 -58.833 -92 -80.5s-69.5 -39 -106.5 -52s-74.667 -22.167 -113 -27.5s-75.5 -8 -111.5 -8c-71.333 0 -137.666 11.833 -198.999 35.5s-114.666 58.667 -159.999 105s-81 103.666 -107 171.999s-39 147.5 -39 237.5c0 70 11.333 135.833 34 197.5
s55.167 115.334 97.5 161.001s94 81.834 155 108.501s129.833 40 206.5 40c64.667 0 124.334 -10.333 179.001 -31s101.667 -50.834 141 -90.501s70.166 -88.334 92.499 -146.001s33.5 -123.5 33.5 -197.5c0 -37.333 -4 -62.5 -12 -75.5s-23.333 -19.5 -46 -19.5h-635z" />
    <glyph glyph-name="f" unicode="f" horiz-adv-x="717" 
d="M194 0l0.00292969 839.999l-89 14c-19.333 4 -34.833 10.833 -46.5 20.5s-17.5 23.5 -17.5 41.5v101h153v76c0 58.667 8.83301 111.334 26.5 158.001s43 86.334 76 119.001s73.167 57.667 120.5 75s100.666 26 159.999 26c47.333 0 91.333 -6.33301 132 -19l-5 -124
c-0.666992 -9.33301 -3.33398 -16.833 -8.00098 -22.5s-10.834 -10 -18.501 -13s-16.5 -5 -26.5 -6s-20.667 -1.5 -32 -1.5c-29.333 0 -55.5 -3.16699 -78.5 -9.5s-42.5 -17.333 -58.5 -33s-28.167 -36.334 -36.5 -62.001s-12.5 -57.5 -12.5 -95.5v-68h267v-176h-259v-841
h-247z" />
    <glyph glyph-name="g" unicode="g" horiz-adv-x="1056" 
d="M497 538c30.667 0 57.333 4.16504 80 12.498s41.5 19.833 56.5 34.5s26.333 32.334 34 53.001s11.5 43.334 11.5 68.001c0 50.667 -15.167 90.834 -45.5 120.501s-75.833 44.5 -136.5 44.5s-106.167 -14.833 -136.5 -44.5s-45.5 -69.834 -45.5 -120.501
c0 -24 3.83301 -46.333 11.5 -67s19 -38.5 34 -53.5s34 -26.667 57 -35s49.5 -12.5 79.5 -12.5zM775.999 -46.002c0 20 -5.99805 36.332 -17.998 48.999s-28.333 22.5 -49 29.5s-44.834 12.167 -72.501 15.5s-57 5.83301 -88 7.5s-63 3.16699 -96 4.5s-65.167 4 -96.5 8
c-27.333 -15.333 -49.5 -33.333 -66.5 -54s-25.5 -44.667 -25.5 -72c0 -18 4.5 -34.833 13.5 -50.5s23.333 -29.167 43 -40.5s45.167 -20.166 76.5 -26.499s69.666 -9.5 114.999 -9.5c46 0 85.667 3.5 119 10.5s60.833 16.667 82.5 29s37.5 27 47.5 44s15 35.5 15 55.5z
M1022 990.997l-0.00195312 -91.998c0 -29.333 -17.667 -47.333 -53 -54l-92 -17c14 -35.333 21 -74 21 -116c0 -50.667 -10.167 -96.5 -30.5 -137.5s-48.5 -75.833 -84.5 -104.5s-78.5 -50.834 -127.5 -66.501s-101.833 -23.5 -158.5 -23.5c-20 0 -39.333 1 -58 3
s-37 4.66699 -55 8c-32 -19.333 -48 -41 -48 -65c0 -20.667 9.5 -35.834 28.5 -45.501s44.167 -16.5 75.5 -20.5s67 -6.5 107 -7.5s81 -3.16699 123 -6.5s83 -9.16602 123 -17.499s75.667 -21.5 107 -39.5s56.5 -42.5 75.5 -73.5s28.5 -70.833 28.5 -119.5
c0 -45.333 -11.167 -89.333 -33.5 -132s-54.666 -80.667 -96.999 -114s-94.333 -60.166 -156 -80.499s-131.834 -30.5 -210.501 -30.5c-77.333 0 -144.666 7.5 -201.999 22.5s-105 35 -143 60s-66.333 53.833 -85 86.5s-28 66.667 -28 102c0 48 14.5 88.167 43.5 120.5
s68.833 58.166 119.5 77.499c-27.333 14 -49 32.667 -65 56s-24 54 -24 92c0 15.333 2.83301 31.166 8.5 47.499s14 32.5 25 48.5s24.833 31.167 41.5 45.5s36.334 27.166 59.001 38.499c-52 28 -92.833 65.333 -122.5 112s-44.5 101.334 -44.5 164.001
c0 50.667 10.167 96.5 30.5 137.5s48.666 76 84.999 105s79.333 51.167 129 66.5s103.834 23 162.501 23c44 0 85.333 -4.5 124 -13.5s74 -22.167 106 -39.5h295z" />
    <glyph glyph-name="h" unicode="h" horiz-adv-x="1128" 
d="M369 916c40 37.333 84 67.666 132 90.999s104.333 35 169 35c56 0 105.667 -9.5 149 -28.5s79.5 -45.667 108.5 -80s51 -75.333 66 -123s22.5 -100.167 22.5 -157.5v-653h-247v653c0 62.667 -14.333 111.167 -43 145.5s-72.334 51.5 -131.001 51.5
c-42.667 0 -82.667 -9.66699 -120 -29s-72.666 -45.666 -105.999 -78.999v-742h-247v1486h247v-570z" />
    <glyph glyph-name="i" unicode="i" horiz-adv-x="508" 
d="M378 1026v-1026h-248v1026h248zM412 1325c0 -21.333 -4.33301 -41.333 -13 -60s-20.167 -35 -34.5 -49s-31.166 -25.167 -50.499 -33.5s-40 -12.5 -62 -12.5c-21.333 0 -41.5 4.16699 -60.5 12.5s-35.5 19.5 -49.5 33.5s-25.167 30.333 -33.5 49s-12.5 38.667 -12.5 60
c0 22 4.16699 42.667 12.5 62s19.5 36 33.5 50s30.5 25.167 49.5 33.5s39.167 12.5 60.5 12.5c22 0 42.667 -4.16699 62 -12.5s36.166 -19.5 50.499 -33.5s25.833 -30.667 34.5 -50s13 -40 13 -62z" />
    <glyph glyph-name="j" unicode="j" horiz-adv-x="508" 
d="M378 1026l0.000976562 -1061c0 -44.667 -5.83301 -86.667 -17.5 -126s-30.334 -73.833 -56.001 -103.5s-59.334 -53 -101.001 -70s-92.5 -25.5 -152.5 -25.5c-23.333 0 -45 1.5 -65 4.5s-40.667 7.83301 -62 14.5l9 133c2 13.333 7.33301 21.833 16 25.5
s25.334 5.5 50.001 5.5s45.5 2.5 62.5 7.5s30.5 13 40.5 24s17.167 25.5 21.5 43.5s6.5 40.333 6.5 67v1061h248zM412.001 1325c0 -21.333 -4.33301 -41.333 -13 -60s-20.167 -35 -34.5 -49s-31.333 -25.167 -51 -33.5s-40.5 -12.5 -62.5 -12.5
c-21.333 0 -41.333 4.16699 -60 12.5s-35 19.5 -49 33.5s-25.167 30.333 -33.5 49s-12.5 38.667 -12.5 60c0 22 4.16699 42.667 12.5 62s19.5 36 33.5 50s30.333 25.167 49 33.5s38.667 12.5 60 12.5c22 0 42.833 -4.16699 62.5 -12.5s36.667 -19.5 51 -33.5
s25.833 -30.667 34.5 -50s13 -40 13 -62z" />
    <glyph glyph-name="k" unicode="k" horiz-adv-x="1069" 
d="M369 1486v-851h46c16.667 0 29.834 2.16699 39.501 6.5s19.5 13.166 29.5 26.499l255 315c10.667 14 22.5 24.667 35.5 32s29.833 11 50.5 11h226l-319 -381c-22.667 -30 -47.334 -53 -74.001 -69c14 -10 26.5 -21.667 37.5 -35s21.5 -27.666 31.5 -42.999l342 -498h-223
c-19.333 0 -36 3.16699 -50 9.5s-25.667 17.833 -35 34.5l-262 389c-9.33301 15.333 -19 25.333 -29 30s-25 7 -45 7h-56v-470h-247v1486h247z" />
    <glyph glyph-name="l" unicode="l" horiz-adv-x="497" 
d="M372 1486v-1486h-247v1486h247z" />
    <glyph glyph-name="m" unicode="m" horiz-adv-x="1675" 
d="M122 0l-0.00390625 1026h151c32 0 53 -15 63 -45l16 -76c18 20 36.833 38.333 56.5 55s40.667 31 63 43s46.333 21.5 72 28.5s53.834 10.5 84.501 10.5c64.667 0 117.834 -17.5 159.501 -52.5s72.834 -81.5 93.501 -139.5c16 34 36 63.167 60 87.5
s50.333 44.166 79 59.499s59.167 26.666 91.5 33.999s64.833 11 97.5 11c56.667 0 107 -8.66699 151 -26s81 -42.666 111 -75.999s52.833 -74 68.5 -122s23.5 -103 23.5 -165v-653h-247v653c0 65.333 -14.333 114.5 -43 147.5s-70.667 49.5 -126 49.5
c-25.333 0 -48.833 -4.33301 -70.5 -13s-40.667 -21.167 -57 -37.5s-29.166 -36.833 -38.499 -61.5s-14 -53 -14 -85v-653h-248v653c0 68.667 -13.833 118.667 -41.5 150s-68.167 47 -121.5 47c-36 0 -69.5 -8.83301 -100.5 -26.5s-59.833 -41.834 -86.5 -72.501v-751h-247z
" />
    <glyph glyph-name="n" unicode="n" horiz-adv-x="1128" 
d="M353 900c20.667 20.667 42.5 39.832 65.5 57.499s47.333 32.667 73 45s53.167 22 82.5 29s61.333 10.5 96 10.5c56 0 105.667 -9.5 149 -28.5s79.5 -45.667 108.5 -80s51 -75.333 66 -123s22.5 -100.167 22.5 -157.5v-653h-247v653c0 62.667 -14.333 111.167 -43 145.5
s-72.334 51.5 -131.001 51.5c-42.667 0 -82.667 -9.66699 -120 -29s-72.666 -45.666 -105.999 -78.999v-742h-247v1026h151c32 0 53 -15 63 -45z" />
    <glyph glyph-name="o" unicode="o" horiz-adv-x="1149" 
d="M576 1042c76 0 145.167 -12.333 207.5 -37s115.666 -59.667 159.999 -105s78.5 -100.666 102.5 -165.999s36 -138.333 36 -219c0 -81.333 -12 -154.666 -36 -219.999s-58.167 -121 -102.5 -167s-97.666 -81.333 -159.999 -106s-131.5 -37 -207.5 -37
c-76.667 0 -146.334 12.333 -209.001 37s-116.167 60 -160.5 106s-78.666 101.667 -102.999 167s-36.5 138.666 -36.5 219.999c0 80.667 12.167 153.667 36.5 219s58.666 120.666 102.999 165.999s97.833 80.333 160.5 105s132.334 37 209.001 37zM576 175
c85.333 0 148.5 28.667 189.5 86s61.5 141.333 61.5 252s-20.5 195 -61.5 253s-104.167 87 -189.5 87c-86.667 0 -150.834 -29.167 -192.501 -87.5s-62.5 -142.5 -62.5 -252.5s20.833 -193.833 62.5 -251.5s105.834 -86.5 192.501 -86.5z" />
    <glyph glyph-name="p" unicode="p" horiz-adv-x="1136" 
d="M369 266c28 -34 58.501 -58.001 91.501 -72.001s68.833 -21 107.5 -21c37.333 0 71 7 101 21s55.5 35.333 76.5 64s37.167 64.834 48.5 108.501s17 95.167 17 154.5c0 60 -4.83301 110.833 -14.5 152.5s-23.5 75.5 -41.5 101.5s-39.833 45 -65.5 57
s-54.834 18 -87.501 18c-51.333 0 -95 -10.833 -131 -32.5s-70 -52.167 -102 -91.5v-460zM356.001 885.999c42 47.333 89.665 85.666 142.998 114.999s116 44 188 44c56 0 107.167 -11.667 153.5 -35s86.333 -57.166 120 -101.499s59.667 -99 78 -164
s27.5 -139.5 27.5 -223.5c0 -76.667 -10.333 -147.667 -31 -213s-50.167 -122 -88.5 -170s-84.666 -85.5 -138.999 -112.5s-115.166 -40.5 -182.499 -40.5c-57.333 0 -106.333 8.83301 -147 26.5s-77 42.167 -109 73.5v-420h-247v1361h151c32 0 53 -15 63 -45z" />
    <glyph glyph-name="q" unicode="q" horiz-adv-x="1135" 
d="M766 764c-27.333 34 -57.668 58.001 -91.001 72.001s-69 21 -107 21c-37.333 0 -71 -7 -101 -21s-55.667 -35.167 -77 -63.5s-37.666 -64.333 -48.999 -108s-17 -95.167 -17 -154.5c0 -60 4.83301 -110.833 14.5 -152.5s23.5 -75.667 41.5 -102s40 -45.333 66 -57
s55 -17.5 87 -17.5c51.333 0 95 10.667 131 32s70 51.666 102 90.999v460zM1013 1026l-0.000976562 -1361h-247v465c-40.667 -43.333 -86.667 -78.333 -138 -105s-111 -40 -179 -40c-56 0 -107.333 11.667 -154 35s-86.834 57.166 -120.501 101.499
s-59.667 99.166 -78 164.499s-27.5 140 -27.5 224c0 76 10.333 146.667 31 212s50.334 122 89.001 170s85 85.5 139 112.5s114.667 40.5 182 40.5c64 0 117.667 -11 161 -33s82 -51.667 116 -89l13 58c8.66699 30 29.334 45 62.001 45h151z" />
    <glyph glyph-name="r" unicode="r" horiz-adv-x="746" 
d="M355 848c32 61.333 69.999 109.499 113.999 144.499s96 52.5 156 52.5c47.333 0 85.333 -10.333 114 -31l-16 -185c-3.33301 -12 -8.16602 -20.5 -14.499 -25.5s-14.833 -7.5 -25.5 -7.5c-10 0 -24.833 1.66699 -44.5 5s-38.834 5 -57.501 5
c-27.333 0 -51.666 -4 -72.999 -12s-40.5 -19.5 -57.5 -34.5s-32 -33.167 -45 -54.5s-25.167 -45.666 -36.5 -72.999v-632h-247v1026h145c25.333 0 43 -4.5 53 -13.5s16.667 -25.167 20 -48.5z" />
    <glyph glyph-name="s" unicode="s" horiz-adv-x="879" 
d="M748 826c-6.66699 -10.667 -13.6631 -18.1641 -20.9961 -22.4971s-16.666 -6.5 -27.999 -6.5c-12 0 -24.833 3.33301 -38.5 10l-47.5 22.5c-18 8.33301 -38.5 15.833 -61.5 22.5s-50.167 10 -81.5 10c-48.667 0 -86.834 -10.333 -114.501 -31s-41.5 -47.667 -41.5 -81
c0 -22 7.16699 -40.5 21.5 -55.5s33.333 -28.167 57 -39.5s50.5 -21.5 80.5 -30.5s60.5 -18.833 91.5 -29.5s61.5 -22.834 91.5 -36.501s56.833 -31 80.5 -52s42.667 -46.167 57 -75.5s21.5 -64.666 21.5 -105.999c0 -49.333 -8.83301 -94.833 -26.5 -136.5
s-43.834 -77.667 -78.501 -108s-77.5 -54 -128.5 -71s-109.833 -25.5 -176.5 -25.5c-35.333 0 -69.833 3.16699 -103.5 9.5s-66 15.166 -97 26.499s-59.667 24.666 -86 39.999s-49.5 32 -69.5 50l57 94c7.33301 11.333 16 20 26 26s22.667 9 38 9s29.833 -4.33301 43.5 -13
s29.5 -18 47.5 -28s39.167 -19.333 63.5 -28s55.166 -13 92.499 -13c29.333 0 54.5 3.5 75.5 10.5s38.333 16.167 52 27.5s23.667 24.5 30 39.5s9.5 30.5 9.5 46.5c0 24 -7.16699 43.667 -21.5 59s-33.333 28.666 -57 39.999s-50.667 21.5 -81 30.5s-61.333 18.833 -93 29.5
s-62.667 23.167 -93 37.5s-57.333 32.5 -81 54.5s-42.667 49 -57 81s-21.5 70.667 -21.5 116c0 42 8.33301 82 25 120s41.167 71.167 73.5 99.5s72.666 51 120.999 68s104.166 25.5 167.499 25.5c70.667 0 135 -11.667 193 -35s106.333 -54 145 -92z" />
    <glyph glyph-name="t" unicode="t" horiz-adv-x="744" 
d="M464 -16c-89.333 0 -157.832 25.168 -205.499 75.501s-71.5 119.833 -71.5 208.5v573h-105c-13.333 0 -24.666 4.33301 -33.999 13s-14 21.667 -14 39v98l165 27l52 280c3.33301 13.333 9.66602 23.666 18.999 30.999s21.333 11 36 11h128v-323h274v-176h-274v-556
c0 -32 7.83301 -57 23.5 -75s37.167 -27 64.5 -27c15.333 0 28.166 1.83301 38.499 5.5s19.333 7.5 27 11.5s14.5 7.83301 20.5 11.5s12 5.5 18 5.5c7.33301 0 13.333 -1.83301 18 -5.5s9.66699 -9.16699 15 -16.5l74 -120c-36 -30 -77.333 -52.667 -124 -68
s-95 -23 -145 -23z" />
    <glyph glyph-name="u" unicode="u" horiz-adv-x="1128" 
d="M1006 1026l0.00292969 -1026h-151c-32.667 0 -53.334 15 -62.001 45l-17 82c-42 -42.667 -88.333 -77.167 -139 -103.5s-110.334 -39.5 -179.001 -39.5c-56 0 -105.5 9.5 -148.5 28.5s-79.167 45.833 -108.5 80.5s-51.5 75.834 -66.5 123.501s-22.5 100.167 -22.5 157.5
v652h247v-652c0 -62.667 14.5 -111.167 43.5 -145.5s72.5 -51.5 130.5 -51.5c42.667 0 82.667 9.5 120 28.5s72.666 45.167 105.999 78.5v742h247z" />
    <glyph glyph-name="v" unicode="v" horiz-adv-x="1056" 
d="M1047 1026l-407 -1026h-224l-407 1026h204c18.667 0 34.167 -4.33301 46.5 -13s20.5 -19.667 24.5 -33l198 -548c10.667 -32 20 -63.333 28 -94s15 -61.334 21 -92.001c6.66699 30.667 14 61.334 22 92.001s17.667 62 29 94l202 548c4.66699 13.333 13 24.333 25 33
s26.333 13 43 13h195z" />
    <glyph glyph-name="w" unicode="w" horiz-adv-x="1605" 
d="M1587 1026l-325.998 -1026h-198c-22.667 0 -38.334 14.667 -47.001 44l-184 593c-6 20 -11.5 39.833 -16.5 59.5s-9.16699 39.5 -12.5 59.5c-4 -20 -8.5 -40.167 -13.5 -60.5s-10.5 -40.5 -16.5 -60.5l-187 -591c-8 -29.333 -25.667 -44 -53 -44h-190l-325 1026h197
c18 0 33.333 -4.33301 46 -13s21 -19.667 25 -33l147 -548c7.33301 -30 13.833 -59.333 19.5 -88s10.5 -57.334 14.5 -86.001c7.33301 28.667 15.166 57.334 23.499 86.001l26.5 88l170 550c4 13.333 11.833 24.333 23.5 33s25.834 13 42.501 13h109
c17.333 0 32.166 -4.33301 44.499 -13s20.5 -19.667 24.5 -33l165 -550l24.5 -88.5l22.5 -86.5c8.66699 56.667 21 115 37 175l151 548c4.66699 13.333 13 24.333 25 33s26.333 13 43 13h188z" />
    <glyph glyph-name="x" unicode="x" horiz-adv-x="1044" 
d="M1038 0h-238.002c-18 0 -32.5 4.66699 -43.5 14s-20.167 20 -27.5 32l-217 357c-3.33301 -11.333 -7.16602 -22 -11.499 -32s-9.16602 -19.333 -14.499 -28l-192 -297c-7.33301 -11.333 -16.333 -21.833 -27 -31.5s-24 -14.5 -40 -14.5h-221l352 529l-338 497h238
c18 0 31.333 -2.5 40 -7.5s16.334 -13.167 23.001 -24.5l215 -342c7.33301 22.667 17.666 45 30.999 67l173 270c14.667 24.667 33.667 37 57 37h227l-337 -486z" />
    <glyph glyph-name="y" unicode="y" horiz-adv-x="1055" 
d="M1054 1026l-558.998 -1308c-7.33301 -17.333 -16.833 -30.5 -28.5 -39.5s-29.5 -13.5 -53.5 -13.5h-184l192 412l-415 949h217c19.333 0 34.5 -4.66699 45.5 -14s19.167 -20 24.5 -32l218 -532c7.33301 -18 13.5 -36 18.5 -54s9.83301 -36.333 14.5 -55l18 55.5
c6 18.333 12.667 36.5 20 54.5l206 531c5.33301 13.333 14.166 24.333 26.499 33s26.166 13 41.499 13h198z" />
    <glyph glyph-name="z" unicode="z" horiz-adv-x="919" 
d="M859 924c0 -17.333 -3 -34.332 -9 -50.999s-14 -30.334 -24 -41.001l-487 -642h505v-190h-792v103c0 11.333 2.66699 24.833 8 40.5s13.333 30.5 24 44.5l492 649h-495v189h778v-102z" />
    <glyph glyph-name="braceleft" unicode="{" horiz-adv-x="612" 
d="M493 1387c-46.667 0 -82.334 -14.6631 -107.001 -43.9961s-37 -69.666 -37 -120.999c0 -36.667 2 -71.834 6 -105.501s8.16699 -66.334 12.5 -98.001l12.5 -93.5c4 -30.667 6 -61.667 6 -93c0 -24.667 -3.5 -48.334 -10.5 -71.001s-17.167 -43.334 -30.5 -62.001
s-29.5 -35 -48.5 -49s-40.5 -24.333 -64.5 -31c24 -7.33301 45.5 -17.833 64.5 -31.5s35.167 -29.834 48.5 -48.501s23.5 -39.334 30.5 -62.001s10.5 -46.334 10.5 -71.001c0 -31.333 -2 -62.333 -6 -93l-12.5 -93.5c-4.33301 -31.667 -8.5 -64.334 -12.5 -98.001
s-6 -68.834 -6 -105.501c0 -50.667 12.333 -90.667 37 -120s60.334 -44 107.001 -44h9c4.66699 0 10 -1 16 -3s11.833 -5 17.5 -9s10.334 -9.33301 14.001 -16s5.5 -14.334 5.5 -23.001v-109h-53c-62.667 0 -117.167 8.16699 -163.5 24.5s-84.666 39.333 -114.999 69
s-52.833 65.334 -67.5 107.001s-22 87.834 -22 138.501c0 32.667 2.16699 64.834 6.5 96.501s9.33301 63.167 15 94.5s10.667 62.666 15 93.999s6.5 62.666 6.5 93.999c0 40.667 -9.5 73.834 -28.5 99.501s-49.5 38.5 -91.5 38.5v143c42 0 72.5 12.833 91.5 38.5
s28.5 58.834 28.5 99.501c0 31.333 -2.16699 62.5 -6.5 93.5s-9.33301 62.167 -15 93.5s-10.667 62.833 -15 94.5s-6.5 63.834 -6.5 96.501c0 50.667 7.33301 96.834 22 138.501s37.167 77.5 67.5 107.5s68.666 53.167 114.999 69.5s100.833 24.5 163.5 24.5h53v-110
c0 -8.66699 -1.83301 -16.167 -5.5 -22.5s-8.33398 -11.5 -14.001 -15.5s-11.5 -7 -17.5 -9s-11.333 -3 -16 -3h-9z" />
    <glyph glyph-name="bar" unicode="|" horiz-adv-x="522" 
d="M165 1547h192v-1891h-192v1891z" />
    <glyph glyph-name="braceright" unicode="}" horiz-adv-x="612" 
d="M555 548c-42 0 -72.5 -12.8389 -91.5 -38.5059s-28.5 -58.834 -28.5 -99.501c0 -31.333 2.16699 -62.666 6.5 -93.999s9.33301 -62.666 15 -93.999s10.667 -62.833 15 -94.5s6.5 -63.834 6.5 -96.501c0 -50.667 -7.33301 -96.834 -22 -138.501
s-37.167 -77.334 -67.5 -107.001s-68.666 -52.667 -114.999 -69s-100.833 -24.5 -163.5 -24.5h-53v109c0 8.66699 1.83301 16.334 5.5 23.001s8.33398 12 14.001 16s11.5 7 17.5 9s11.333 3 16 3h9c46.667 0 82.167 14.667 106.5 44s36.5 69.333 36.5 120
c0 36.667 -1.83301 71.834 -5.5 105.501s-7.83398 66.334 -12.501 98.001s-8.83398 62.834 -12.501 93.501s-5.5 61.667 -5.5 93c0 24.667 3.5 48.334 10.5 71.001s17.167 43.334 30.5 62.001s29.5 34.834 48.5 48.501s40.5 24.167 64.5 31.5c-24 6.66699 -45.5 17 -64.5 31
s-35.167 30.333 -48.5 49s-23.5 39.334 -30.5 62.001s-10.5 46.334 -10.5 71.001c0 31.333 1.83301 62.333 5.5 93s7.83398 61.834 12.501 93.501s8.83398 64.334 12.501 98.001s5.5 68.834 5.5 105.501c0 51.333 -12.167 91.666 -36.5 120.999s-59.833 44 -106.5 44h-9
c-4.66699 0 -10 1 -16 3s-11.833 5 -17.5 9s-10.334 9.16699 -14.001 15.5s-5.5 13.833 -5.5 22.5v110h53c62.667 0 117.167 -8.16699 163.5 -24.5s84.666 -39.5 114.999 -69.5s52.833 -65.833 67.5 -107.5s22 -87.834 22 -138.501c0 -32.667 -2.16699 -64.834 -6.5 -96.501
s-9.33301 -63.167 -15 -94.5s-10.667 -62.5 -15 -93.5s-6.5 -62.167 -6.5 -93.5c0 -40.667 9.5 -73.834 28.5 -99.501s49.5 -38.5 91.5 -38.5v-143z" />
    <glyph glyph-name="asciitilde" unicode="~" horiz-adv-x="1160" 
d="M748 648c37.333 0 66.333 12 87 36s31 57.667 31 101h199c0 -51.333 -6.83301 -97.833 -20.5 -139.5s-33.334 -77.334 -59.001 -107.001s-57.167 -52.5 -94.5 -68.5s-80 -24 -128 -24c-35.333 0 -69.166 4.66699 -101.499 14s-63 19.5 -92 30.5l-81.5 30.5
c-25.333 9.33301 -48.666 14 -69.999 14c-37.333 0 -66.333 -12 -87 -36s-31 -57.667 -31 -101h-199c0 51.333 6.83301 97.833 20.5 139.5s33.334 77.334 59.001 107.001s57.167 52.5 94.5 68.5s80 24 128 24c35.333 0 69.166 -4.66699 101.499 -14s63 -19.5 92 -30.5
l81.5 -30.5c25.333 -9.33301 48.666 -14 69.999 -14z" />
    <glyph glyph-name="exclamdown" unicode="&#xa1;" horiz-adv-x="540" 
d="M155 -335v533c0 60.667 3 120.167 9 178.5s14 120.166 24 185.499h167c10 -65.333 17.833 -127.166 23.5 -185.499s8.5 -117.833 8.5 -178.5v-533h-232zM117 892c0 21.333 3.83301 41.166 11.5 59.499s18.167 34.166 31.5 47.499s29.333 23.833 48 31.5
s38.667 11.5 60 11.5c20.667 0 40.334 -3.83301 59.001 -11.5s34.834 -18.167 48.501 -31.5s24.5 -29.166 32.5 -47.499s12 -38.166 12 -59.499s-4 -41.166 -12 -59.499s-18.833 -34.166 -32.5 -47.499s-29.834 -24 -48.501 -32s-38.334 -12 -59.001 -12
c-21.333 0 -41.333 4 -60 12s-34.667 18.667 -48 32s-23.833 29.166 -31.5 47.499s-11.5 38.166 -11.5 59.499z" />
    <glyph glyph-name="cent" unicode="&#xa2;" horiz-adv-x="1160" 
d="M609 853c-84 -11.333 -146.167 -46.333 -186.5 -105s-60.5 -137 -60.5 -235c0 -89.333 16.5 -161.5 49.5 -216.5s79.833 -92.167 140.5 -111.5zM1049 151c-47.333 -53.333 -102.502 -92.667 -165.502 -118s-128.5 -40.333 -196.5 -45l-13 -147
c-1.33301 -16 -8 -30.5 -20 -43.5s-27.333 -19.5 -46 -19.5h-91l18 213c-59.333 8.66699 -114.5 26.667 -165.5 54s-95.167 63.166 -132.5 107.499s-66.5 96.666 -87.5 156.999s-31.5 128.166 -31.5 203.499c0 72.667 11.167 140.5 33.5 203.5s55 117.833 98 164.5
s96 84 159 112s135.167 43.667 216.5 47l13 157c2 15.333 8.83301 29.5 20.5 42.5s27.167 19.5 46.5 19.5h91l-20 -229c52.667 -9.33301 100.334 -25.166 143.001 -47.499s82 -50.166 118 -83.499l-63 -87c-6.66699 -9.33301 -13.5 -16.333 -20.5 -21s-16.833 -7 -29.5 -7
c-9.33301 0 -19 2.16699 -29 6.5s-21.5 9.83301 -34.5 16.5s-27.667 13.334 -44 20.001s-35.166 12.667 -56.499 18l-58 -673c35.333 3.33301 64.833 9.83301 88.5 19.5s44 19.5 61 29.5l45 27c13 8 26.167 12 39.5 12c19.333 0 34.333 -7 45 -21z" />
    <glyph glyph-name="sterling" unicode="&#xa3;" horiz-adv-x="1160" 
d="M37 679c0 22.667 6.83203 42.168 20.499 58.501s34.5 24.5 62.5 24.5h107v236c0 62.667 9.5 122.167 28.5 178.5s47.5 105.666 85.5 147.999s85.667 75.833 143 100.5s124.666 37 201.999 37c52.667 0 100.167 -6.83301 142.5 -20.5s80 -32.167 113 -55.5
s61.667 -50.833 86 -82.5s45.5 -65.834 63.5 -102.501l-99 -63c-23.333 -12 -45.5 -17.333 -66.5 -16s-40.167 12 -57.5 32c-12.667 14.667 -25.167 28.167 -37.5 40.5s-25.5 23 -39.5 32s-29.5 15.833 -46.5 20.5s-36.5 7 -58.5 7c-68.667 0 -120 -22.5 -154 -67.5
s-51 -107.5 -51 -187.5v-237h409v-98c0 -16 -6.66699 -30.667 -20 -44s-30 -20 -50 -20h-339v-194c0 -44 -8.16699 -83.167 -24.5 -117.5s-38.5 -66.166 -66.5 -95.499c24 5.33301 48 9.5 72 12.5s48.667 4.5 74 4.5h586v-104c0 -12 -2.5 -24.333 -7.5 -37
s-12.167 -24.167 -21.5 -34.5s-20.666 -18.666 -33.999 -24.999s-28 -9.5 -44 -9.5h-958v155c22 5.33301 43.333 12.833 64 22.5s38.834 22 54.501 37s28.167 32.667 37.5 53s14 44.166 14 71.499v261h-190v79z" />
    <glyph glyph-name="currency" unicode="&#xa4;" horiz-adv-x="1160" 
d="M393 673c0 -25.333 4.83301 -49.5 14.5 -72.5s23 -43 40 -60s36.833 -30.5 59.5 -40.5s47 -15 73 -15s50.5 5 73.5 15s43 23.5 60 40.5s30.5 37 40.5 60s15 47.167 15 72.5c0 26.667 -5 51.5 -15 74.5s-23.5 43 -40.5 60s-37 30.5 -60 40.5s-47.5 15 -73.5 15
s-50.333 -5 -73 -15s-42.5 -23.5 -59.5 -40.5s-30.333 -37 -40 -60s-14.5 -47.833 -14.5 -74.5zM925 209l-151 151c-28 -17.333 -58.333 -30.833 -91 -40.5s-67 -14.5 -103 -14.5c-34.667 0 -67.834 4.5 -99.501 13.5s-61.5 21.5 -89.5 37.5l-153 -152l-123 124l151 150
c-17.333 28.667 -30.833 59.334 -40.5 92.001s-14.5 67 -14.5 103c0 35.333 4.5 68.833 13.5 100.5s21.833 61.5 38.5 89.5l-153 152l125 122l150 -150c28.667 17.333 59.334 30.833 92.001 40.5s67 14.5 103 14.5c35.333 0 68.833 -4.5 100.5 -13.5
s61.5 -21.833 89.5 -38.5l152 152l123 -123l-151 -151c17.333 -28 30.833 -58.5 40.5 -91.5s14.5 -67.5 14.5 -103.5c0 -34.667 -4.5 -67.834 -13.5 -99.501s-21.833 -61.5 -38.5 -89.5l153 -152z" />
    <glyph glyph-name="yen" unicode="&#xa5;" horiz-adv-x="1160" 
d="M748 633l274.999 0.00195312v-138h-319v-95h319v-137h-319v-263h-248v263h-319v137h319v95h-319v138h275l-398 813h206c23.333 0 42.5 -5.33301 57.5 -16s26.167 -25.334 33.5 -44.001l218 -488c12 -30 22.333 -57.667 31 -83s16 -50.333 22 -75
c5.33301 25.333 12 50.5 20 75.5s18 52.5 30 82.5l217 488c7.33301 15.333 18.333 29.166 33 41.499s33.334 18.5 56.001 18.5h208z" />
    <glyph glyph-name="brokenbar" unicode="&#xa6;" horiz-adv-x="528" 
d="M168 1547h192v-809h-192v809zM168 473h192v-808h-192v808z" />
    <glyph glyph-name="section" unicode="&#xa7;" horiz-adv-x="1007" 
d="M307 725c0 -28 9.66699 -52.1689 29 -72.502s44.5 -38.666 75.5 -54.999s65.833 -32 104.5 -47s77 -31.167 115 -48.5c26.667 13.333 46 30.166 58 50.499s18 42.5 18 66.5c0 29.333 -9.33301 54.166 -28 74.499s-43 38.833 -73 55.5s-63.833 32.334 -101.5 47.001
s-75.167 30.667 -112.5 48c-30 -15.333 -51.667 -32.666 -65 -51.999s-20 -41.666 -20 -66.999zM820 1245c-11.333 -20 -27.667 -29.998 -49 -29.998c-12 0 -24.833 3.33301 -38.5 10l-47.5 22.5c-18 8.33301 -38.5 15.833 -61.5 22.5s-50.167 10 -81.5 10
c-28 0 -52.667 -3.16699 -74 -9.5s-39.166 -15 -53.499 -26s-25.333 -23.833 -33 -38.5s-11.5 -30.334 -11.5 -47.001c0 -21.333 7.83301 -40 23.5 -56s36.5 -31.167 62.5 -45.5s55.5 -28.166 88.5 -41.499l101.5 -42.5c34.667 -15 68.5 -31.5 101.5 -49.5
s62.5 -38.667 88.5 -62s46.833 -50.333 62.5 -81s23.5 -66 23.5 -106c0 -54 -12.5 -102.833 -37.5 -146.5s-65.167 -78.834 -120.5 -105.501c30 -24.667 54.5 -53.167 73.5 -85.5s28.5 -71.5 28.5 -117.5c0 -49.333 -8.83301 -94.833 -26.5 -136.5
s-43.834 -77.667 -78.501 -108s-77.5 -54 -128.5 -71s-109.833 -25.5 -176.5 -25.5c-35.333 0 -69.833 3.16699 -103.5 9.5s-66 15.166 -97 26.499s-59.667 24.666 -86 39.999s-49.5 32 -69.5 50l58 94c6.66699 11.333 15 20 25 26s22.667 9 38 9s29.833 -4.33301 43.5 -13
s29.834 -18 48.501 -28s41 -19.333 67 -28s58.667 -13 98 -13c54.667 0 97.167 11.333 127.5 34s45.5 54 45.5 94c0 26.667 -8 49.667 -24 69s-37.333 36.5 -64 51.5s-56.834 28.667 -90.501 41l-103 39.5c-35 14 -69.333 29.5 -103 46.5s-63.834 37.167 -90.501 60.5
s-48 51 -64 83s-24 70 -24 114c0 53.333 13.833 100.666 41.5 141.999s69.834 74.333 126.501 99c-30.667 26 -55.667 56.833 -75 92.5s-29 78.834 -29 129.501c0 42 8.16699 81.833 24.5 119.5s40.833 70.834 73.5 99.501s73 51.5 121 68.5s103.667 25.5 167 25.5
c70.667 0 135.167 -11.667 193.5 -35s106.5 -54 144.5 -92z" />
    <glyph glyph-name="dieresis" unicode="&#xa8;" 
d="M336 1292c0 -18.667 -3.66699 -36.167 -11 -52.5s-17.5 -30.5 -30.5 -42.5s-28 -21.5 -45 -28.5s-35.167 -10.5 -54.5 -10.5c-18 0 -35.167 3.5 -51.5 10.5s-30.666 16.5 -42.999 28.5s-22.166 26.167 -29.499 42.5s-11 33.833 -11 52.5c0 19.333 3.66699 37.5 11 54.5
s17.166 31.833 29.499 44.5s26.666 22.667 42.999 30s33.5 11 51.5 11c19.333 0 37.5 -3.66699 54.5 -11s32 -17.333 45 -30s23.167 -27.5 30.5 -44.5s11 -35.167 11 -54.5zM740 1292c0 -18.667 -3.66699 -36.167 -11 -52.5s-17.166 -30.5 -29.499 -42.5
s-27 -21.5 -44 -28.5s-35.167 -10.5 -54.5 -10.5c-18.667 0 -36.334 3.5 -53.001 10.5s-31.167 16.5 -43.5 28.5s-22.166 26.167 -29.499 42.5s-11 33.833 -11 52.5c0 19.333 3.66699 37.5 11 54.5s17.166 31.833 29.499 44.5s26.833 22.667 43.5 30s34.334 11 53.001 11
c19.333 0 37.5 -3.66699 54.5 -11s31.667 -17.333 44 -30s22.166 -27.5 29.499 -44.5s11 -35.167 11 -54.5z" />
    <glyph glyph-name="copyright" unicode="&#xa9;" horiz-adv-x="1648" 
d="M1050 512c13.333 0 25 -5.66602 35 -16.999l82 -87c-37.333 -47.333 -84.5 -83.5 -141.5 -108.5s-123.833 -37.5 -200.5 -37.5c-66.667 0 -127 11.833 -181 35.5s-100 56.334 -138 98.001s-67.333 90.667 -88 147s-31 117.5 -31 183.5c0 68 11.667 130.333 35 187
s55.666 105.5 96.999 146.5s89.833 72.833 145.5 95.5s116.167 34 181.5 34c74 0 137.667 -12.5 191 -37.5s98 -56.833 134 -95.5l-65 -89c-4 -5.33301 -9.5 -10.666 -16.5 -15.999s-15.833 -8 -26.5 -8c-11.333 0 -22 3.33301 -32 10s-22.167 14 -36.5 22
s-32.166 15.333 -53.499 22s-49 10 -83 10c-40 0 -75.5 -6.5 -106.5 -19.5s-57.333 -31.667 -79 -56s-38.167 -53.833 -49.5 -88.5s-17 -73.667 -17 -117c0 -45.333 5.83301 -85.333 17.5 -120s27.667 -63.834 48 -87.501s44.666 -41.667 72.999 -54s59.5 -18.5 93.5 -18.5
c32.667 0 59.5 2.66699 80.5 8s38.667 11.666 53 18.999s27.333 14.666 39 21.999s24.834 13 39.501 17zM86 723.001c0 68 8.83301 133.5 26.5 196.5s42.5 121.833 74.5 176.5s70.5 104.5 115.5 149.5s94.667 83.5 149 115.5s112.833 56.833 175.5 74.5s128 26.5 196 26.5
s133.5 -8.83301 196.5 -26.5s121.833 -42.5 176.5 -74.5s104.5 -70.5 149.5 -115.5s83.5 -94.833 115.5 -149.5s56.833 -113.5 74.5 -176.5s26.5 -128.5 26.5 -196.5c0 -67.333 -8.83301 -132.5 -26.5 -195.5s-42.5 -121.667 -74.5 -176s-70.5 -104 -115.5 -149
s-94.833 -83.5 -149.5 -115.5s-113.5 -56.833 -176.5 -74.5s-128.5 -26.5 -196.5 -26.5s-133.333 8.83301 -196 26.5s-121.167 42.5 -175.5 74.5s-104 70.5 -149 115.5s-83.5 94.667 -115.5 149s-56.833 112.833 -74.5 175.5s-26.5 128 -26.5 196zM221 723.001
c0 -86.667 15.5 -167.668 46.5 -243.001s73.5 -140.833 127.5 -196.5s117.667 -99.5 191 -131.5s152.333 -48 237 -48c56.667 0 111 7.33301 163 22s100.5 35.334 145.5 62.001s86 58.667 123 96s68.5 79 94.5 125s46.167 95.333 60.5 148s21.5 108 21.5 166
s-7.16699 113.667 -21.5 167s-34.5 103.166 -60.5 149.499s-57.5 88.333 -94.5 126s-78 70 -123 97s-93.5 47.833 -145.5 62.5s-106.333 22 -163 22s-110.667 -7.33301 -162 -22s-99.333 -35.5 -144 -62.5s-85.167 -59.333 -121.5 -97s-67.5 -79.667 -93.5 -126
s-46 -96.166 -60 -149.499s-21 -109 -21 -167z" />
    <glyph glyph-name="ordfeminine" unicode="&#xaa;" horiz-adv-x="734" 
d="M449 1091c-39.333 -1.33301 -71.666 -4.16797 -96.999 -8.50098s-45.5 -10 -60.5 -17s-25.5 -15.167 -31.5 -24.5s-9 -19.333 -9 -30c0 -21.333 6.16699 -36.166 18.5 -44.499s30.166 -12.5 53.499 -12.5c25.333 0 47.833 4.5 67.5 13.5s39.167 23.167 58.5 42.5v81z
M111 1368c37.333 34 78.332 58.8311 122.999 74.498s93 23.5 145 23.5c38 0 72 -6 102 -18s55.5 -28.833 76.5 -50.5s37 -47.167 48 -76.5s16.5 -61.333 16.5 -96v-384h-83c-16 0 -28.167 2.33301 -36.5 7s-16.166 14.334 -23.499 29.001l-12 37
c-16 -13.333 -31.333 -25.166 -46 -35.499s-29.667 -18.833 -45 -25.5s-31.833 -11.667 -49.5 -15s-37.5 -5 -59.5 -5c-28 0 -53.333 3.66699 -76 11s-42.167 18.166 -58.5 32.499s-29 32 -38 53s-13.5 45.167 -13.5 72.5c0 22 5.66699 44.5 17 67.5s31 43.833 59 62.5
s65.667 34.334 113 47.001s107 19.667 179 21v25c0 36 -7.83301 61.5 -23.5 76.5s-38.5 22.5 -68.5 22.5c-22.667 0 -41.334 -2.33301 -56.001 -7s-27.667 -10 -39 -16s-22 -11.333 -32 -16s-22 -7 -36 -7c-12.667 0 -23.167 3.5 -31.5 10.5s-15.166 14.5 -20.499 22.5z" />
    <glyph glyph-name="guillemotleft" unicode="&#xab;" horiz-adv-x="911" 
d="M452 260c11.333 -20 15.333 -38.668 12 -56.001s-15.666 -30.666 -36.999 -39.999l-81 -38l-256 396v32l256 396l81 -38c21.333 -9.33301 33.666 -22.833 36.999 -40.5s-0.666992 -36.5 -12 -56.5l-138 -235c-9.33301 -17.333 -20 -31.333 -32 -42
c12 -10.667 22.667 -24.667 32 -42zM781 259.999c11.333 -20 15.333 -38.668 12 -56.001s-15.666 -30.666 -36.999 -39.999l-81 -38l-256 396v32l256 396l81 -38c21.333 -9.33301 33.666 -22.833 36.999 -40.5s-0.666992 -36.5 -12 -56.5l-138 -235
c-9.33301 -17.333 -20 -31.333 -32 -42c12 -10.667 22.667 -24.667 32 -42z" />
    <glyph glyph-name="logicalnot" unicode="&#xac;" horiz-adv-x="1160" 
d="M1019 297h-210v283h-677v183h887v-466z" />
    <glyph glyph-name="registered" unicode="&#xae;" horiz-adv-x="1648" 
d="M800 755c34.667 0 62.833 2.83203 84.5 8.49902s38.667 14.167 51 25.5s20.833 25.333 25.5 42s7 35.667 7 57c0 20.667 -2 38.834 -6 54.501s-11.5 28.667 -22.5 39s-26.167 18 -45.5 23s-44.333 7.5 -75 7.5h-107v-257h88zM818.999 1174
c124.667 0 216.002 -22.334 274.002 -67.001s87 -108.667 87 -192c0 -59.333 -15.333 -111.166 -46 -155.499s-78.334 -76.5 -143.001 -96.5c14.667 -9.33301 27.167 -20.5 37.5 -33.5s20.166 -28.167 29.499 -45.5l181 -307h-205c-30 0 -51 11 -63 33l-144 263
c-6.66699 9.33301 -14.167 16.5 -22.5 21.5s-20.833 7.5 -37.5 7.5h-55v-325h-215v897h322zM823.001 103.998c56.667 0 111 7.33203 163 21.999s100.5 35.334 145.5 62.001s86 58.667 123 96s68.5 79 94.5 125s46.167 95.333 60.5 148s21.5 108 21.5 166
s-7.16699 113.667 -21.5 167s-34.5 103.166 -60.5 149.499s-57.5 88.333 -94.5 126s-78 70 -123 97s-93.5 47.833 -145.5 62.5s-106.333 22 -163 22s-110.667 -7.33301 -162 -22s-99.333 -35.5 -144 -62.5s-85.167 -59.333 -121.5 -97s-67.5 -79.667 -93.5 -126
s-46 -96.166 -60 -149.499s-21 -109 -21 -167c0 -86.667 15.5 -167.667 46.5 -243s73.5 -140.833 127.5 -196.5s117.667 -99.5 191 -131.5s152.333 -48 237 -48zM823.001 1462c68 0 133.5 -8.83301 196.5 -26.5s121.833 -42.5 176.5 -74.5s104.5 -70.5 149.5 -115.5
s83.5 -94.833 115.5 -149.5s56.833 -113.5 74.5 -176.5s26.5 -128.5 26.5 -196.5c0 -67.333 -8.83301 -132.5 -26.5 -195.5s-42.5 -121.667 -74.5 -176s-70.5 -104 -115.5 -149s-94.833 -83.5 -149.5 -115.5s-113.5 -56.833 -176.5 -74.5s-128.5 -26.5 -196.5 -26.5
s-133.333 8.83301 -196 26.5s-121.167 42.5 -175.5 74.5s-104 70.5 -149 115.5s-83.5 94.667 -115.5 149s-56.833 112.833 -74.5 175.5s-26.5 128 -26.5 196s8.83301 133.5 26.5 196.5s42.5 121.833 74.5 176.5s70.5 104.5 115.5 149.5s94.667 83.5 149 115.5
s112.833 56.833 175.5 74.5s128 26.5 196 26.5z" />
    <glyph glyph-name="macron" unicode="&#xaf;" 
d="M101 1372h598v-158h-598v158z" />
    <glyph glyph-name="macron" unicode="&#x2c9;" 
d="M101 1372h598v-158h-598v158z" />
    <glyph glyph-name="degree" unicode="&#xb0;" horiz-adv-x="831" 
d="M69 1123c0 47.333 8.83301 91.833 26.5 133.5s42 77.834 73 108.501s67.667 54.834 110 72.501s87.833 26.5 136.5 26.5s94.167 -8.83301 136.5 -26.5s79 -41.834 110 -72.501s55.5 -66.834 73.5 -108.501s27 -86.167 27 -133.5c0 -46 -9 -89.667 -27 -131
s-42.5 -77.5 -73.5 -108.5s-67.667 -55.5 -110 -73.5s-87.833 -27 -136.5 -27s-94.167 9 -136.5 27s-79 42.5 -110 73.5s-55.333 67.167 -73 108.5s-26.5 85 -26.5 131zM241 1121c0 -24.667 4.33301 -47.667 13 -69s20.834 -39.833 36.501 -55.5s34 -28 55 -37
s44.167 -13.5 69.5 -13.5c24.667 0 47.5 4.5 68.5 13.5s39.333 21.333 55 37s27.834 34.167 36.501 55.5s13 44.333 13 69c0 25.333 -4.33301 48.833 -13 70.5s-20.834 40.5 -36.501 56.5s-34 28.667 -55 38s-43.833 14 -68.5 14c-25.333 0 -48.5 -4.66699 -69.5 -14
s-39.333 -22 -55 -38s-27.834 -34.833 -36.501 -56.5s-13 -45.167 -13 -70.5z" />
    <glyph glyph-name="plusminus" unicode="&#xb1;" horiz-adv-x="1160" 
d="M92 263h976v-183h-976v183zM1068 887v-184h-389v-341h-200v341h-387v184h387v354h200v-354h389z" />
    <glyph glyph-name="uni00B2" unicode="&#xb2;" horiz-adv-x="668" 
d="M542 1060c18.667 0 33.167 -4.99902 43.5 -14.999s15.5 -23.333 15.5 -40v-105h-541v57c0 11.333 2.16699 23.333 6.5 36s11.833 24.334 22.5 35.001l209 206c14.667 14.667 28.667 30.167 42 46.5s24.666 32.666 33.999 48.999s16.833 32.666 22.5 48.999
s8.5 32.166 8.5 47.499c0 24 -6.5 43.5 -19.5 58.5s-31.167 22.5 -54.5 22.5c-22 0 -39.667 -5.5 -53 -16.5s-24.333 -26.833 -33 -47.5c-9.33301 -14.667 -19.666 -25 -30.999 -31s-28.666 -7 -51.999 -3l-99 15c6 38 16.833 71.167 32.5 99.5s35.5 51.833 59.5 70.5
s51.667 32.5 83 41.5s65.666 13.5 102.999 13.5c38.667 0 73.167 -5.66699 103.5 -17s56 -26.666 77 -45.999s36.833 -42.166 47.5 -68.499s16 -54.833 16 -85.5c0 -27.333 -4.16699 -52.333 -12.5 -75s-19.333 -44.334 -33 -65.001s-29.5 -40.667 -47.5 -60l-56 -59
l-128 -130c18.667 5.33301 37 9.5 55 12.5s34.667 4.5 50 4.5h129z" />
    <glyph glyph-name="uni00B3" unicode="&#xb3;" horiz-adv-x="668" 
d="M75 1424c5.33301 38 15.8311 71.165 31.498 99.498s35.167 51.833 58.5 70.5s50 32.5 80 41.5s62 13.5 96 13.5c38 0 71.833 -5.5 101.5 -16.5s54.667 -25.5 75 -43.5s35.833 -38.5 46.5 -61.5s16 -46.833 16 -71.5c0 -42 -8.5 -77.5 -25.5 -106.5
s-44.5 -51.5 -82.5 -67.5c40 -13.333 70.333 -32.166 91 -56.499s31 -56.166 31 -95.499c0 -41.333 -7.66699 -76.833 -23 -106.5s-35.333 -54.334 -60 -74.001s-52.667 -34.167 -84 -43.5s-63.333 -14 -96 -14c-36 0 -68.333 3.5 -97 10.5s-54.167 18.333 -76.5 34
s-41.833 36.334 -58.5 62.001s-31 57.167 -43 94.5l76 31c20 8 38.5 10.167 55.5 6.5s29.167 -12.5 36.5 -26.5c4 -7.33301 8.66699 -15 14 -23s11.833 -15.167 19.5 -21.5s16.834 -11.5 27.501 -15.5s23 -6 37 -6c30 0 53 8.33301 69 25s24 36.667 24 60
c0 18 -2.33301 33 -7 45s-12.5 21.667 -23.5 29s-25.833 12.5 -44.5 15.5s-42 4.5 -70 4.5v116c28 0 51 2.16699 69 6.5s32.167 10.333 42.5 18s17.666 17.167 21.999 28.5s6.5 24 6.5 38c0 24.667 -6.5 44.167 -19.5 58.5s-32.5 21.5 -58.5 21.5
c-23.333 0 -41.666 -5.33301 -54.999 -16s-23.666 -25 -30.999 -43c-4.66699 -8.66699 -9.16699 -15.667 -13.5 -21s-9.5 -9.5 -15.5 -12.5s-13 -4.66699 -21 -5s-17.667 0.5 -29 2.5z" />
    <glyph glyph-name="acute" unicode="&#xb4;" 
d="M746 1462l-246.998 -261c-12.667 -13.333 -24.834 -22.5 -36.501 -27.5s-26.834 -7.5 -45.501 -7.5h-148l142 243c10 17.333 21.667 30.5 35 39.5s33.333 13.5 60 13.5h240z" />
    <glyph glyph-name="uni00B5" unicode="&#xb5;" horiz-adv-x="1320" 
d="M1252 171l0.00292969 -97.999c0 -10.667 -3.5 -21 -10.5 -31s-17.167 -18.833 -30.5 -26.5s-29.666 -13.834 -48.999 -18.501s-41 -7 -65 -7c-28 0 -55 4 -81 12s-49.833 20.333 -71.5 37s-40.834 37.667 -57.501 63s-29.334 55 -38.001 89
c-36 -56.667 -76.833 -100.167 -122.5 -130.5s-97.834 -45.5 -156.501 -45.5c-78.667 0 -142.334 21.333 -191.001 64c6.66699 -28.667 11.167 -58.334 13.5 -89.001s3.5 -59 3.5 -85v-240h-123c-34.667 0 -61.334 8.83301 -80.001 26.5s-28 43.167 -28 76.5v1258h247v-606
c0 -62 14.5 -111.667 43.5 -149s72.167 -56 129.5 -56c54 0 99.5 14.667 136.5 44s67.167 70 90.5 122v645h247v-723c0 -45.333 10.833 -78.666 32.5 -99.999s50.834 -32 87.501 -32h73z" />
    <glyph glyph-name="paragraph" unicode="&#xb6;" horiz-adv-x="1474" 
d="M1402 1239l-214 0.000976562v-1448h-216v1448h-235v-1448h-216v839c-69.333 0 -132 10.833 -188 32.5s-103.833 51 -143.5 88s-70.334 80.167 -92.001 129.5s-32.5 101.666 -32.5 156.999c0 60.667 10.833 116 32.5 166s52.334 93 92.001 129s87.5 64 143.5 84
s118.667 30 188 30h881v-207z" />
    <glyph glyph-name="periodcentered" unicode="&#xb7;" horiz-adv-x="549" 
d="M86 595c0 26 4.83301 50.5 14.5 73.5s23 43 40 60s36.833 30.333 59.5 40s47 14.5 73 14.5c26.667 0 51.5 -4.83301 74.5 -14.5s43 -23 60 -40s30.5 -37 40.5 -60s15 -47.5 15 -73.5s-5 -50.167 -15 -72.5s-23.5 -42 -40.5 -59s-37 -30.333 -60 -40
s-47.833 -14.5 -74.5 -14.5c-26 0 -50.333 4.83301 -73 14.5s-42.5 23 -59.5 40s-30.333 36.667 -40 59s-14.5 46.5 -14.5 72.5z" />
    <glyph glyph-name="periodcentered" unicode="&#x2219;" horiz-adv-x="549" 
d="M86 595c0 26 4.83301 50.5 14.5 73.5s23 43 40 60s36.833 30.333 59.5 40s47 14.5 73 14.5c26.667 0 51.5 -4.83301 74.5 -14.5s43 -23 60 -40s30.5 -37 40.5 -60s15 -47.5 15 -73.5s-5 -50.167 -15 -72.5s-23.5 -42 -40.5 -59s-37 -30.333 -60 -40
s-47.833 -14.5 -74.5 -14.5c-26 0 -50.333 4.83301 -73 14.5s-42.5 23 -59.5 40s-30.333 36.667 -40 59s-14.5 46.5 -14.5 72.5z" />
    <glyph glyph-name="cedilla" unicode="&#xb8;" 
d="M450 -61c62.667 -14.667 106.668 -34.4971 132.001 -59.4971s38 -54.833 38 -89.5c0 -22.667 -5.83301 -43 -17.5 -61s-28.334 -33.333 -50.001 -46s-47.5 -22.334 -77.5 -29.001s-63 -10 -99 -10c-27.333 0 -52.833 1.83301 -76.5 5.5s-47.167 9.16699 -70.5 16.5l23 77
c4 15.333 13.667 23 29 23c9.33301 0 19.5 -2.5 30.5 -7.5s27.167 -7.5 48.5 -7.5c22 0 38.5 4.16699 49.5 12.5s16.5 18.5 16.5 30.5c0 19.333 -12 33.166 -36 41.499s-61 16.166 -111 23.499l60 176h138z" />
    <glyph glyph-name="uni00B9" unicode="&#xb9;" horiz-adv-x="668" 
d="M576 1014v-114.001h-431v114h139v360l5 51l-77 -61c-8 -6 -16.167 -9.66699 -24.5 -11s-16 -1.16602 -23 0.500977s-13.167 4.16699 -18.5 7.5s-9.33301 7 -12 11l-55 75l233 194h149v-627h115z" />
    <glyph glyph-name="ordmasculine" unicode="&#xba;" horiz-adv-x="801" 
d="M402 1464c48.667 0 93 -7.33301 133 -22s74.333 -35.5 103 -62.5s50.834 -60 66.501 -99s23.5 -82.833 23.5 -131.5c0 -49.333 -7.83301 -93.833 -23.5 -133.5s-37.834 -73.334 -66.501 -101.001s-63 -48.834 -103 -63.501s-84.333 -22 -133 -22
s-93.167 7.33301 -133.5 22s-75 35.834 -104 63.501s-51.5 61.334 -67.5 101.001s-24 84.167 -24 133.5c0 48.667 8 92.5 24 131.5s38.5 72 67.5 99s63.667 47.833 104 62.5s84.833 22 133.5 22zM402 973c44.667 0 77.834 14.167 99.501 42.5s32.5 72.166 32.5 131.499
s-10.833 103 -32.5 131s-54.834 42 -99.501 42c-46.667 0 -80.834 -14 -102.501 -42s-32.5 -71.667 -32.5 -131s10.833 -103.166 32.5 -131.499s55.834 -42.5 102.501 -42.5z" />
    <glyph glyph-name="guillemotright" unicode="&#xbb;" horiz-adv-x="911" 
d="M492 554v-31.999l-256 -396l-81 38c-21.333 9.33301 -33.833 22.666 -37.5 39.999s0.166016 36 11.499 56l139 236c9.33301 17.333 20 31.333 32 42c-12 10.667 -22.667 24.667 -32 42l-139 235c-11.333 20 -15.166 38.833 -11.499 56.5s16.167 31.167 37.5 40.5l81 38z
M821 554.001v-31.999l-256 -396l-81 38c-21.333 9.33301 -33.833 22.666 -37.5 39.999s0.166016 36 11.499 56l139 236c9.33301 17.333 20 31.333 32 42c-12 10.667 -22.667 24.667 -32 42l-139 235c-11.333 20 -15.166 38.833 -11.499 56.5s16.167 31.167 37.5 40.5l81 38z
" />
    <glyph glyph-name="onequarter" unicode="&#xbc;" horiz-adv-x="1486" 
d="M452 71c-17.333 -27.333 -35.832 -45.999 -55.499 -55.999s-42.5 -15 -68.5 -15h-105l834 1365c16 25.333 34.167 45.166 54.5 59.499s45.166 21.5 74.499 21.5h106zM570.001 820.001v-114.001h-431v114h139v360l5 51l-77 -61c-8 -6 -16.167 -9.66699 -24.5 -11
s-16 -1.16602 -23 0.500977s-13.167 4.16699 -18.5 7.5s-9.33301 7 -12 11l-55 75l233 194h149v-627h115zM1170 282v168c0 16 0.5 33.333 1.5 52s2.83301 38 5.5 58l-202 -278h195zM1411 282v-87.999c0 -8.66699 -3 -16.334 -9 -23.001s-14 -10 -24 -10h-60v-161h-148v161
h-290c-15.333 0 -27.5 3.5 -36.5 10.5s-14.833 15.833 -17.5 26.5l-14 76l335 467h171v-459h93z" />
    <glyph glyph-name="onehalf" unicode="&#xbd;" horiz-adv-x="1471" 
d="M413 71c-17.333 -27.333 -35.832 -45.999 -55.499 -55.999s-42.5 -15 -68.5 -15h-105l834 1365c16 25.333 34.167 45.166 54.5 59.499s45.166 21.5 74.499 21.5h106zM572.001 820.001v-114.001h-431v114h139v360l5 51l-77 -61c-8 -6 -16.167 -9.66699 -24.5 -11
s-16 -1.16602 -23 0.500977s-13.167 4.16699 -18.5 7.5s-9.33301 7 -12 11l-55 75l233 194h149v-627h115zM1328 160c18.667 0 33.167 -4.99902 43.5 -14.999s15.5 -23.333 15.5 -40v-105h-541v57c0 11.333 2.16699 23.333 6.5 36s11.833 24.334 22.5 35.001l209 206
c14.667 14.667 28.667 30.167 42 46.5s24.666 32.666 33.999 48.999s16.833 32.666 22.5 48.999s8.5 32.166 8.5 47.499c0 24 -6.5 43.5 -19.5 58.5s-31.167 22.5 -54.5 22.5c-22 0 -39.667 -5.5 -53 -16.5s-24.333 -26.833 -33 -47.5
c-9.33301 -14.667 -19.666 -25 -30.999 -31s-28.666 -7 -51.999 -3l-99 15c6 38 16.833 71.167 32.5 99.5s35.5 51.833 59.5 70.5s51.667 32.5 83 41.5s65.666 13.5 102.999 13.5c38.667 0 73.167 -5.66699 103.5 -17s56 -26.666 77 -45.999s36.833 -42.166 47.5 -68.499
s16 -54.833 16 -85.5c0 -27.333 -4.16699 -52.333 -12.5 -75s-19.333 -44.334 -33 -65.001s-29.5 -40.667 -47.5 -60l-56 -59l-128 -130c18.667 5.33301 37 9.5 55 12.5s34.667 4.5 50 4.5h129z" />
    <glyph glyph-name="threequarters" unicode="&#xbe;" horiz-adv-x="1499" 
d="M471 71c-17.333 -27.333 -35.832 -45.999 -55.499 -55.999s-42.5 -15 -68.5 -15h-105l834 1365c16 25.333 34.167 45.166 54.5 59.499s45.166 21.5 74.499 21.5h106zM95.001 1230c5.33301 38 15.8311 71.165 31.498 99.498s35.167 51.833 58.5 70.5s50 32.5 80 41.5
s62 13.5 96 13.5c38 0 71.833 -5.5 101.5 -16.5s54.667 -25.5 75 -43.5s35.833 -38.5 46.5 -61.5s16 -46.833 16 -71.5c0 -42 -8.5 -77.5 -25.5 -106.5s-44.5 -51.5 -82.5 -67.5c40 -13.333 70.333 -32.166 91 -56.499s31 -56.166 31 -95.499
c0 -41.333 -7.66699 -76.833 -23 -106.5s-35.333 -54.334 -60 -74.001s-52.667 -34.167 -84 -43.5s-63.333 -14 -96 -14c-36 0 -68.333 3.5 -97 10.5s-54.167 18.333 -76.5 34s-41.833 36.334 -58.5 62.001s-31 57.167 -43 94.5l76 31c20 8 38.5 10.167 55.5 6.5
s29.167 -12.5 36.5 -26.5c4 -7.33301 8.66699 -15 14 -23s11.833 -15.167 19.5 -21.5s16.834 -11.5 27.501 -15.5s23 -6 37 -6c30 0 53 8.33301 69 25s24 36.667 24 60c0 18 -2.33301 33 -7 45s-12.5 21.667 -23.5 29s-25.833 12.5 -44.5 15.5s-42 4.5 -70 4.5v116
c28 0 51 2.16699 69 6.5s32.167 10.333 42.5 18s17.666 17.167 21.999 28.5s6.5 24 6.5 38c0 24.667 -6.5 44.167 -19.5 58.5s-32.5 21.5 -58.5 21.5c-23.333 0 -41.666 -5.33301 -54.999 -16s-23.666 -25 -30.999 -43c-4.66699 -8.66699 -9.16699 -15.667 -13.5 -21
s-9.5 -9.5 -15.5 -12.5s-13 -4.66699 -21 -5s-17.667 0.5 -29 2.5zM1184 281.999v168c0 16 0.5 33.333 1.5 52s2.83301 38 5.5 58l-202 -278h195zM1425 281.999v-87.999c0 -8.66699 -3 -16.334 -9 -23.001s-14 -10 -24 -10h-60v-161h-148v161h-290
c-15.333 0 -27.5 3.5 -36.5 10.5s-14.833 15.833 -17.5 26.5l-14 76l335 467h171v-459h93z" />
    <glyph glyph-name="questiondown" unicode="&#xbf;" horiz-adv-x="910" 
d="M847 -203c-23.333 -20 -48.333 -38.8311 -75 -56.498s-55.834 -33.334 -87.501 -47.001s-65.667 -24.334 -102 -32.001s-75.833 -11.5 -118.5 -11.5c-58 0 -110.833 7.66699 -158.5 23s-88.5 37.333 -122.5 66s-60.333 63.5 -79 104.5s-28 87.5 -28 139.5
c0 50.667 7.33301 93.667 22 129s33 65.5 55 90.5s46.167 46.167 72.5 63.5l74.5 49c23.333 15.333 43.333 30.833 60 46.5s27 34.167 31 55.5l23 145h169l18 -163c4 -34 -0.5 -62.333 -13.5 -85s-30.5 -42.5 -52.5 -59.5s-46.333 -32.833 -73 -47.5s-51.5 -31 -74.5 -49
s-42.333 -39 -58 -63s-23.5 -54 -23.5 -90c0 -24 4.5 -45.5 13.5 -64.5s21.5 -35.333 37.5 -49s35 -24.167 57 -31.5s46 -11 72 -11c38 0 70 4.33301 96 13s48.333 18 67 28s34.334 19.333 47.001 28s24 13 34 13c24 0 41.333 -10.333 52 -31zM352 892.002
c0 20.667 3.83301 40.334 11.5 59.001s18.167 34.667 31.5 48s29.333 24 48 32s38.667 12 60 12s41.166 -4 59.499 -12s34.333 -18.667 48 -32s24.5 -29.333 32.5 -48s12 -38.334 12 -59.001c0 -21.333 -4 -41.166 -12 -59.499s-18.833 -34.166 -32.5 -47.499
s-29.667 -23.833 -48 -31.5s-38.166 -11.5 -59.499 -11.5s-41.333 3.83301 -60 11.5s-34.667 18.167 -48 31.5s-23.833 29.166 -31.5 47.499s-11.5 38.166 -11.5 59.499z" />
    <glyph glyph-name="Agrave" unicode="&#xc0;" horiz-adv-x="1389" 
d="M925 546l-176.001 481.001c-8.66699 21.333 -17.667 46.666 -27 75.999s-18.666 61 -27.999 95c-8.66699 -34 -17.667 -65.833 -27 -95.5s-18.333 -55.5 -27 -77.5l-175 -479h460zM1400 0.000976562h-208.001c-23.333 0 -42.333 5.83301 -57 17.5
s-25.667 26.167 -33 43.5l-108 295h-599l-108 -295c-5.33301 -15.333 -15.666 -29.333 -30.999 -42s-34.333 -19 -57 -19h-210l569 1446h274zM529.998 1861c13.333 0 24.8311 -0.333008 34.498 -1s18.334 -2.5 26.001 -5.5s14.834 -7.16699 21.501 -12.5
s13.667 -12.666 21 -21.999l218 -271h-179c-19.333 0 -34.5 1.16699 -45.5 3.5s-23.167 9.16602 -36.5 20.499l-319 288h259z" />
    <glyph glyph-name="Aacute" unicode="&#xc1;" horiz-adv-x="1389" 
d="M925 546l-176.001 481.001c-8.66699 21.333 -17.667 46.666 -27 75.999s-18.666 61 -27.999 95c-8.66699 -34 -17.667 -65.833 -27 -95.5s-18.333 -55.5 -27 -77.5l-175 -479h460zM1400 0.000976562h-208.001c-23.333 0 -42.333 5.83301 -57 17.5
s-25.667 26.167 -33 43.5l-108 295h-599l-108 -295c-5.33301 -15.333 -15.666 -29.333 -30.999 -42s-34.333 -19 -57 -19h-210l569 1446h274zM1114 1861l-324.001 -286.002c-13.333 -12 -26 -19.333 -38 -22s-27.333 -4 -46 -4h-179l209 271
c6.66699 9.33301 13.334 16.833 20.001 22.5s14 9.83398 22 12.501s16.833 4.33398 26.5 5.00098s21.167 1 34.5 1h275z" />
    <glyph glyph-name="Acircumflex" unicode="&#xc2;" horiz-adv-x="1389" 
d="M925 546l-176.001 481.001c-8.66699 21.333 -17.667 46.666 -27 75.999s-18.666 61 -27.999 95c-8.66699 -34 -17.667 -65.833 -27 -95.5s-18.333 -55.5 -27 -77.5l-175 -479h460zM1400 0.000976562h-208.001c-23.333 0 -42.333 5.83301 -57 17.5
s-25.667 26.167 -33 43.5l-108 295h-599l-108 -295c-5.33301 -15.333 -15.666 -29.333 -30.999 -42s-34.333 -19 -57 -19h-210l569 1446h274zM1051 1549h-179.002c-10 0 -22.167 1.83301 -36.5 5.5s-29.166 14.5 -44.499 32.5l-82 106
c-6.66699 9.33301 -11.667 16.666 -15 21.999c-3.33301 -5.33301 -8.33301 -12.666 -15 -21.999l-82 -106c-15.333 -18 -30.166 -28.833 -44.499 -32.5s-26.5 -5.5 -36.5 -5.5h-171l241 275h224z" />
    <glyph glyph-name="Atilde" unicode="&#xc3;" horiz-adv-x="1389" 
d="M925 546l-176.001 481.001c-8.66699 21.333 -17.667 46.666 -27 75.999s-18.666 61 -27.999 95c-8.66699 -34 -17.667 -65.833 -27 -95.5s-18.333 -55.5 -27 -77.5l-175 -479h460zM1400 0.000976562h-208.001c-23.333 0 -42.333 5.83301 -57 17.5
s-25.667 26.167 -33 43.5l-108 295h-599l-108 -295c-5.33301 -15.333 -15.666 -29.333 -30.999 -42s-34.333 -19 -57 -19h-210l569 1446h274zM818.998 1699c14.667 0 27.501 2.99805 38.501 8.99805s20 13.5 27 22.5s12.167 19 15.5 30s5 21.833 5 32.5h151
c0 -33.333 -4.5 -65.166 -13.5 -95.499s-22.333 -57.333 -40 -81s-39.334 -42.5 -65.001 -56.5s-55.167 -21 -88.5 -21c-34 0 -63.5 5.33301 -88.5 16s-47.833 22.167 -68.5 34.5l-56.5 34.5c-17 10.667 -34.5 16 -52.5 16c-15.333 0 -28.333 -3 -39 -9
s-19.334 -13.667 -26.001 -23s-11.667 -19.666 -15 -30.999s-5 -22.333 -5 -33h-153c0 32.667 4.66699 64.5 14 95.5s22.833 58.333 40.5 82s39.334 42.667 65.001 57s55.167 21.5 88.5 21.5c34 0 63.667 -5.33301 89 -16s48 -22.167 68 -34.5l56 -34.5
c17.333 -10.667 35 -16 53 -16z" />
    <glyph glyph-name="Adieresis" unicode="&#xc4;" horiz-adv-x="1389" 
d="M925 546l-176.001 481.001c-8.66699 21.333 -17.667 46.666 -27 75.999s-18.666 61 -27.999 95c-8.66699 -34 -17.667 -65.833 -27 -95.5s-18.333 -55.5 -27 -77.5l-175 -479h460zM1400 0.000976562h-208.001c-23.333 0 -42.333 5.83301 -57 17.5
s-25.667 26.167 -33 43.5l-108 295h-599l-108 -295c-5.33301 -15.333 -15.666 -29.333 -30.999 -42s-34.333 -19 -57 -19h-210l569 1446h274zM607.998 1667c0 -18 -3.66699 -35 -11 -51s-17.166 -30 -29.499 -42s-26.833 -21.333 -43.5 -28s-34.334 -10 -53.001 -10
c-17.333 0 -33.833 3.33301 -49.5 10s-29.5 16 -41.5 28s-21.667 26 -29 42s-11 33 -11 51s3.66699 35.167 11 51.5s17 30.666 29 42.999s25.833 22.166 41.5 29.499s32.167 11 49.5 11c18.667 0 36.334 -3.66699 53.001 -11s31.167 -17.166 43.5 -29.499
s22.166 -26.666 29.499 -42.999s11 -33.5 11 -51.5zM1048 1667c0 -18 -3.5 -35 -10.5 -51s-16.667 -30 -29 -42s-26.666 -21.333 -42.999 -28s-33.5 -10 -51.5 -10c-18.667 0 -36.167 3.33301 -52.5 10s-30.5 16 -42.5 28s-21.5 26 -28.5 42s-10.5 33 -10.5 51
s3.5 35.167 10.5 51.5s16.5 30.666 28.5 42.999s26.167 22.166 42.5 29.499s33.833 11 52.5 11c18 0 35.167 -3.66699 51.5 -11s30.666 -17.166 42.999 -29.499s22 -26.666 29 -42.999s10.5 -33.5 10.5 -51.5z" />
    <glyph glyph-name="Aring" unicode="&#xc5;" horiz-adv-x="1389" 
d="M925 546l-176.001 481.001c-8.66699 21.333 -17.667 46.666 -27 75.999s-18.666 61 -27.999 95c-8.66699 -34 -17.667 -65.833 -27 -95.5s-18.333 -55.5 -27 -77.5l-175 -479h460zM1400 0.000976562h-208.001c-23.333 0 -42.333 5.83301 -57 17.5
s-25.667 26.167 -33 43.5l-108 295h-599l-108 -295c-5.33301 -15.333 -15.666 -29.333 -30.999 -42s-34.333 -19 -57 -19h-210l569 1446h274zM486.998 1706c0 28.667 5.66699 54.834 17 78.501s26.5 43.834 45.5 60.501s40.833 29.667 65.5 39s50.667 14 78 14
c28 0 54.833 -4.66699 80.5 -14s48 -22.333 67 -39s34.167 -36.834 45.5 -60.501s17 -49.834 17 -78.501c0 -28 -5.66699 -53.333 -17 -76s-26.5 -42.334 -45.5 -59.001s-41.333 -29.5 -67 -38.5s-52.5 -13.5 -80.5 -13.5c-27.333 0 -53.333 4.5 -78 13.5
s-46.5 21.833 -65.5 38.5s-34.167 36.334 -45.5 59.001s-17 48 -17 76zM605.998 1706c0 -26 7.66699 -47.333 23 -64s37.666 -25 66.999 -25c26.667 0 48 8.33301 64 25s24 38 24 64c0 28 -8 50.167 -24 66.5s-37.333 24.5 -64 24.5
c-29.333 0 -51.666 -8.16699 -66.999 -24.5s-23 -38.5 -23 -66.5z" />
    <glyph glyph-name="AE" unicode="&#xc6;" horiz-adv-x="1866" 
d="M924 546l-85.999 700c-10.667 -34 -21.834 -66 -33.501 -96s-23.167 -57.667 -34.5 -83l-251 -521h405zM1094 1232l49 -401h509v-207h-483l50 -409h569v-215h-797l-44 356h-519l-143 -296c-8.66699 -18 -21.667 -32.5 -39 -43.5s-38 -16.5 -62 -16.5h-204l735 1446h1073
v-214h-694z" />
    <glyph glyph-name="Ccedilla" unicode="&#xc7;" horiz-adv-x="1323" 
d="M1299 209c-52.667 -66 -116.662 -117.833 -191.995 -155.5s-164.333 -60.167 -267 -67.5l-13 -47c62.667 -14.667 106.667 -34.5 132 -59.5s38 -54.833 38 -89.5c0 -22.667 -5.83301 -43 -17.5 -61s-28.334 -33.333 -50.001 -46s-47.5 -22.334 -77.5 -29.001
s-63 -10 -99 -10c-27.333 0 -52.833 1.83301 -76.5 5.5s-47.167 9.16699 -70.5 16.5l23 77c4 15.333 13.667 23 29 23c9.33301 0 19.5 -2.5 30.5 -7.5s27.167 -7.5 48.5 -7.5c22 0 38.5 4.16699 49.5 12.5s16.5 18.5 16.5 30.5c0 19.333 -12 33.166 -36 41.499
s-61 16.166 -111 23.499l44 128c-96 8.66699 -182.5 32.834 -259.5 72.501s-142.5 91.834 -196.5 156.501s-95.333 140 -124 226s-43 179.667 -43 281c0 108.667 17.333 208.167 52 298.5s83.5 168.166 146.5 233.499s138.167 116.166 225.5 152.499s184 54.5 290 54.5
c105.333 0 198.833 -17.333 280.5 -52s151.167 -80 208.5 -136l-90 -125c-5.33301 -8 -12.166 -15 -20.499 -21s-19.833 -9 -34.5 -9c-10 0 -20.333 2.83301 -31 8.5s-22.334 12.667 -35.001 21s-27.334 17.5 -44.001 27.5s-36 19.167 -58 27.5s-47.5 15.333 -76.5 21
s-62.5 8.5 -100.5 8.5c-64.667 0 -123.834 -11.5 -177.501 -34.5s-99.834 -56.333 -138.501 -100s-68.667 -97 -90 -160s-32 -134.833 -32 -215.5c0 -81.333 11.5 -153.666 34.5 -216.999s54.167 -116.666 93.5 -159.999s85.666 -76.5 138.999 -99.5
s110.666 -34.5 171.999 -34.5c36.667 0 69.834 2 99.501 6s57 10.333 82 19s48.667 19.834 71 33.501s44.5 30.5 66.5 50.5c6.66699 6 13.667 10.833 21 14.5s15 5.5 23 5.5c14.667 0 27.667 -5.66699 39 -17z" />
    <glyph glyph-name="Egrave" unicode="&#xc8;" horiz-adv-x="1150" 
d="M431 1232v-401h506v-207h-506v-409h642v-215h-912v1446h912v-214h-642zM468 1861c13.333 0 24.8311 -0.333008 34.498 -1s18.334 -2.5 26.001 -5.5s14.834 -7.16699 21.501 -12.5s13.667 -12.666 21 -21.999l218 -271h-179c-19.333 0 -34.5 1.16699 -45.5 3.5
s-23.167 9.16602 -36.5 20.499l-319 288h259z" />
    </font>
</defs>
</svg>
