<svg xmlns="http://www.w3.org/2000/svg">
<defs>
<font id="Lato-BoldItalic" horiz-adv-x="736" >
  <font-face 
    font-family="Lato"
    font-weight="700"
    font-style="italic"
    font-stretch="normal"
    units-per-em="2000"
    panose-1="2 15 5 2 2 2 4 3 2 3"
    ascent="1610"
    descent="-390"
    x-height="1026"
    cap-height="1445"
    bbox="-1041 -566 2586 2195"
    underline-thickness="99"
    underline-position="-412"
    slope="-7"
    unicode-range="U+0020-U+FEFF"
  />
<missing-glyph horiz-adv-x="1094" 
d="M239 1147c38 30.667 81.167 56.499 129.5 77.499s105.5 31.5 171.5 31.5c46.667 0 88.667 -6.33301 126 -19s69 -30.5 95 -53.5s45.833 -50.667 59.5 -83s20.5 -68.166 20.5 -107.499c0 -36.667 -4.66699 -68.167 -14 -94.5s-21 -49.333 -35 -69s-29.333 -36.5 -46 -50.5
l-48 -39.5c-15.333 -12.333 -28.833 -24.5 -40.5 -36.5s-19.167 -25.333 -22.5 -40l-22 -96h-169l-17 114c-4 24.667 -2.16699 45.834 5.5 63.501s18.334 33.667 32.001 48s29 27.666 46 39.999s33 25.333 48 39s27.667 29 38 46s15.5 37.167 15.5 60.5s-8 42.333 -24 57
s-39.333 22 -70 22c-24 0 -44.167 -2.33301 -60.5 -7s-30.5 -9.66699 -42.5 -15s-22.5 -10.333 -31.5 -15s-18.5 -7 -28.5 -7c-22.667 0 -39.334 9.66699 -50.001 29zM385 312.999c0 18.667 3.5 36.334 10.5 53.001s16.5 31.167 28.5 43.5s26.333 22 43 29
s34.667 10.5 54 10.5c18.667 0 36.167 -3.5 52.5 -10.5s30.666 -16.667 42.999 -29s22 -26.833 29 -43.5s10.5 -34.334 10.5 -53.001c0 -19.333 -3.5 -37.166 -10.5 -53.499s-16.667 -30.5 -29 -42.5s-26.666 -21.5 -42.999 -28.5s-33.833 -10.5 -52.5 -10.5
c-19.333 0 -37.333 3.5 -54 10.5s-31 16.5 -43 28.5s-21.5 26.167 -28.5 42.5s-10.5 34.166 -10.5 53.499zM42 1446h1010v-1446h-1010v1446zM107 68.999h873v1309h-873v-1309z" />
    <glyph glyph-name="uniFB00" unicode="ff" horiz-adv-x="1267" 
d="M1057 1017l242 -0.00195312l-22 -170h-232l-98 -805l-51 -188c-10.667 -32 -25.5 -56.833 -44.5 -74.5s-46.5 -26.5 -82.5 -26.5h-99l131 1094h-352l-97 -805l-51 -188c-10.667 -32 -25.5 -56.833 -44.5 -74.5s-46.5 -26.5 -82.5 -26.5h-100l134 1093l-78 14
c-17.333 3.33301 -31.166 9.66602 -41.499 18.999s-14.166 23 -11.499 41l12 97h140l7 58c7.33301 58.667 22.5 111.334 45.5 158.001s52.167 86.334 87.5 119.001s76.166 57.667 122.499 75s96.5 26 150.5 26c43.333 0 83 -6.33301 119 -19l-23 -128
c-3.33301 -15.333 -12.5 -24.333 -27.5 -27s-32.167 -4 -51.5 -4c-26 0 -49.667 -2.83301 -71 -8.5s-40 -15.834 -56 -30.501s-29.333 -34.334 -40 -59.001s-18.334 -56 -23.001 -94l-9 -66h361l11 91c7.33301 58.667 22.833 111.334 46.5 158.001s53.5 86.334 89.5 119.001
s77.667 57.667 125 75s98.333 26 153 26c22 0 42.667 -1.5 62 -4.5s38.333 -7.5 57 -13.5l-23 -129c-3.33301 -15.333 -12.5 -24.333 -27.5 -27s-32.167 -4 -51.5 -4c-27.333 0 -52 -3.66699 -74 -11s-41.167 -19.166 -57.5 -35.499s-30 -37.833 -41 -64.5
s-18.833 -59 -23.5 -97z" />
    <glyph glyph-name="uniFB01" unicode="fi" horiz-adv-x="1124" 
d="M460 1017l589.998 -0.000976562l-124 -1017h-242l103 841h-340l-97 -800l-51 -188c-10 -32 -24.667 -57 -44 -75s-47 -27 -83 -27h-99l134 1089l-76 14c-18 4 -32 10.5 -42 19.5s-14 22.167 -12 39.5l11 104h141l4 33c7.33301 62.667 23.833 120.5 49.5 173.5
s60.5 99 104.5 138s97.333 69.5 160 91.5s135 33 217 33c26 0 53.5 -1.5 82.5 -4.5s53.167 -7.83301 72.5 -14.5l-24 -123c-3.33301 -15.333 -12.666 -24.166 -27.999 -26.499s-33.666 -3.5 -54.999 -3.5c-60 0 -111 -5.5 -153 -16.5s-76.5 -27.667 -103.5 -50
s-47.833 -50.333 -62.5 -84s-24.667 -73.167 -30 -118.5z" />
    <glyph glyph-name="uniFB02" unicode="fl" horiz-adv-x="1143" 
d="M449 841l-98.999 -800.001l-51 -188c-10 -32 -24.667 -57 -44 -75s-47 -27 -83 -27h-99l133 1089l-75 14c-18 4 -32.167 10.5 -42.5 19.5s-14.166 22.167 -11.499 39.5l12 104h138l6 45c6.66699 54.667 21 106.834 43 156.501s51.667 93.5 89 131.5
s82.5 68.167 135.5 90.5s113.5 33.5 181.5 33.5c56.667 0 110 -2 160 -6s100.667 -6 152 -6h137l-180 -1462h-239l156 1286c-28.667 3.33301 -57.334 6.5 -86.001 9.5s-56.334 4.5 -83.001 4.5c-66.667 0 -120.167 -20 -160.5 -60s-64.5 -99.333 -72.5 -178l-5 -45h217
l-21 -176h-208z" />
    <glyph glyph-name="uniFB03" unicode="ffi" horiz-adv-x="1720" 
d="M460 1017h366.998l4 33c7.33301 62.667 23.833 120.5 49.5 173.5s60.5 99 104.5 138s97.5 69.5 160.5 91.5s135.5 33 217.5 33c12.667 0 26 -0.333008 40 -1s27.833 -1.83398 41.5 -3.50098s26.834 -3.66699 39.501 -6s23.667 -5.16602 33 -8.49902l-24 -123
c-3.33301 -15.333 -12.666 -24.166 -27.999 -26.499s-33.333 -3.5 -54 -3.5c-60.667 0 -112 -5.5 -154 -16.5s-76.5 -27.667 -103.5 -50s-47.833 -50.333 -62.5 -84s-24.667 -73.167 -30 -118.5l-3 -28h588l-124 -1017h-239l104 847h-341l-98 -806l-51 -188
c-10 -32 -24.667 -57 -44 -75s-47 -27 -83 -27h-99l135 1096h-357l-97 -805l-51 -188c-10.667 -32 -25.5 -56.833 -44.5 -74.5s-46.5 -26.5 -82.5 -26.5h-100l134 1093l-78 14c-17.333 3.33301 -31.166 9.66602 -41.499 18.999s-14.166 23 -11.499 41l12 97h140l7 58
c7.33301 58.667 22.5 111.334 45.5 158.001s52.167 86.334 87.5 119.001s76.166 57.667 122.499 75s96.5 26 150.5 26c43.333 0 83 -6.33301 119 -19l-23 -128c-3.33301 -15.333 -12.5 -24.333 -27.5 -27s-32.167 -4 -51.5 -4c-26 0 -49.667 -2.83301 -71 -8.5
s-40 -15.834 -56 -30.501s-29.333 -34.334 -40 -59.001s-18.334 -56 -23.001 -94z" />
    <glyph glyph-name="uniFB04" unicode="ffl" horiz-adv-x="1738" 
d="M456 1014l366.004 -0.000976562l6 48c6.66699 54.667 21 106.834 43 156.501s51.667 93.5 89 131.5s82.5 68.167 135.5 90.5s113.5 33.5 181.5 33.5c56.667 0 110 -2 160 -6s100.667 -6 152 -6h137l-180 -1462h-239l156 1286c-28.667 3.33301 -57.334 6.5 -86.001 9.5
s-56.334 4.5 -83.001 4.5c-66.667 0 -120.167 -20 -160.5 -60s-64.5 -99.333 -72.5 -178l-5 -48h243l-22 -169h-233l-99 -804l-51 -188c-10.667 -32 -25.5 -57 -44.5 -75s-46.5 -27 -82.5 -27h-99l133 1094h-356l-97 -803l-51 -188c-10.667 -32 -25.5 -56.833 -44.5 -74.5
s-46.5 -26.5 -82.5 -26.5h-99l133 1092l-74 13c-17.333 3.33301 -31.166 9.66602 -41.499 18.999s-14.166 23 -11.499 41l12 96h135l8 61c7.33301 58.667 22.666 111.334 45.999 158.001s52.666 86.334 87.999 119.001s76.166 57.667 122.499 75s96.5 26 150.5 26
c42.667 0 82 -6.33301 118 -19l-22 -128c-2 -7.33301 -5.5 -13.166 -10.5 -17.499s-11 -7.5 -18 -9.5s-15 -3.16699 -24 -3.5s-18.167 -0.5 -27.5 -0.5c-26 0 -49.667 -2.83301 -71 -8.5s-40 -15.834 -56 -30.501s-29.333 -34.334 -40 -59.001s-18.334 -56 -23.001 -94z" />
    <glyph glyph-name="f_b.liga" unicode="fb" horiz-adv-x="1753" 
d="M1056 823c48 67.333 101.5 120.667 160.5 160s121.833 59 188.5 59c42.667 0 81.334 -7.83301 116.001 -23.5s64.334 -39.167 89.001 -70.5s43.667 -71 57 -119s20 -104.333 20 -169c0 -58 -6 -115 -18 -171s-28.833 -109 -50.5 -159s-47.834 -96 -78.501 -138
s-64.5 -78.333 -101.5 -109s-76.667 -54.667 -119 -72s-86.166 -26 -131.499 -26c-52 0 -98.667 10.5 -140 31.5s-76 49.5 -104 85.5l-8 -34c-7.33301 -23.333 -17 -40.5 -29 -51.5s-31.333 -16.5 -58 -16.5h-134l161 1328l-81 15.5c-26.667 5 -52.334 7.5 -77.001 7.5
c-34 0 -65.333 -6 -94 -18s-53.5 -29 -74.5 -51s-38.167 -48.833 -51.5 -80.5s-22 -66.834 -26 -105.501l-10 -79h229l-20 -176h-222l-99 -800l-51 -188c-10 -32 -24.667 -57 -44 -75s-47 -27 -83 -27h-99l134 1089l-76 14c-18 4 -32.167 10.5 -42.5 19.5
s-14.166 22.167 -11.499 39.5l12 104h140l10 79c6.66699 54.667 21.5 106.834 44.5 156.501s53.833 93.5 92.5 131.5s85.167 68.333 139.5 91s116.166 34 185.499 34c42.667 0 84.667 -1.16699 126 -3.5s80.5 -5 117.5 -8s71.667 -5.66699 104 -8s61.166 -3.5 86.499 -3.5h2
zM984 240.001c22.667 -24.667 48.667 -42.001 78 -52.001s58.333 -15 87 -15c44 0 84 13.667 120 41s66.833 63 92.5 107s45.5 93.5 59.5 148.5s21 110.167 21 165.5c0 72 -11.667 125.5 -35 160.5s-56 52.5 -98 52.5c-27.333 0 -55 -9.16699 -83 -27.5
s-55 -43.666 -81 -75.999s-50.167 -70.5 -72.5 -114.5s-41.5 -91.333 -57.5 -142z" />
    <glyph glyph-name="f_f_b.liga" unicode="ffb" horiz-adv-x="2349" 
d="M1652 823c48 67.333 101.499 120.668 160.499 160.001s121.833 59 188.5 59c42.667 0 81.334 -7.83301 116.001 -23.5s64.334 -39.167 89 -70.5c24.667 -31.333 43.667 -71 57 -119s20 -104.333 20 -169c0 -58 -6 -115 -18 -171s-28.833 -109 -50.5 -159
s-47.834 -96 -78.5 -138c-30.667 -42 -64.5 -78.333 -101.5 -109s-76.667 -54.667 -119 -72s-86.166 -26 -131.499 -26c-52 0 -98.667 10.5 -140 31.5s-76 49.5 -104 85.5l-8 -34c-7.33301 -23.333 -17 -40.5 -29 -51.5s-31.333 -16.5 -58 -16.5h-134l161 1328l-80 15.5
c-26.667 5 -52.334 7.5 -77.001 7.5c-34 0 -65.333 -6 -94 -18s-53.667 -29 -75 -51s-38.5 -48.833 -51.5 -80.5s-21.5 -66.834 -25.5 -105.501l-10 -82h239l-22 -169h-230l-99 -804l-51 -188c-10 -32 -24.667 -57 -44 -75s-47 -27 -83 -27h-99l135 1094h-357l-97 -803
l-50 -188c-10.667 -32 -25.667 -56.833 -45 -74.5s-47 -26.5 -83 -26.5h-99l133 1091l-78 14c-17.333 3.33301 -31.166 9.66602 -41.499 18.999s-14.166 23 -11.499 41l12 96h140l8 61c7.33301 58.667 22.5 111.334 45.5 158.001s52.167 86.334 87.5 119.001
s76.166 57.667 122.499 75s96.5 26 150.5 26c43.333 0 83 -6.33301 119 -19l-23 -128c-3.33301 -15.333 -12.666 -24.333 -27.999 -27s-32.333 -4 -51 -4c-26 0 -49.667 -2.83301 -71 -8.5s-40 -15.834 -56 -30.501s-29.333 -34.334 -40 -59.001s-18.334 -56 -23.001 -94
l-9 -69h366l10 82c6.66699 54.667 21.5 106.834 44.5 156.501s53.833 93.5 92.5 131.5s85.167 68.333 139.5 91s116.166 34 185.499 34c40.667 0 80.5 -1.16699 119.5 -3.5s76.333 -4.83301 112 -7.5l101 -7.5c31.667 -2.33301 60.167 -3.83301 85.5 -4.5h17zM1580 240.002
c22.667 -24.667 48.667 -42.001 78 -52.001s58.333 -15 87 -15c44 0 84 13.667 120 41s66.833 63 92.5 107s45.5 93.5 59.5 148.5s21 110.167 21 165.5c0 72 -11.667 125.5 -35 160.5s-56 52.5 -98 52.5c-27.333 0 -55 -9.16699 -83 -27.5s-55 -43.666 -81 -75.999
s-50.167 -70.5 -72.5 -114.5s-41.5 -91.333 -57.5 -142z" />
    <glyph glyph-name="f_h.liga" unicode="fh" horiz-adv-x="1750" 
d="M1058 852c50 64 104.165 111.665 162.498 142.998s117.833 47 178.5 47c43.333 0 82.166 -8.66699 116.499 -26s62.5 -42.5 84.5 -75.5s37.5 -73.667 46.5 -122s9.5 -103.5 1.5 -165.5l-78 -653h-246l77 653c8.66699 66.667 5.16699 114.667 -10.5 144
s-44.167 44 -85.5 44c-25.333 0 -51.666 -7.16699 -78.999 -21.5s-53.666 -34.666 -78.999 -60.999s-49 -58.166 -71 -95.499s-40.667 -79 -56 -125l-65 -538h-247l161 1329c-26 5.33301 -51.833 10.333 -77.5 15s-50.167 7 -73.5 7c-34 0 -65.333 -6 -94 -18
s-53.667 -29 -75 -51s-38.666 -48.833 -51.999 -80.5s-22 -66.834 -26 -105.501l-9 -79h229l-20 -176h-222l-99 -800l-51 -188c-10 -32 -24.667 -57 -44 -75s-47 -27 -83 -27h-99l134 1089l-76 14c-18 4 -32.167 10.5 -42.5 19.5s-14.166 22.167 -11.499 39.5l12 104h140
l10 79c6.66699 54.667 21.5 106.834 44.5 156.501s53.833 93.5 92.5 131.5s85.167 68.333 139.5 91s116.166 34 185.499 34c42.667 0 84.667 -1.16699 126 -3.5s80.5 -5 117.5 -8s71.5 -5.66699 103.5 -8s60.667 -3.5 86 -3.5h1z" />
    <glyph glyph-name="f_f_h.liga" unicode="ffh" horiz-adv-x="2348" 
d="M1656 852c50 64 104.166 111.666 162.499 142.999s117.833 47 178.5 47c43.333 0 82.166 -8.66699 116.499 -26s62.5 -42.5 84.5 -75.5s37.5 -73.667 46.5 -122s9.5 -103.5 1.5 -165.5l-78 -653h-246l77 653c8.66699 66.667 5.16699 114.667 -10.5 144
s-44.167 44 -85.5 44c-25.333 0 -51.666 -7.16699 -78.999 -21.5s-53.666 -34.666 -78.999 -60.999s-49 -58.166 -71 -95.499s-40.667 -79 -56 -125l-65 -538h-247l161 1329c-26 5.33301 -51.833 10.333 -77.5 15s-50.5 7 -74.5 7c-34 0 -65.333 -6 -94 -18
s-53.667 -29 -75 -51s-38.5 -48.833 -51.5 -80.5s-21.5 -66.834 -25.5 -105.501l-10 -82h239l-22 -169h-230l-99 -804l-51 -188c-10 -32 -24.667 -57 -44 -75s-47 -27 -83 -27h-99l135 1094h-357l-97 -803l-50 -188c-10.667 -32 -25.667 -56.833 -45 -74.5
s-47 -26.5 -83 -26.5h-99l133 1091l-78 14c-17.333 3.33301 -31.166 9.66602 -41.499 18.999s-14.166 23 -11.499 41l12 96h140l8 61c7.33301 58.667 22.5 111.334 45.5 158.001s52.167 86.334 87.5 119.001s76.166 57.667 122.499 75s96.5 26 150.5 26
c43.333 0 83 -6.33301 119 -19l-23 -128c-3.33301 -15.333 -12.666 -24.333 -27.999 -27s-32.333 -4 -51 -4c-26 0 -49.667 -2.83301 -71 -8.5s-40 -15.834 -56 -30.501s-29.333 -34.334 -40 -59.001s-18.334 -56 -23.001 -94l-9 -69h366l10 82
c6.66699 54.667 21.5 106.834 44.5 156.501s53.833 93.5 92.5 131.5s85.167 68.333 139.5 91s116.166 34 185.499 34c40.667 0 80.5 -1.16699 119.5 -3.5s76.333 -4.83301 112 -7.5l101 -7.5c31.667 -2.33301 60.167 -3.83301 85.5 -4.5h17z" />
    <glyph glyph-name="f_igrave.liga" unicode="f&#xec;" horiz-adv-x="1124" 
d="M460 1017h589.996l-124 -1017h-242l103 841h-340l-98 -799l-46 -188c-10.667 -32 -25.667 -56.833 -45 -74.5s-47 -26.5 -83 -26.5h-99l133 1087l-78 14c-18 4 -32.167 10.5 -42.5 19.5s-14.166 22.167 -11.499 39.5l11 104h143l14 113
c6.66699 54 18.834 102.5 36.501 145.5s40.334 79.5 68.001 109.5s60.334 52.833 98.001 68.5s79.5 23.5 125.5 23.5c16.667 0 32.667 -0.833008 48 -2.5s29.333 -4.5 42 -8.5l-16 -130c-1.33301 -12 -7.33301 -20.167 -18 -24.5s-23 -6.5 -37 -6.5
c-34.667 0 -61 -13.833 -79 -41.5s-30.667 -72.167 -38 -133.5zM887.996 1462c24 0 41.666 -4.5 52.999 -13.5s20.666 -22.167 27.999 -39.5l103 -243h-129c-17.333 0 -31.166 2.5 -41.499 7.5s-20.166 14.167 -29.499 27.5l-198 261h214z" />
    <glyph glyph-name="f_icircumflex.liga" unicode="f&#xee;" horiz-adv-x="1124" 
d="M460 1017h589.996l-124 -1017h-242l103 841h-340l-98 -799l-46 -188c-10.667 -32 -25.667 -56.833 -45 -74.5s-47 -26.5 -83 -26.5h-99l133 1087l-78 14c-18 4 -32.167 10.5 -42.5 19.5s-14.166 22.167 -11.499 39.5l11 104h143l14 113
c6.66699 54 18.834 102.5 36.501 145.5s40.334 79.5 68.001 109.5s60.334 52.833 98.001 68.5s79.5 23.5 125.5 23.5c16.667 0 32.667 -0.833008 48 -2.5s29.333 -4.5 42 -8.5l-16 -130c-1.33301 -12 -7.33301 -20.167 -18 -24.5s-23 -6.5 -37 -6.5
c-34.667 0 -61 -13.833 -79 -41.5s-30.667 -72.167 -38 -133.5zM1281 1168h-152.003c-8.66699 0 -17.167 1.83301 -25.5 5.5s-16.5 10.167 -24.5 19.5l-78 104c-3.33301 3.33301 -6.16602 7 -8.49902 11s-5.16602 8.33301 -8.49902 13c-3.33301 -4.66699 -7 -9 -11 -13
l-11 -11l-103 -104c-8.66699 -8.66699 -17.667 -15 -27 -19s-18.666 -6 -27.999 -6h-158l242 278h214z" />
    <glyph glyph-name="f_itilde.liga" unicode="f&#x129;" horiz-adv-x="1124" 
d="M460 1017h589.996l-124 -1017h-242l103 841h-340l-98 -799l-46 -188c-10.667 -32 -25.667 -56.833 -45 -74.5s-47 -26.5 -83 -26.5h-99l133 1087l-78 14c-18 4 -32.167 10.5 -42.5 19.5s-14.166 22.167 -11.499 39.5l11 104h143l14 113
c6.66699 54 18.834 102.5 36.501 145.5s40.334 79.5 68.001 109.5s60.334 52.833 98.001 68.5s79.5 23.5 125.5 23.5c16.667 0 32.667 -0.833008 48 -2.5s29.333 -4.5 42 -8.5l-16 -130c-1.33301 -12 -7.33301 -20.167 -18 -24.5s-23 -6.5 -37 -6.5
c-34.667 0 -61 -13.833 -79 -41.5s-30.667 -72.167 -38 -133.5zM1072 1359c18 0 32.833 5.50098 44.5 16.501s19.167 30.833 22.5 59.5h139c-4.66699 -37.333 -13.5 -71.166 -26.5 -101.499s-29 -56.333 -48 -78s-40.667 -38.334 -65 -50.001s-50.166 -17.5 -77.499 -17.5
c-22 0 -42.167 4.33301 -60.5 13s-35.166 18 -50.499 28l-43.5 28c-13.667 8.66699 -26.5 13 -38.5 13c-18 0 -32.667 -5.83301 -44 -17.5s-18.666 -31.5 -21.999 -59.5h-140c4 37.333 12.667 71.166 26 101.499s29.666 56.333 48.999 78s41.166 38.5 65.499 50.5
s50.166 18 77.499 18c22 0 42.167 -4.33301 60.5 -13s35.333 -18 51 -28l43 -28c13 -8.66699 25.5 -13 37.5 -13z" />
    <glyph glyph-name="f_idieresis.liga" unicode="f&#xef;" horiz-adv-x="1124" 
d="M929 1293c0 -16.667 -3.33301 -32.167 -10 -46.5s-15.667 -27 -27 -38s-24.666 -19.667 -39.999 -26s-31.666 -9.5 -48.999 -9.5c-16 0 -31.5 3.16699 -46.5 9.5s-28 15 -39 26s-19.833 23.667 -26.5 38s-10 29.833 -10 46.5c0 17.333 3.33301 33.5 10 48.5
s15.5 28.167 26.5 39.5s24 20.333 39 27s30.5 10 46.5 10c17.333 0 33.666 -3.33301 48.999 -10s28.666 -15.667 39.999 -27s20.333 -24.5 27 -39.5s10 -31.167 10 -48.5zM1235 1293c0 -16.667 -3.33301 -32.167 -10 -46.5s-15.667 -27 -27 -38s-24.5 -19.667 -39.5 -26
s-31.167 -9.5 -48.5 -9.5s-33.333 3.16699 -48 9.5s-27.667 15 -39 26s-20.166 23.667 -26.499 38s-9.5 29.833 -9.5 46.5c0 17.333 3.16699 33.5 9.5 48.5s15.166 28.167 26.499 39.5s24.333 20.333 39 27s30.667 10 48 10s33.5 -3.33301 48.5 -10s28.167 -15.667 39.5 -27
s20.333 -24.5 27 -39.5s10 -31.167 10 -48.5zM460 1017h589.996l-124 -1017h-242l103 841h-340l-98 -799l-46 -188c-10.667 -32 -25.667 -56.833 -45 -74.5s-47 -26.5 -83 -26.5h-99l133 1087l-78 14c-18 4 -32.167 10.5 -42.5 19.5s-14.166 22.167 -11.499 39.5l11 104h143
l14 113c6.66699 54 18.834 102.5 36.501 145.5s40.334 79.5 68.001 109.5s60.334 52.833 98.001 68.5s79.5 23.5 125.5 23.5c16.667 0 32.667 -0.833008 48 -2.5s29.333 -4.5 42 -8.5l-16 -130c-1.33301 -12 -7.33301 -20.167 -18 -24.5s-23 -6.5 -37 -6.5
c-34.667 0 -61 -13.833 -79 -41.5s-30.667 -72.167 -38 -133.5z" />
    <glyph glyph-name="f_imacron.liga" unicode="f&#x12b;" horiz-adv-x="1124" 
d="M460 1017h589.996l-124 -1017h-242l103 841h-340l-98 -799l-46 -188c-10.667 -32 -25.667 -56.833 -45 -74.5s-47 -26.5 -83 -26.5h-99l133 1087l-78 14c-18 4 -32.167 10.5 -42.5 19.5s-14.166 22.167 -11.499 39.5l11 104h143l14 113
c6.66699 54 18.834 102.5 36.501 145.5s40.334 79.5 68.001 109.5s60.334 52.833 98.001 68.5s79.5 23.5 125.5 23.5c16.667 0 32.667 -0.833008 48 -2.5s29.333 -4.5 42 -8.5l-16 -130c-1.33301 -12 -7.33301 -20.167 -18 -24.5s-23 -6.5 -37 -6.5
c-34.667 0 -61 -13.833 -79 -41.5s-30.667 -72.167 -38 -133.5zM698.996 1372h551l-18 -158h-550z" />
    <glyph glyph-name="f_ibreve.liga" unicode="f&#x12d;" horiz-adv-x="1124" 
d="M460 1017h589.996l-124 -1017h-242l103 841h-340l-98 -799l-46 -188c-10.667 -32 -25.667 -56.833 -45 -74.5s-47 -26.5 -83 -26.5h-99l133 1087l-78 14c-18 4 -32.167 10.5 -42.5 19.5s-14.166 22.167 -11.499 39.5l11 104h143l14 113
c6.66699 54 18.834 102.5 36.501 145.5s40.334 79.5 68.001 109.5s60.334 52.833 98.001 68.5s79.5 23.5 125.5 23.5c16.667 0 32.667 -0.833008 48 -2.5s29.333 -4.5 42 -8.5l-16 -130c-1.33301 -12 -7.33301 -20.167 -18 -24.5s-23 -6.5 -37 -6.5
c-34.667 0 -61 -13.833 -79 -41.5s-30.667 -72.167 -38 -133.5zM956.996 1161c-52.667 0 -95.8359 7.5 -129.503 22.5s-59.834 35.5 -78.501 61.5s-30.667 56.333 -36 91s-6 71.334 -2 110.001h160c-2.66699 -20 -3.16699 -38 -1.5 -54s6.33398 -29.5 14.001 -40.5
s18.834 -19.5 33.501 -25.5s34 -9 58 -9c23.333 0 43 3 59 9s29 14.5 39 25.5s17.667 24.5 23 40.5s9.33301 34 12 54h159c-4 -38.667 -12.667 -75.334 -26 -110.001s-32.166 -65 -56.499 -91s-55.166 -46.5 -92.499 -61.5s-82.333 -22.5 -135 -22.5z" />
    <glyph glyph-name="f_iogonek.liga" unicode="f&#x12f;" horiz-adv-x="1124" 
d="M902 -187c12 0 18.9961 -5.33594 20.9961 -16.0029l26 -91c-22.667 -14.667 -50 -26.834 -82 -36.501s-65.333 -14.5 -100 -14.5c-57.333 0 -100.833 12.333 -130.5 37s-44.5 56.334 -44.5 95.001c0 39.333 13 77.166 39 113.499s64.667 69.5 116 99.5h-63l103 841h-340
l-97 -800l-51 -188c-10 -32 -24.667 -57 -44 -75s-47 -27 -83 -27h-99l134 1089l-76 14c-18 4 -32 10.5 -42 19.5s-14 22.167 -12 39.5l11 104h141l4 33c7.33301 62.667 23.833 120.5 49.5 173.5s60.5 99 104.5 138s97.333 69.5 160 91.5s135 33 217 33
c26 0 53.5 -1.5 82.5 -4.5s53.167 -7.83301 72.5 -14.5l-24 -123c-3.33301 -15.333 -12.666 -24.166 -27.999 -26.499s-33.666 -3.5 -54.999 -3.5c-60 0 -111 -5.5 -153 -16.5s-76.5 -27.667 -103.5 -50s-47.833 -50.333 -62.5 -84s-24.667 -73.167 -30 -118.5l-3 -28h590
l-124 -1017h-31c-14 -7.33301 -27.667 -16.166 -41 -26.499s-25.166 -21.666 -35.499 -33.999s-18.666 -25.666 -24.999 -39.999s-9.5 -29.5 -9.5 -45.5c0 -16.667 4.5 -30 13.5 -40s22.167 -15 39.5 -15c10.667 0 19.5 0.666992 26.5 2s12.833 3 17.5 5l11.5 5
c3 1.33301 6.16699 2 9.5 2z" />
    <glyph glyph-name="f_dotlessi.liga" unicode="f&#x131;" horiz-adv-x="1124" 
d="M460 1017h589.996l-124 -1017h-242l103 841h-340l-98 -799l-46 -188c-10.667 -32 -25.667 -56.833 -45 -74.5s-47 -26.5 -83 -26.5h-99l133 1087l-78 14c-18 4 -32.167 10.5 -42.5 19.5s-14.166 22.167 -11.499 39.5l11 104h143l14 113
c6.66699 54 18.834 102.5 36.501 145.5s40.334 79.5 68.001 109.5s60.334 52.833 98.001 68.5s79.5 23.5 125.5 23.5c16.667 0 32.667 -0.833008 48 -2.5s29.333 -4.5 42 -8.5l-16 -130c-1.33301 -12 -7.33301 -20.167 -18 -24.5s-23 -6.5 -37 -6.5
c-34.667 0 -61 -13.833 -79 -41.5s-30.667 -72.167 -38 -133.5z" />
    <glyph glyph-name="f_f_igrave.liga" unicode="ff&#xec;" horiz-adv-x="1720" 
d="M1058 1017l587.999 0.000976562l-124 -1017h-239l104 847h-342l-98 -805l-47 -188c-10.667 -32 -25.5 -56.833 -44.5 -74.5s-46.5 -26.5 -82.5 -26.5h-99l133 1094h-358l-97 -805l-51 -188c-10.667 -32 -25.5 -56.833 -44.5 -74.5s-46.5 -26.5 -82.5 -26.5h-100l134 1093
l-78 14c-17.333 3.33301 -31.166 9.66602 -41.499 18.999s-14.166 23 -11.499 41l12 97h140l7 58c7.33301 58.667 22.5 111.334 45.5 158.001s52.167 86.334 87.5 119.001s76.166 57.667 122.499 75s96.5 26 150.5 26c43.333 0 83 -6.33301 119 -19l-23 -128
c-3.33301 -15.333 -12.5 -24.333 -27.5 -27s-32.167 -4 -51.5 -4c-26 0 -49.667 -2.83301 -71 -8.5s-40 -15.834 -56 -30.501s-29.333 -34.334 -40 -59.001s-18.334 -56 -23.001 -94l-9 -66h368l14 113c6.66699 54 18.834 102.5 36.501 145.5s40.5 79.5 68.5 109.5
s60.833 52.833 98.5 68.5s79.5 23.5 125.5 23.5c16 0 31.667 -0.833008 47 -2.5s29.333 -4.5 42 -8.5l-15 -130c-1.33301 -12 -7.33301 -20.167 -18 -24.5s-23 -6.5 -37 -6.5c-35.333 0 -62 -13.833 -80 -41.5s-30.333 -72.167 -37 -133.5zM1486 1462
c24 0 41.666 -4.5 52.999 -13.5s20.666 -22.167 27.999 -39.5l103 -243h-129c-17.333 0 -31.166 2.5 -41.499 7.5s-20.166 14.167 -29.499 27.5l-198 261h214z" />
    <glyph glyph-name="f_f_icircumflex.liga" unicode="ff&#xee;" horiz-adv-x="1720" 
d="M1058 1017l587.999 0.000976562l-124 -1017h-239l104 847h-342l-98 -805l-47 -188c-10.667 -32 -25.5 -56.833 -44.5 -74.5s-46.5 -26.5 -82.5 -26.5h-99l133 1094h-358l-97 -805l-51 -188c-10.667 -32 -25.5 -56.833 -44.5 -74.5s-46.5 -26.5 -82.5 -26.5h-100l134 1093
l-78 14c-17.333 3.33301 -31.166 9.66602 -41.499 18.999s-14.166 23 -11.499 41l12 97h140l7 58c7.33301 58.667 22.5 111.334 45.5 158.001s52.167 86.334 87.5 119.001s76.166 57.667 122.499 75s96.5 26 150.5 26c43.333 0 83 -6.33301 119 -19l-23 -128
c-3.33301 -15.333 -12.5 -24.333 -27.5 -27s-32.167 -4 -51.5 -4c-26 0 -49.667 -2.83301 -71 -8.5s-40 -15.834 -56 -30.501s-29.333 -34.334 -40 -59.001s-18.334 -56 -23.001 -94l-9 -66h368l14 113c6.66699 54 18.834 102.5 36.501 145.5s40.5 79.5 68.5 109.5
s60.833 52.833 98.5 68.5s79.5 23.5 125.5 23.5c16 0 31.667 -0.833008 47 -2.5s29.333 -4.5 42 -8.5l-15 -130c-1.33301 -12 -7.33301 -20.167 -18 -24.5s-23 -6.5 -37 -6.5c-35.333 0 -62 -13.833 -80 -41.5s-30.333 -72.167 -37 -133.5zM1874 1168h-152.003
c-8.66699 0 -17.167 1.83301 -25.5 5.5s-16.5 10.167 -24.5 19.5l-78 104c-3.33301 3.33301 -6.16602 7 -8.49902 11s-5.16602 8.33301 -8.49902 13c-3.33301 -4.66699 -7 -9 -11 -13l-11 -11l-103 -104c-8.66699 -8.66699 -17.667 -15 -27 -19s-18.666 -6 -27.999 -6h-158
l242 278h214z" />
    <glyph glyph-name="f_f_itilde.liga" unicode="ff&#x129;" horiz-adv-x="1721" 
d="M1058 1017l587.999 0.000976562l-124 -1017h-239l104 847h-342l-98 -805l-47 -188c-10.667 -32 -25.5 -56.833 -44.5 -74.5s-46.5 -26.5 -82.5 -26.5h-99l133 1094h-358l-97 -805l-51 -188c-10.667 -32 -25.5 -56.833 -44.5 -74.5s-46.5 -26.5 -82.5 -26.5h-100l134 1093
l-78 14c-17.333 3.33301 -31.166 9.66602 -41.499 18.999s-14.166 23 -11.499 41l12 97h140l7 58c7.33301 58.667 22.5 111.334 45.5 158.001s52.167 86.334 87.5 119.001s76.166 57.667 122.499 75s96.5 26 150.5 26c43.333 0 83 -6.33301 119 -19l-23 -128
c-3.33301 -15.333 -12.5 -24.333 -27.5 -27s-32.167 -4 -51.5 -4c-26 0 -49.667 -2.83301 -71 -8.5s-40 -15.834 -56 -30.501s-29.333 -34.334 -40 -59.001s-18.334 -56 -23.001 -94l-9 -66h368l14 113c6.66699 54 18.834 102.5 36.501 145.5s40.5 79.5 68.5 109.5
s60.833 52.833 98.5 68.5s79.5 23.5 125.5 23.5c16 0 31.667 -0.833008 47 -2.5s29.333 -4.5 42 -8.5l-15 -130c-1.33301 -12 -7.33301 -20.167 -18 -24.5s-23 -6.5 -37 -6.5c-35.333 0 -62 -13.833 -80 -41.5s-30.333 -72.167 -37 -133.5zM1677 1359
c18 0 32.833 5.50098 44.5 16.501s19.167 30.833 22.5 59.5h139c-4.66699 -37.333 -13.5 -71.166 -26.5 -101.499s-29 -56.333 -48 -78s-40.667 -38.334 -65 -50.001s-50.166 -17.5 -77.499 -17.5c-22 0 -42.167 4.33301 -60.5 13s-35.166 18 -50.499 28l-43.5 28
c-13.667 8.66699 -26.5 13 -38.5 13c-18 0 -32.667 -5.83301 -44 -17.5s-18.666 -31.5 -21.999 -59.5h-140c4 37.333 12.667 71.166 26 101.499s29.666 56.333 48.999 78s41.166 38.5 65.499 50.5s50.166 18 77.499 18c22 0 42.167 -4.33301 60.5 -13s35.333 -18 51 -28
l43 -28c13 -8.66699 25.5 -13 37.5 -13z" />
    <glyph glyph-name="f_f_idieresis.liga" unicode="ff&#xef;" horiz-adv-x="1720" 
d="M1576 1293c0 -16.667 -3.33301 -32.167 -10 -46.5s-15.667 -27 -27 -38s-24.5 -19.667 -39.5 -26s-31.167 -9.5 -48.5 -9.5c-16 0 -31.5 3.16699 -46.5 9.5s-28 15 -39 26s-19.833 23.667 -26.5 38s-10 29.833 -10 46.5c0 17.333 3.33301 33.5 10 48.5
s15.5 28.167 26.5 39.5s24 20.333 39 27s30.5 10 46.5 10c17.333 0 33.5 -3.33301 48.5 -10s28.167 -15.667 39.5 -27s20.333 -24.5 27 -39.5s10 -31.167 10 -48.5zM1882 1293c0 -16.667 -3.33301 -32.167 -10 -46.5s-15.667 -27 -27 -38s-24.5 -19.667 -39.5 -26
s-31.167 -9.5 -48.5 -9.5s-33.333 3.16699 -48 9.5s-27.667 15 -39 26s-20.166 23.667 -26.499 38s-9.5 29.833 -9.5 46.5c0 17.333 3.16699 33.5 9.5 48.5s15.166 28.167 26.499 39.5s24.333 20.333 39 27s30.667 10 48 10s33.5 -3.33301 48.5 -10s28.167 -15.667 39.5 -27
s20.333 -24.5 27 -39.5s10 -31.167 10 -48.5zM1058 1017l587.999 0.000976562l-124 -1017h-239l104 847h-342l-98 -805l-47 -188c-10.667 -32 -25.5 -56.833 -44.5 -74.5s-46.5 -26.5 -82.5 -26.5h-99l133 1094h-358l-97 -805l-51 -188
c-10.667 -32 -25.5 -56.833 -44.5 -74.5s-46.5 -26.5 -82.5 -26.5h-100l134 1093l-78 14c-17.333 3.33301 -31.166 9.66602 -41.499 18.999s-14.166 23 -11.499 41l12 97h140l7 58c7.33301 58.667 22.5 111.334 45.5 158.001s52.167 86.334 87.5 119.001
s76.166 57.667 122.499 75s96.5 26 150.5 26c43.333 0 83 -6.33301 119 -19l-23 -128c-3.33301 -15.333 -12.5 -24.333 -27.5 -27s-32.167 -4 -51.5 -4c-26 0 -49.667 -2.83301 -71 -8.5s-40 -15.834 -56 -30.501s-29.333 -34.334 -40 -59.001s-18.334 -56 -23.001 -94
l-9 -66h368l14 113c6.66699 54 18.834 102.5 36.501 145.5s40.5 79.5 68.5 109.5s60.833 52.833 98.5 68.5s79.5 23.5 125.5 23.5c16 0 31.667 -0.833008 47 -2.5s29.333 -4.5 42 -8.5l-15 -130c-1.33301 -12 -7.33301 -20.167 -18 -24.5s-23 -6.5 -37 -6.5
c-35.333 0 -62 -13.833 -80 -41.5s-30.333 -72.167 -37 -133.5z" />
    <glyph glyph-name="f_f_imacron.liga" unicode="ff&#x12b;" horiz-adv-x="1720" 
d="M1058 1017l587.999 0.000976562l-124 -1017h-239l104 847h-342l-98 -805l-47 -188c-10.667 -32 -25.5 -56.833 -44.5 -74.5s-46.5 -26.5 -82.5 -26.5h-99l133 1094h-358l-97 -805l-51 -188c-10.667 -32 -25.5 -56.833 -44.5 -74.5s-46.5 -26.5 -82.5 -26.5h-100l134 1093
l-78 14c-17.333 3.33301 -31.166 9.66602 -41.499 18.999s-14.166 23 -11.499 41l12 97h140l7 58c7.33301 58.667 22.5 111.334 45.5 158.001s52.167 86.334 87.5 119.001s76.166 57.667 122.499 75s96.5 26 150.5 26c43.333 0 83 -6.33301 119 -19l-23 -128
c-3.33301 -15.333 -12.5 -24.333 -27.5 -27s-32.167 -4 -51.5 -4c-26 0 -49.667 -2.83301 -71 -8.5s-40 -15.834 -56 -30.501s-29.333 -34.334 -40 -59.001s-18.334 -56 -23.001 -94l-9 -66h368l14 113c6.66699 54 18.834 102.5 36.501 145.5s40.5 79.5 68.5 109.5
s60.833 52.833 98.5 68.5s79.5 23.5 125.5 23.5c16 0 31.667 -0.833008 47 -2.5s29.333 -4.5 42 -8.5l-15 -130c-1.33301 -12 -7.33301 -20.167 -18 -24.5s-23 -6.5 -37 -6.5c-35.333 0 -62 -13.833 -80 -41.5s-30.333 -72.167 -37 -133.5zM1293 1372h551l-18 -158h-550z
" />
    <glyph glyph-name="f_f_ibreve.liga" unicode="ff&#x12d;" horiz-adv-x="1720" 
d="M1058 1017l587.999 0.000976562l-124 -1017h-239l104 847h-342l-98 -805l-47 -188c-10.667 -32 -25.5 -56.833 -44.5 -74.5s-46.5 -26.5 -82.5 -26.5h-99l133 1094h-358l-97 -805l-51 -188c-10.667 -32 -25.5 -56.833 -44.5 -74.5s-46.5 -26.5 -82.5 -26.5h-100l134 1093
l-78 14c-17.333 3.33301 -31.166 9.66602 -41.499 18.999s-14.166 23 -11.499 41l12 97h140l7 58c7.33301 58.667 22.5 111.334 45.5 158.001s52.167 86.334 87.5 119.001s76.166 57.667 122.499 75s96.5 26 150.5 26c43.333 0 83 -6.33301 119 -19l-23 -128
c-3.33301 -15.333 -12.5 -24.333 -27.5 -27s-32.167 -4 -51.5 -4c-26 0 -49.667 -2.83301 -71 -8.5s-40 -15.834 -56 -30.501s-29.333 -34.334 -40 -59.001s-18.334 -56 -23.001 -94l-9 -66h368l14 113c6.66699 54 18.834 102.5 36.501 145.5s40.5 79.5 68.5 109.5
s60.833 52.833 98.5 68.5s79.5 23.5 125.5 23.5c16 0 31.667 -0.833008 47 -2.5s29.333 -4.5 42 -8.5l-15 -130c-1.33301 -12 -7.33301 -20.167 -18 -24.5s-23 -6.5 -37 -6.5c-35.333 0 -62 -13.833 -80 -41.5s-30.333 -72.167 -37 -133.5zM1548 1161
c-52.667 0 -95.8359 7.5 -129.503 22.5s-59.834 35.5 -78.501 61.5s-30.667 56.333 -36 91s-6 71.334 -2 110.001h160c-2.66699 -20 -3.16699 -38 -1.5 -54s6.33398 -29.5 14.001 -40.5s18.834 -19.5 33.501 -25.5s34 -9 58 -9c23.333 0 43 3 59 9s29 14.5 39 25.5
s17.667 24.5 23 40.5s9.33301 34 12 54h159c-4 -38.667 -12.667 -75.334 -26 -110.001s-32.166 -65 -56.499 -91s-55.166 -46.5 -92.499 -61.5s-82.333 -22.5 -135 -22.5z" />
    <glyph glyph-name="f_f_iogonek.liga" unicode="ff&#x12f;" horiz-adv-x="1720" 
d="M460 1017l366.996 -0.00195312l4 33c7.33301 62.667 23.833 120.5 49.5 173.5s60.5 99 104.5 138s97.5 69.5 160.5 91.5s135.5 33 217.5 33c12.667 0 26 -0.333008 40 -1s27.833 -1.83398 41.5 -3.50098s26.834 -3.66699 39.501 -6s23.667 -5.16602 33 -8.49902l-24 -123
c-3.33301 -15.333 -12.666 -24.166 -27.999 -26.499s-33.333 -3.5 -54 -3.5c-60.667 0 -112 -5.5 -154 -16.5s-76.5 -27.667 -103.5 -50s-47.833 -50.333 -62.5 -84s-24.667 -73.167 -30 -118.5l-3 -28h588l-124 -1017h-35c-14 -7.33301 -27.667 -16.166 -41 -26.499
s-25.166 -21.666 -35.499 -33.999s-18.666 -25.666 -24.999 -39.999s-9.5 -29.5 -9.5 -45.5c0 -16.667 4.5 -30 13.5 -40s22.167 -15 39.5 -15c10.667 0 19.5 0.666992 26.5 2s12.833 3 17.5 5l11.5 5c3 1.33301 6.16699 2 9.5 2c12 0 19 -5.33301 21 -16l26 -91
c-22.667 -14.667 -50 -26.834 -82 -36.501s-65.333 -14.5 -100 -14.5c-57.333 0 -100.833 12.333 -130.5 37s-44.5 56.334 -44.5 95.001c0 39.333 13 77.166 39 113.499s64.667 69.5 116 99.5h-56l104 847h-341l-98 -806l-51 -188c-10 -32 -24.667 -57 -44 -75
s-47 -27 -83 -27h-99l135 1096h-357l-97 -805l-51 -188c-10.667 -32 -25.5 -56.833 -44.5 -74.5s-46.5 -26.5 -82.5 -26.5h-100l134 1093l-78 14c-17.333 3.33301 -31.166 9.66602 -41.499 18.999s-14.166 23 -11.499 41l12 97h140l7 58
c7.33301 58.667 22.5 111.334 45.5 158.001s52.167 86.334 87.5 119.001s76.166 57.667 122.499 75s96.5 26 150.5 26c43.333 0 83 -6.33301 119 -19l-23 -128c-3.33301 -15.333 -12.5 -24.333 -27.5 -27s-32.167 -4 -51.5 -4c-26 0 -49.667 -2.83301 -71 -8.5
s-40 -15.834 -56 -30.501s-29.333 -34.334 -40 -59.001s-18.334 -56 -23.001 -94z" />
    <glyph glyph-name="f_f_dotlessi.liga" unicode="ff&#x131;" horiz-adv-x="1721" 
d="M1058 1017l587.999 0.000976562l-124 -1017h-239l104 847h-342l-98 -805l-47 -188c-10.667 -32 -25.5 -56.833 -44.5 -74.5s-46.5 -26.5 -82.5 -26.5h-99l133 1094h-358l-97 -805l-51 -188c-10.667 -32 -25.5 -56.833 -44.5 -74.5s-46.5 -26.5 -82.5 -26.5h-100l134 1093
l-78 14c-17.333 3.33301 -31.166 9.66602 -41.499 18.999s-14.166 23 -11.499 41l12 97h140l7 58c7.33301 58.667 22.5 111.334 45.5 158.001s52.167 86.334 87.5 119.001s76.166 57.667 122.499 75s96.5 26 150.5 26c43.333 0 83 -6.33301 119 -19l-23 -128
c-3.33301 -15.333 -12.5 -24.333 -27.5 -27s-32.167 -4 -51.5 -4c-26 0 -49.667 -2.83301 -71 -8.5s-40 -15.834 -56 -30.501s-29.333 -34.334 -40 -59.001s-18.334 -56 -23.001 -94l-9 -66h368l14 113c6.66699 54 18.834 102.5 36.501 145.5s40.5 79.5 68.5 109.5
s60.833 52.833 98.5 68.5s79.5 23.5 125.5 23.5c16 0 31.667 -0.833008 47 -2.5s29.333 -4.5 42 -8.5l-15 -130c-1.33301 -12 -7.33301 -20.167 -18 -24.5s-23 -6.5 -37 -6.5c-35.333 0 -62 -13.833 -80 -41.5s-30.333 -72.167 -37 -133.5z" />
    <glyph glyph-name="f_j.liga" unicode="fj" horiz-adv-x="1123" 
d="M1048 1017l-127.003 -1052c-5.33301 -44.667 -16.5 -86.667 -33.5 -126s-39.667 -73.833 -68 -103.5s-62.666 -53 -102.999 -70s-86.833 -25.5 -139.5 -25.5c-26.667 0 -49.334 1.5 -68.001 4.5s-37.334 7.83301 -56.001 14.5l24 133
c3.33301 13.333 9.5 21.833 18.5 25.5s24.833 5.5 47.5 5.5c22 0 40.833 2.5 56.5 7.5s28.834 13 39.501 24s19.167 25.5 25.5 43.5s11.166 40.333 14.499 67l106 882h-336l-98 -806l-51 -188c-10 -32 -24.667 -57 -44 -75s-47 -27 -83 -27h-99l135 1095l-79 14
c-17.333 3.33301 -31.166 9.66602 -41.499 18.999s-14.166 23 -11.499 41l12 97h141l4 33c7.33301 62.667 23.833 120.5 49.5 173.5s60.5 99 104.5 138s97.333 69.5 160 91.5s135 33 217 33c26 0 53.5 -1.5 82.5 -4.5s53.167 -7.83301 72.5 -14.5l-24 -123
c-3.33301 -15.333 -12.666 -24.166 -27.999 -26.499s-33.666 -3.5 -54.999 -3.5c-60 0 -111 -5.5 -153 -16.5s-76.5 -27.667 -103.5 -50s-47.833 -50.333 -62.5 -84s-24.667 -73.167 -30 -118.5l-3 -28h587z" />
    <glyph glyph-name="f_f_j.liga" unicode="ffj" horiz-adv-x="1722" 
d="M460 1017h366.999l4 33c7.33301 62.667 23.833 120.5 49.5 173.5s60.5 99 104.5 138s97.5 69.5 160.5 91.5s135.5 33 217.5 33c12.667 0 26 -0.333008 40 -1s27.833 -1.83398 41.5 -3.50098s26.834 -3.66699 39.501 -6s23.667 -5.16602 33 -8.49902l-24 -123
c-3.33301 -15.333 -12.666 -24.166 -27.999 -26.499s-33.333 -3.5 -54 -3.5c-60.667 0 -112 -5.5 -154 -16.5s-76.5 -27.667 -103.5 -50s-47.833 -50.333 -62.5 -84s-24.667 -73.167 -30 -118.5l-3 -28h589l-127 -1053c-5.33301 -44.667 -16.333 -86.667 -33 -126
s-39.334 -73.833 -68.001 -103.5s-63.167 -53 -103.5 -70s-86.833 -25.5 -139.5 -25.5c-26 0 -48.5 1.66699 -67.5 5s-37.833 8 -56.5 14l24 133c4 13.333 10.333 22 19 26s24.334 6 47.001 6s41.834 2.33301 57.501 7s28.667 12.5 39 23.5s18.666 25.5 24.999 43.5
s11.166 40.333 14.499 67l106 883h-338l-98 -806l-51 -188c-10 -32 -24.667 -57 -44 -75s-47 -27 -83 -27h-99l135 1096h-357l-97 -805l-51 -188c-10.667 -32 -25.5 -56.833 -44.5 -74.5s-46.5 -26.5 -82.5 -26.5h-100l134 1093l-78 14
c-17.333 3.33301 -31.166 9.66602 -41.499 18.999s-14.166 23 -11.499 41l12 97h140l7 58c7.33301 58.667 22.5 111.334 45.5 158.001s52.167 86.334 87.5 119.001s76.166 57.667 122.499 75s96.5 26 150.5 26c43.333 0 83 -6.33301 119 -19l-23 -128
c-3.33301 -15.333 -12.5 -24.333 -27.5 -27s-32.167 -4 -51.5 -4c-26 0 -49.667 -2.83301 -71 -8.5s-40 -15.834 -56 -30.501s-29.333 -34.334 -40 -59.001s-18.334 -56 -23.001 -94z" />
    <glyph glyph-name="f_k.liga" unicode="fk" horiz-adv-x="1669" 
d="M449 841l-99.0029 -800.002l-51 -188c-10 -32 -24.667 -57 -44 -75s-47 -27 -83 -27h-99l134 1089l-76 14c-18 4 -32.167 10.5 -42.5 19.5s-14.166 22.167 -11.499 39.5l12 104h140l10 79c6.66699 54.667 21.5 106.834 44.5 156.501s53.833 93.5 92.5 131.5
s85.167 68.333 139.5 91s116.166 34 185.499 34c42.667 0 84.667 -1.16699 126 -3.5s80.5 -5 117.5 -8s71.5 -5.66699 103.5 -8s60.667 -3.5 86 -3.5h2l-104 -851h25c15.333 0 27.833 2.33301 37.5 7s19.834 13.334 30.501 26.001l273 315c11.333 14 23.333 24.667 36 32
s28.667 11 48 11h220l-338 -381c-24 -29.333 -50 -52.333 -78 -69c12.667 -9.33301 23.5 -20.666 32.5 -33.999s17.167 -28 24.5 -44l253 -498h-214c-18 0 -33 3.16699 -45 9.5s-21.667 17.833 -29 34.5l-199 389c-7.33301 15.333 -15.166 25.333 -23.499 30
s-21.833 7 -40.5 7h-34l-57 -470h-244l163 1328l-79 15.5c-26 5 -51.333 7.5 -76 7.5c-34 0 -65.333 -6 -94 -18s-53.667 -29 -75 -51s-38.666 -48.833 -51.999 -80.5s-22 -66.834 -26 -105.501l-9 -79h229l-20 -176h-222z" />
    <glyph glyph-name="f_f_k.liga" unicode="ffk" horiz-adv-x="2268" 
d="M460 1014l366.002 -0.000976562l10 82c6.66699 54.667 21.5 106.834 44.5 156.501s53.833 93.5 92.5 131.5s85.167 68.333 139.5 91s116.166 34 185.499 34c42.667 0 84.667 -1.16699 126 -3.5s80.5 -5 117.5 -8s71.667 -5.66699 104 -8s61.166 -3.5 86.499 -3.5h1
l-104 -851h25c15.333 0 27.833 2.33301 37.5 7s19.834 13.334 30.501 26.001l273 315c11.333 14 23.333 24.667 36 32s28.667 11 48 11h220l-338 -381c-24 -29.333 -50 -52.333 -78 -69c12.667 -9.33301 23.5 -20.666 32.5 -33.999s17.167 -28 24.5 -44l253 -498h-214
c-18 0 -33 3.16699 -45 9.5s-21.667 17.833 -29 34.5l-199 389c-7.33301 15.333 -15.166 25.333 -23.499 30s-21.833 7 -40.5 7h-34l-57 -470h-244l163 1328l-78.5 15.5c-26.333 5 -51.833 7.5 -76.5 7.5c-34 0 -65.333 -6 -94 -18s-53.5 -29 -74.5 -51
s-38.167 -48.833 -51.5 -80.5s-22 -66.834 -26 -105.501l-10 -82h239l-22 -169h-230l-99 -804l-50 -188c-10.667 -32 -25.667 -57 -45 -75s-47 -27 -83 -27h-99l135 1094h-357l-97 -803l-50 -188c-10.667 -32 -25.667 -56.833 -45 -74.5s-47 -26.5 -83 -26.5h-99l133 1091
l-78 14c-17.333 3.33301 -31 9.66602 -41 18.999s-14 23 -12 41l12 96h140l8 61c7.33301 58.667 22.5 111.334 45.5 158.001s52.167 86.334 87.5 119.001s76.166 57.667 122.499 75s96.5 26 150.5 26c43.333 0 83 -6.33301 119 -19l-23 -128
c-3.33301 -15.333 -12.5 -24.333 -27.5 -27s-32.167 -4 -51.5 -4c-26 0 -49.667 -2.83301 -71 -8.5s-40 -15.834 -56 -30.501s-29.333 -34.334 -40 -59.001s-18.334 -56 -23.001 -94z" />
    <glyph glyph-name="f_t.liga" unicode="ft" horiz-adv-x="1345" 
d="M462 1017h386.996l83 281c4.66699 13.333 11.667 23.666 21 30.999s20.666 11 33.999 11h133l-40 -323h248l-20 -170h-249l-56 -453l-8 -65c-2 -16 -3.5 -28.5 -4.5 -37.5s-1.66699 -15.333 -2 -19s-0.5 -6.16699 -0.5 -7.5c0 -25.333 6.16699 -45.333 18.5 -60
s30.166 -22 53.499 -22c14 0 25.833 1.83301 35.5 5.5s18.334 7.5 26.001 11.5s14.334 7.83301 20.001 11.5s11.167 5.5 16.5 5.5c7.33301 0 13 -1.83301 17 -5.5s7.66699 -9.16699 11 -16.5l54 -120c-37.333 -30 -78.166 -52.667 -122.499 -68s-89.166 -23 -134.499 -23
c-72.667 0 -130.167 19.667 -172.5 59s-64.833 94.666 -67.5 165.999c0 4.66699 0.166992 10.167 0.5 16.5s1 15.666 2 27.999s2.5 28.666 4.5 48.999s5 46.5 9 78.5l58 466h-367l-98 -805l-51 -188c-10 -32 -24.667 -56.833 -44 -74.5s-47 -26.5 -83 -26.5h-99l132 1093
l-77 14c-17.333 3.33301 -31.166 9.66602 -41.499 18.999s-14.166 23 -11.499 41l12 97h139l9 76c7.33301 58.667 22.833 111.334 46.5 158.001s53.667 86.334 90 119.001s78 57.667 125 75s97.833 26 152.5 26c43.333 0 83 -6.33301 119 -19l-23 -128
c-1.33301 -7.33301 -4.33301 -13.166 -9 -17.499s-10.667 -7.5 -18 -9.5s-15.5 -3.33301 -24.5 -4s-18.167 -1 -27.5 -1c-27.333 0 -52 -3.66699 -74 -11s-41.5 -19.166 -58.5 -35.499s-31 -37.666 -42 -63.999s-18.833 -58.5 -23.5 -96.5z" />
    <glyph glyph-name="f_f_t.liga" unicode="fft" horiz-adv-x="1944" 
d="M1056 1014h391.005l84 284c4.66699 13.333 11.667 23.666 21 30.999s21 11 35 11h132l-40 -326h249l-22 -169h-248l-56 -451l-8 -65c-2 -16 -3.5 -28.5 -4.5 -37.5s-1.66699 -15.333 -2 -19s-0.5 -6.16699 -0.5 -7.5c0 -25.333 6.16699 -45.333 18.5 -60
s30.166 -22 53.499 -22c14 0 26 1.83301 36 5.5s18.667 7.5 26 11.5s13.833 7.83301 19.5 11.5s11.167 5.5 16.5 5.5c7.33301 0 13.166 -1.83301 17.499 -5.5s8.16602 -9.16699 11.499 -16.5l53 -120c-37.333 -30 -78.166 -52.667 -122.499 -68s-89.166 -23 -134.499 -23
c-72.667 0 -130.167 19.667 -172.5 59s-64.833 94.666 -67.5 165.999c0 4.66699 0.166992 10.167 0.5 16.5s1 15.666 2 27.999s2.5 28.666 4.5 48.999s5 46.5 9 78.5l58 464h-373l-97 -803l-51 -188c-10 -32 -24.667 -56.833 -44 -74.5s-47 -26.5 -83 -26.5h-99l130 1092
h-351l-97 -803l-51 -188c-10 -32 -24.667 -56.833 -44 -74.5s-47 -26.5 -83 -26.5h-99l133 1091l-77 14c-17.333 3.33301 -31.166 9.66602 -41.499 18.999s-14.166 23 -11.499 41l12 96h138l8 61c7.33301 58.667 22.666 111.334 45.999 158.001
s52.666 86.334 87.999 119.001s76.166 57.667 122.499 75s96.5 26 150.5 26c42.667 0 82 -6.33301 118 -19l-22 -128c-2 -7.33301 -5.5 -13.166 -10.5 -17.499s-11 -7.5 -18 -9.5s-15 -3.16699 -24 -3.5s-18.167 -0.5 -27.5 -0.5c-26 0 -49.667 -2.83301 -71 -8.5
s-40 -15.834 -56 -30.501s-29.333 -34.334 -40 -59.001s-18.334 -56 -23.001 -94l-9 -69h360l12 94c7.33301 58.667 22.833 111.334 46.5 158.001s53.667 86.334 90 119.001s78.166 57.667 125.499 75s98.333 26 153 26c41.333 0 80.666 -6 117.999 -18l-22 -129
c-2 -7.33301 -5.5 -13.166 -10.5 -17.499s-11 -7.5 -18 -9.5s-15 -3.16699 -24 -3.5s-18.167 -0.5 -27.5 -0.5c-26.667 0 -51 -3.66699 -73 -11s-41.333 -19.166 -58 -35.499s-30.5 -37.833 -41.5 -64.5s-18.833 -59 -23.5 -97z" />
    <glyph glyph-name="t_f.liga" unicode="tf" horiz-adv-x="1306" 
d="M1093 1014l243.005 0.00292969l-21 -169h-234l-98 -804l-50 -188c-10.667 -32 -25.667 -57 -45 -75s-47 -27 -83 -27h-99l133 1094h-396l-56 -451l-8 -65c-2 -16 -3.5 -28.5 -4.5 -37.5s-1.5 -15.333 -1.5 -19v-7.5c0 -25.333 6.16699 -45.333 18.5 -60
s29.833 -22 52.5 -22c14 0 26 1.83301 36 5.5s18.667 7.5 26 11.5s13.833 7.83301 19.5 11.5s11.167 5.5 16.5 5.5c7.33301 0 13.166 -1.83301 17.499 -5.5s8.16602 -9.16699 11.499 -16.5l53 -120c-36.667 -30 -77.334 -52.667 -122.001 -68s-89.667 -23 -135 -23
c-72.667 0 -130.167 19.667 -172.5 59s-64.5 94.666 -66.5 165.999v16.5c0 6.33301 0.5 15.666 1.5 27.999s2.66699 28.666 5 48.999s5.5 46.5 9.5 78.5l57 464h-92c-13.333 0 -23.833 4.16699 -31.5 12.5s-10.834 20.833 -9.50098 37.5l12 95l153 26l83 282
c4.66699 13.333 11.667 23.666 21 30.999s21 11 35 11h132l-40 -326h395l10 77c7.33301 58.667 22.666 111.5 45.999 158.5s53.166 86.833 89.499 119.5s78.166 57.667 125.499 75s98.333 26 153 26c21.333 0 41.833 -1.66699 61.5 -5s38.834 -8 57.501 -14l-23 -129
c-3.33301 -15.333 -12.666 -24.333 -27.999 -27s-32.333 -4 -51 -4c-27.333 0 -52 -3.66699 -74 -11s-41.5 -19.166 -58.5 -35.499s-31.167 -37.833 -42.5 -64.5s-19.333 -59 -24 -97z" />
    <glyph glyph-name="t_iogonek.liga" unicode="t&#x12f;" horiz-adv-x="1203" 
d="M1129 1014l-19.9951 -168.995h-1l-103 -845h-21c-14 -7.33301 -27.833 -16.166 -41.5 -26.499s-25.667 -21.833 -36 -34.5s-18.833 -26.334 -25.5 -41.001s-10 -30 -10 -46c0 -17.333 4.83301 -31.333 14.5 -42s23.167 -16 40.5 -16c11.333 0 20.666 0.833008 27.999 2.5
s13.5 3.5 18.5 5.5s9 3.83301 12 5.5s6.16699 2.5 9.5 2.5c11.333 0 18 -5.33301 20 -16l25 -88c-22 -14.667 -48.833 -26.834 -80.5 -36.501s-64.5 -14.5 -98.5 -14.5c-56.667 0 -99.667 12.333 -129 37s-44 56 -44 94c0 40 13.333 78.167 40 114.5s65 69.5 115 99.5h-75
l104 845h-428l-56 -451l-8 -65c-2 -16 -3.5 -28.5 -4.5 -37.5s-1.5 -15.333 -1.5 -19v-7.5c0 -25.333 6.16699 -45.333 18.5 -60s29.833 -22 52.5 -22c14 0 26 1.83301 36 5.5s18.667 7.5 26 11.5s13.833 7.83301 19.5 11.5s11.167 5.5 16.5 5.5
c7.33301 0 13.166 -1.83301 17.499 -5.5s8.16602 -9.16699 11.499 -16.5l53 -120c-36.667 -30 -77.334 -52.667 -122.001 -68s-89.667 -23 -135 -23c-72.667 0 -130.167 19.667 -172.5 59s-64.5 94.666 -66.5 165.999v16.5c0 6.33301 0.5 15.666 1.5 27.999
s2.66699 28.666 5 48.999s5.5 46.5 9.5 78.5l57 464h-92c-13.333 0 -23.833 4.16699 -31.5 12.5s-10.834 20.833 -9.50098 37.5l12 95l153 26l83 282c4.66699 13.333 11.667 23.666 21 30.999s21 11 35 11h132l-40 -326h665zM1046 1483c20 0 39.333 -4.16406 58 -12.4971
s35.167 -19.5 49.5 -33.5s25.833 -30.667 34.5 -50s13 -40 13 -62c0 -21.333 -4.5 -41.333 -13.5 -60s-20.667 -35 -35 -49s-30.833 -25.167 -49.5 -33.5s-38 -12.5 -58 -12.5c-19.333 0 -38 4.16699 -56 12.5s-34 19.5 -48 33.5s-25.167 30.333 -33.5 49
s-12.5 38.667 -12.5 60s4.33301 41.666 13 60.999s20 36.166 34 50.499s30 25.666 48 33.999s36.667 12.5 56 12.5z" />
    <glyph glyph-name="t_dotlessi.liga" unicode="t&#x131;" horiz-adv-x="1202" 
d="M1003 0l-238.002 0.00390625l104 845h-427l-56 -451l-8 -65c-2 -16 -3.5 -28.5 -4.5 -37.5s-1.66699 -15.333 -2 -19s-0.5 -6.16699 -0.5 -7.5c0 -25.333 6.16699 -45.333 18.5 -60s29.833 -22 52.5 -22c14 0 26 1.83301 36 5.5s18.667 7.5 26 11.5s14 7.83301 20 11.5
s11.667 5.5 17 5.5c7.33301 0 13 -1.83301 17 -5.5s7.66699 -9.16699 11 -16.5l54 -120c-37.333 -30 -78.166 -52.667 -122.499 -68s-89.166 -23 -134.499 -23c-72.667 0 -130.167 19.667 -172.5 59s-64.833 94.666 -67.5 165.999v16.5c0 6.33301 0.5 15.666 1.5 27.999
s2.66699 28.666 5 48.999s5.5 46.5 9.5 78.5l57 464h-92c-13.333 0 -23.833 4.16699 -31.5 12.5s-10.5 20.833 -8.5 37.5l12 95l152 26l84 282c4 13.333 10.667 23.666 20 30.999s21 11 35 11h133l-40 -326h665z" />
    <glyph glyph-name="t_t.liga" unicode="tt" horiz-adv-x="1340" 
d="M126 209l-0.00292969 16.5078c0 6.33301 0.5 15.666 1.5 27.999s2.66699 28.666 5 48.999s5.5 46.5 9.5 78.5l57 464h-92c-13.333 0 -23.833 4.16699 -31.5 12.5s-10.5 20.833 -8.5 37.5l12 95l152 26l84 282c4 13.333 10.667 23.666 20 30.999s21 11 35 11h133l-40 -326
h380l84 284c4.66699 13.333 11.667 23.666 21 30.999s21 11 35 11h132l-40 -326h245l-21 -169h-245l-56 -451l-8 -65c-2 -16 -3.5 -28.5 -4.5 -37.5s-1.66699 -15.333 -2 -19s-0.5 -6.16699 -0.5 -7.5c0 -25.333 6.16699 -45.333 18.5 -60s30.166 -22 53.499 -22
c14 0 25.833 1.83301 35.5 5.5s18.334 7.5 26.001 11.5s14.334 7.83301 20.001 11.5s11.167 5.5 16.5 5.5c7.33301 0 13.166 -1.83301 17.499 -5.5s8.16602 -9.16699 11.499 -16.5l53 -120c-37.333 -30 -78.166 -52.667 -122.499 -68s-89.166 -23 -134.499 -23
c-72.667 0 -130.167 19.667 -172.5 59s-64.833 94.666 -67.5 165.999c0 4.66699 0.166992 10.167 0.5 16.5s1 15.666 2 27.999s2.5 28.666 4.5 48.999s5 46.5 9 78.5l58 464h-370l-56 -451l-8 -65c-2 -16 -3.5 -28.5 -4.5 -37.5s-1.66699 -15.333 -2 -19
s-0.5 -6.16699 -0.5 -7.5c0 -25.333 6.16699 -45.333 18.5 -60s29.833 -22 52.5 -22c14 0 26 1.83301 36 5.5s18.667 7.5 26 11.5s14 7.83301 20 11.5s11.667 5.5 17 5.5c7.33301 0 13 -1.83301 17 -5.5s7.66699 -9.16699 11 -16.5l54 -120
c-37.333 -30 -78.166 -52.667 -122.499 -68s-89.166 -23 -134.499 -23c-72.667 0 -130.167 19.667 -172.5 59s-64.833 94.666 -67.5 165.999z" />
    <glyph glyph-name="t_t_f.liga" unicode="ttf" horiz-adv-x="1918" 
d="M1481 1091c7.33301 58.667 22.6699 111.507 46.0029 158.507s53.166 86.833 89.499 119.5s78.166 57.667 125.499 75s98.333 26 153 26c21.333 0 41.833 -1.66699 61.5 -5s38.834 -8 57.501 -14l-23 -129c-3.33301 -15.333 -12.666 -24.333 -27.999 -27
s-32.333 -4 -51 -4c-27.333 0 -52.166 -3.66699 -74.499 -11s-42 -19.166 -59 -35.499s-31 -37.833 -42 -64.5s-18.833 -59 -23.5 -97l-7 -69h241l-21 -169h-233l-98 -804l-50 -188c-10.667 -32 -25.667 -57 -45 -75s-47 -27 -83 -27h-99l133 1094h-396l-56 -451l-8 -65
c-2 -16 -3.5 -28.5 -4.5 -37.5s-1.5 -15.333 -1.5 -19v-7.5c0 -25.333 6.16699 -45.333 18.5 -60s29.833 -22 52.5 -22c14 0 26 1.83301 36 5.5s18.667 7.5 26 11.5s14 7.83301 20 11.5s11.667 5.5 17 5.5c7.33301 0 13 -1.83301 17 -5.5s7.66699 -9.16699 11 -16.5l53 -120
c-36.667 -30 -77.167 -52.667 -121.5 -68s-89.5 -23 -135.5 -23c-72.667 0 -130.167 19.667 -172.5 59s-64.5 94.666 -66.5 165.999v16.5c0 6.33301 0.5 15.666 1.5 27.999s2.66699 28.666 5 48.999s5.5 46.5 9.5 78.5l57 464h-370l-56 -451l-8 -65
c-2 -16 -3.5 -28.5 -4.5 -37.5s-1.5 -15.333 -1.5 -19v-7.5c0 -25.333 6.16699 -45.333 18.5 -60s29.833 -22 52.5 -22c14 0 26 1.83301 36 5.5s18.667 7.5 26 11.5s13.833 7.83301 19.5 11.5s11.167 5.5 16.5 5.5c7.33301 0 13.166 -1.83301 17.499 -5.5
s8.16602 -9.16699 11.499 -16.5l53 -120c-36.667 -30 -77.334 -52.667 -122.001 -68s-89.667 -23 -135 -23c-72.667 0 -130.167 19.667 -172.5 59s-64.5 94.666 -66.5 165.999v16.5c0 6.33301 0.5 15.666 1.5 27.999s2.66699 28.666 5 48.999s5.5 46.5 9.5 78.5l57 464h-92
c-13.333 0 -23.833 4.16699 -31.5 12.5s-10.834 20.833 -9.50098 37.5l12 95l153 26l83 282c4.66699 13.333 11.667 23.666 21 30.999s21 11 35 11h132l-40 -326h381l83 284c4.66699 13.333 11.667 23.666 21 30.999s21 11 35 11h132l-40 -326h396z" />
    <glyph glyph-name="t_t_iogonek.liga" unicode="tt&#x12f;" horiz-adv-x="1797" 
d="M1598 1l9.00293 -0.994141c-14 -7.33301 -27.667 -16.166 -41 -26.499s-25.166 -21.666 -35.499 -33.999s-18.666 -25.666 -24.999 -39.999s-9.5 -29.5 -9.5 -45.5c0 -16.667 4.5 -30 13.5 -40s22.167 -15 39.5 -15c10.667 0 19.5 0.666992 26.5 2s12.833 3 17.5 5
l11.5 5c3 1.33301 6.16699 2 9.5 2c12 0 19 -5.33301 21 -16l26 -91c-22.667 -14.667 -50 -26.834 -82 -36.501s-65.333 -14.5 -100 -14.5c-57.333 0 -100.833 12.333 -130.5 37s-44.5 56.334 -44.5 95.001c0 39.333 13.167 77.166 39.5 113.499s65.166 69.5 116.499 99.5
h-100l104 845h-409l-56 -451l-8 -65c-2 -16 -3.5 -28.5 -4.5 -37.5s-1.5 -15.333 -1.5 -19v-7.5c0 -25.333 6.16699 -45.333 18.5 -60s29.833 -22 52.5 -22c14 0 26 1.83301 36 5.5s18.667 7.5 26 11.5s14 7.83301 20 11.5s11.667 5.5 17 5.5c7.33301 0 13 -1.83301 17 -5.5
s7.66699 -9.16699 11 -16.5l53 -120c-36.667 -30 -77.167 -52.667 -121.5 -68s-89.5 -23 -135.5 -23c-72.667 0 -130.167 19.667 -172.5 59s-64.5 94.666 -66.5 165.999v16.5c0 6.33301 0.5 15.666 1.5 27.999s2.66699 28.666 5 48.999s5.5 46.5 9.5 78.5l57 464h-370
l-56 -451l-8 -65c-2 -16 -3.5 -28.5 -4.5 -37.5s-1.5 -15.333 -1.5 -19v-7.5c0 -25.333 6.16699 -45.333 18.5 -60s29.833 -22 52.5 -22c14 0 26 1.83301 36 5.5s18.667 7.5 26 11.5s13.833 7.83301 19.5 11.5s11.167 5.5 16.5 5.5c7.33301 0 13.166 -1.83301 17.499 -5.5
s8.16602 -9.16699 11.499 -16.5l53 -120c-36.667 -30 -77.334 -52.667 -122.001 -68s-89.667 -23 -135 -23c-72.667 0 -130.167 19.667 -172.5 59s-64.5 94.666 -66.5 165.999v16.5c0 6.33301 0.5 15.666 1.5 27.999s2.66699 28.666 5 48.999s5.5 46.5 9.5 78.5l57 464h-92
c-13.333 0 -23.833 4.16699 -31.5 12.5s-10.834 20.833 -9.50098 37.5l12 95l153 26l83 282c4.66699 13.333 11.667 23.666 21 30.999s21 11 35 11h132l-40 -326h381l83 284c4.66699 13.333 11.667 23.666 21 30.999s21 11 35 11h132l-40 -326h647zM1641 1483.01
c20 0 39.334 -4.16406 58.001 -12.4971s35.167 -19.5 49.5 -33.5s25.833 -30.667 34.5 -50s13 -40 13 -62c0 -21.333 -4.5 -41.333 -13.5 -60s-20.667 -35 -35 -49s-30.833 -25.167 -49.5 -33.5s-38 -12.5 -58 -12.5c-19.333 0 -38 4.16699 -56 12.5s-34 19.5 -48 33.5
s-25.167 30.333 -33.5 49s-12.5 38.667 -12.5 60s4.16699 41.666 12.5 60.999s19.5 36.166 33.5 50.499s30.167 25.666 48.5 33.999s37.166 12.5 56.499 12.5z" />
    <glyph glyph-name="t_t_dotlessi.liga" unicode="tt&#x131;" horiz-adv-x="1795" 
d="M1597 0l-238.005 0.0078125l103 845h-408l-56 -451l-8 -65c-2 -16 -3.5 -28.5 -4.5 -37.5s-1.66699 -15.333 -2 -19s-0.5 -6.16699 -0.5 -7.5c0 -25.333 6.16699 -45.333 18.5 -60s30.166 -22 53.499 -22c14 0 25.833 1.83301 35.5 5.5s18.334 7.5 26.001 11.5
s14.334 7.83301 20.001 11.5s11.167 5.5 16.5 5.5c7.33301 0 13 -1.83301 17 -5.5s7.66699 -9.16699 11 -16.5l54 -120c-37.333 -30 -78.166 -52.667 -122.499 -68s-89.166 -23 -134.499 -23c-72.667 0 -130.167 19.667 -172.5 59s-64.833 94.666 -67.5 165.999
c0 4.66699 0.166992 10.167 0.5 16.5s1 15.666 2 27.999s2.5 28.666 4.5 48.999s5 46.5 9 78.5l57 464h-369l-56 -451l-8 -65c-2 -16 -3.5 -28.5 -4.5 -37.5s-1.66699 -15.333 -2 -19s-0.5 -6.16699 -0.5 -7.5c0 -25.333 6.16699 -45.333 18.5 -60s29.833 -22 52.5 -22
c14 0 26 1.83301 36 5.5s18.667 7.5 26 11.5s14 7.83301 20 11.5s11.667 5.5 17 5.5c7.33301 0 13 -1.83301 17 -5.5s7.66699 -9.16699 11 -16.5l54 -120c-37.333 -30 -78.166 -52.667 -122.499 -68s-89.166 -23 -134.499 -23c-72.667 0 -130.167 19.667 -172.5 59
s-64.833 94.666 -67.5 165.999v16.5c0 6.33301 0.5 15.666 1.5 27.999s2.66699 28.666 5 48.999s5.5 46.5 9.5 78.5l57 464h-92c-13.333 0 -23.833 4.16699 -31.5 12.5s-10.5 20.833 -8.5 37.5l12 95l152 26l84 282c4 13.333 10.667 23.666 20 30.999s21 11 35 11h133
l-40 -326h380l84 284c4 13.333 10.833 23.666 20.5 30.999s21.167 11 34.5 11h133l-40 -326h646z" />
    <glyph glyph-name="f_uni01D0.liga" unicode="f&#x1d0;" horiz-adv-x="1120" 
d="M456 1017l589.995 0.000976562l-124 -1017h-239l103 842h-343l-98 -800l-46 -188c-10.667 -32 -25.667 -56.833 -45 -74.5s-47 -26.5 -83 -26.5h-99l133 1088l-75 14c-17.333 3.33301 -31.166 9.66602 -41.499 18.999s-14.166 23 -11.499 41l12 102h138l14 113
c6.66699 54 18.834 102.5 36.501 145.5s40.334 79.5 68.001 109.5s60.334 52.833 98.001 68.5s79.5 23.5 125.5 23.5c16.667 0 32.667 -0.833008 48 -2.5s29.333 -4.5 42 -8.5l-16 -130c-1.33301 -12 -7.33301 -20.167 -18 -24.5s-23 -6.5 -37 -6.5
c-34.667 0 -61 -13.833 -79 -41.5s-30.667 -72.167 -38 -133.5zM684.995 1445l164.999 0.000976562c9.33301 0 18.5 -1.5 27.5 -4.5s14.833 -7.5 17.5 -13.5l57 -100c1.33301 -4 3.5 -8.83301 6.5 -14.5s6.16699 -12.167 9.5 -19.5l25 34l82 100
c4 5.33301 10.833 9.66602 20.5 12.999s19.834 5 30.501 5h158l-222 -277h-224z" />
    <glyph glyph-name="f_uni0209.liga" unicode="f&#x209;" horiz-adv-x="1120" 
d="M458 1017l371 0.000976562l-1 -3h219l-125 -1014h-238l103 841h-342l-98 -799l-47 -188c-10 -32 -24.667 -56.833 -44 -74.5s-47 -26.5 -83 -26.5h-99l132 1087l-75 14c-18 4 -32.167 10.5 -42.5 19.5s-14.166 22.167 -11.499 39.5l11 104h140l14 113
c8 62.667 22 116 42 160s45.667 79.833 77 107.5s67.5 47.834 108.5 60.501s86.5 19 136.5 19c27.333 0 50.333 -1 69 -3s34.5 -5.5 47.5 -10.5s23.833 -12 32.5 -21s16.667 -20.167 24 -33.5l134 -243h-113c-17.333 0 -31.333 2.5 -42 7.5s-21 14.167 -31 27.5l-76 105
c-34 0.666992 -61.833 -1.83301 -83.5 -7.5s-38.834 -15.334 -51.501 -29.001s-22.167 -31.834 -28.5 -54.501s-11.5 -51 -15.5 -85zM1006 1461c25.333 0 44.001 -4.33301 56.001 -13s21.333 -21.667 28 -39l85 -243h-98c-17.333 0 -31.833 2.5 -43.5 7.5
s-21.834 14.167 -30.501 27.5l-152 260h155z" />
    <glyph glyph-name="f_uni020B.liga" unicode="f&#x20b;" horiz-adv-x="1120" 
d="M456 1017l589.995 0.000976562l-124 -1017h-239l103 842h-343l-98 -800l-46 -188c-10.667 -32 -25.667 -56.833 -45 -74.5s-47 -26.5 -83 -26.5h-99l133 1088l-75 14c-17.333 3.33301 -31.166 9.66602 -41.499 18.999s-14.166 23 -11.499 41l12 102h138l14 113
c6.66699 54 18.834 102.5 36.501 145.5s40.334 79.5 68.001 109.5s60.334 52.833 98.001 68.5s79.5 23.5 125.5 23.5c16.667 0 32.667 -0.833008 48 -2.5s29.333 -4.5 42 -8.5l-16 -130c-1.33301 -12 -7.33301 -20.167 -18 -24.5s-23 -6.5 -37 -6.5
c-34.667 0 -61 -13.833 -79 -41.5s-30.667 -72.167 -38 -133.5zM985.995 1455c52.667 0 96.1689 -7.5 130.502 -22.5s61 -35.333 80 -61s31.333 -55.667 37 -90s6.16699 -70.5 1.5 -108.5h-166c2.66699 20 3.16699 38.167 1.5 54.5s-6.33398 30.333 -14.001 42
s-18.5 20.5 -32.5 26.5s-32.333 9 -55 9s-41.834 -3 -57.501 -9s-28.5 -14.833 -38.5 -26.5s-17.833 -25.667 -23.5 -42s-9.83398 -34.5 -12.501 -54.5h-167c4.66699 38 14 74.167 28 108.5s33.5 64.333 58.5 90s56.333 46 94 61s82.834 22.5 135.501 22.5z" />
    <glyph glyph-name="f_uni1E2F.liga" unicode="f&#x1e2f;" horiz-adv-x="1124" 
d="M460 1017h589.996l-124 -1017h-242l103 841h-340l-98 -799l-46 -188c-10.667 -32 -25.667 -56.833 -45 -74.5s-47 -26.5 -83 -26.5h-99l133 1087l-78 14c-18 4 -32.167 10.5 -42.5 19.5s-14.166 22.167 -11.499 39.5l11 104h143l14 113
c6.66699 54 18.834 102.5 36.501 145.5s40.334 79.5 68.001 109.5s60.334 52.833 98.001 68.5s79.5 23.5 125.5 23.5c16.667 0 32.667 -0.833008 48 -2.5s29.333 -4.5 42 -8.5l-16 -130c-1.33301 -12 -7.33301 -20.167 -18 -24.5s-23 -6.5 -37 -6.5
c-34.667 0 -61 -13.833 -79 -41.5s-30.667 -72.167 -38 -133.5zM1343 1601l-234 -212.001c-12.667 -13.333 -25.167 -22.5 -37.5 -27.5s-27.5 -7.5 -45.5 -7.5h-142l132 196c11.333 16.667 23.833 29.334 37.5 38.001s33.5 13 59.5 13h230zM920.996 1213
c0 -16.667 -3.33301 -32.167 -10 -46.5s-15.5 -26.833 -26.5 -37.5s-23.833 -19 -38.5 -25s-30 -9 -46 -9s-31.167 3 -45.5 9s-27 14.333 -38 25s-19.667 23.167 -26 37.5s-9.5 29.833 -9.5 46.5c0 16 3.16699 31.333 9.5 46s15 27.5 26 38.5s23.667 19.667 38 26
s29.5 9.5 45.5 9.5s31.333 -3.16699 46 -9.5s27.5 -15 38.5 -26s19.833 -23.833 26.5 -38.5s10 -30 10 -46zM1241 1213c0 -16.667 -3.16699 -32.167 -9.5 -46.5s-15 -26.833 -26 -37.5s-23.833 -19 -38.5 -25s-30.334 -9 -47.001 -9c-16 0 -31.167 3 -45.5 9
s-26.833 14.333 -37.5 25s-19.167 23.167 -25.5 37.5s-9.5 29.833 -9.5 46.5c0 16 3.16699 31.333 9.5 46s14.833 27.5 25.5 38.5s23.167 19.667 37.5 26s29.5 9.5 45.5 9.5c16.667 0 32.334 -3.16699 47.001 -9.5s27.5 -15 38.5 -26s19.667 -23.833 26 -38.5
s9.5 -30 9.5 -46z" />
    <glyph glyph-name="f_f_uni01D0.liga" unicode="ff&#x1d0;" horiz-adv-x="1720" 
d="M1056 1017l589.997 0.000976562l-21 -172l-103 -845h-239l104 845h-344l-98 -803l-46 -188c-10.667 -32 -25.667 -56.833 -45 -74.5s-47 -26.5 -83 -26.5h-99l134 1092h-357l-97 -803l-51 -188c-10.667 -32 -25.5 -56.833 -44.5 -74.5s-46.5 -26.5 -82.5 -26.5h-100
l134 1091l-78 14c-17.333 3.33301 -31.166 9.66602 -41.499 18.999s-14.166 23 -11.499 41l12 99h140l7 58c7.33301 58.667 22.5 111.334 45.5 158.001s52.167 86.334 87.5 119.001s76.166 57.667 122.499 75s96.5 26 150.5 26c43.333 0 83 -6.33301 119 -19l-23 -128
c-3.33301 -15.333 -12.5 -24.333 -27.5 -27s-32.167 -4 -51.5 -4c-26 0 -49.667 -2.83301 -71 -8.5s-40 -15.834 -56 -30.501s-29.333 -34.334 -40 -59.001s-18.334 -56 -23.001 -94l-9 -66h367l14 113c6.66699 54 18.834 102.5 36.501 145.5s40.334 79.5 68.001 109.5
s60.334 52.833 98.001 68.5s79.5 23.5 125.5 23.5c16.667 0 32.667 -0.833008 48 -2.5s29.333 -4.5 42 -8.5l-16 -130c-1.33301 -12 -7.33301 -20.167 -18 -24.5s-23 -6.5 -37 -6.5c-34.667 0 -61 -13.833 -79 -41.5s-30.667 -72.167 -38 -133.5zM1662 1168
l-223.999 0.000976562l-153 277h165c9.33301 0 18.333 -1.5 27 -4.5s14.667 -7.5 18 -13.5l57 -100c1.33301 -4 3.5 -8.83301 6.5 -14.5s6.16699 -12.167 9.5 -19.5l25 34l82 100c4 5.33301 10.667 9.66602 20 12.999s19.666 5 30.999 5h158z" />
    <glyph glyph-name="f_f_uni0209.liga" unicode="ff&#x209;" horiz-adv-x="1723" 
d="M465 1017l365.002 0.00195312l14 113c8 62.667 22 116 42 160s45.667 79.833 77 107.5s67.666 47.834 108.999 60.501s87 19 137 19c27.333 0 50.333 -1 69 -3s34.5 -5.5 47.5 -10.5s23.833 -12 32.5 -21s16.667 -20.167 24 -33.5l134 -243h-113
c-18 0 -32.167 2.5 -42.5 7.5s-20.833 14.167 -31.5 27.5l-76 105c-34 0.666992 -61.667 -1.83301 -83 -7.5s-38.333 -15.334 -51 -29.001s-22.167 -31.834 -28.5 -54.501s-11.5 -51 -15.5 -85l-14 -113h588l-1 -3h1l-124 -1014h-239l104 845h-343l-97 -803l-47 -188
c-10.667 -32 -25.5 -56.833 -44.5 -74.5s-46.5 -26.5 -82.5 -26.5h-100l133 1092h-356l-97 -803l-50 -188c-10.667 -32 -25.667 -56.833 -45 -74.5s-47 -26.5 -83 -26.5h-99l133 1090l-84 15c-17.333 3.33301 -31 9.66602 -41 18.999s-14 23 -12 41l12 99h147l7 58
c7.33301 58.667 22.5 111.334 45.5 158.001s52.167 86.334 87.5 119.001s76.166 57.667 122.499 75s96.5 26 150.5 26c43.333 0 83 -6.33301 119 -19l-23 -128c-3.33301 -15.333 -12.666 -24.333 -27.999 -27s-32.333 -4 -51 -4c-26 0 -49.667 -2.83301 -71 -8.5
s-40 -15.834 -56 -30.501s-29.333 -34.334 -40 -59.001s-18.334 -56 -23.001 -94zM1609 1461c25.333 0 44 -4.33301 56 -13s21.333 -21.667 28 -39l84 -243h-97c-18 0 -32.667 2.5 -44 7.5s-21.333 14.167 -30 27.5l-152 260h155z" />
    <glyph glyph-name="f_f_uni020B.liga" unicode="ff&#x20b;" horiz-adv-x="1719" 
d="M1056 1017l589.997 0.000976562l-21 -172l-103 -845h-239l104 845h-344l-98 -803l-46 -188c-10.667 -32 -25.667 -56.833 -45 -74.5s-47 -26.5 -83 -26.5h-99l134 1092h-357l-97 -803l-51 -188c-10.667 -32 -25.5 -56.833 -44.5 -74.5s-46.5 -26.5 -82.5 -26.5h-100
l134 1091l-78 14c-17.333 3.33301 -31.166 9.66602 -41.499 18.999s-14.166 23 -11.499 41l12 99h140l7 58c7.33301 58.667 22.5 111.334 45.5 158.001s52.167 86.334 87.5 119.001s76.166 57.667 122.499 75s96.5 26 150.5 26c43.333 0 83 -6.33301 119 -19l-23 -128
c-3.33301 -15.333 -12.5 -24.333 -27.5 -27s-32.167 -4 -51.5 -4c-26 0 -49.667 -2.83301 -71 -8.5s-40 -15.834 -56 -30.501s-29.333 -34.334 -40 -59.001s-18.334 -56 -23.001 -94l-9 -66h367l14 113c6.66699 54 18.834 102.5 36.501 145.5s40.334 79.5 68.001 109.5
s60.334 52.833 98.001 68.5s79.5 23.5 125.5 23.5c16.667 0 32.667 -0.833008 48 -2.5s29.333 -4.5 42 -8.5l-16 -130c-1.33301 -12 -7.33301 -20.167 -18 -24.5s-23 -6.5 -37 -6.5c-34.667 0 -61 -13.833 -79 -41.5s-30.667 -72.167 -38 -133.5zM1573 1455
c52.667 0 96.334 -7.5 131.001 -22.5s61.5 -35.333 80.5 -61s31.333 -55.667 37 -90s6.16699 -70.5 1.5 -108.5h-167c2.66699 20 3.16699 38.167 1.5 54.5s-6.33398 30.333 -14.001 42s-18.5 20.5 -32.5 26.5s-32.333 9 -55 9s-41.834 -3 -57.501 -9
s-28.5 -14.833 -38.5 -26.5s-17.833 -25.667 -23.5 -42s-9.83398 -34.5 -12.501 -54.5h-166c4.66699 38 13.834 74.167 27.501 108.5s33 64.333 58 90s56.333 46 94 61s82.834 22.5 135.501 22.5z" />
    <glyph glyph-name="f_f_uni1E2F.liga" unicode="ff&#x1e2f;" horiz-adv-x="1720" 
d="M1057 1017l588.998 0.000976562l-21 -172l-103 -845h-242l104 845h-341l-97 -803l-47 -188c-10.667 -32 -25.5 -56.833 -44.5 -74.5s-46.5 -26.5 -82.5 -26.5h-99l133 1092h-358l-97 -803l-50 -188c-10.667 -32 -25.667 -56.833 -45 -74.5s-47 -26.5 -83 -26.5h-99
l134 1091l-78 14c-17.333 3.33301 -31.166 9.66602 -41.499 18.999s-14.166 23 -11.499 41l12 99h140l7 58c7.33301 58.667 22.5 111.334 45.5 158.001s52.167 86.334 87.5 119.001s76.166 57.667 122.499 75s96.5 26 150.5 26c43.333 0 83 -6.33301 119 -19l-23 -128
c-3.33301 -15.333 -12.666 -24.333 -27.999 -27s-32.333 -4 -51 -4c-26 0 -49.667 -2.83301 -71 -8.5s-40 -15.834 -56 -30.501s-29.333 -34.334 -40 -59.001s-18.334 -56 -23.001 -94l-9 -66h367l14 113c6.66699 54 18.834 102.5 36.501 145.5s40.5 79.5 68.5 109.5
s60.833 52.833 98.5 68.5s79.5 23.5 125.5 23.5c16 0 31.667 -0.833008 47 -2.5s29.333 -4.5 42 -8.5l-15 -130c-1.33301 -12 -7.33301 -20.167 -18 -24.5s-23 -6.5 -37 -6.5c-35.333 0 -62 -13.833 -80 -41.5s-30.333 -72.167 -37 -133.5zM1939 1601l-233.002 -212.001
c-13.333 -13.333 -26.166 -22.5 -38.499 -27.5s-27.166 -7.5 -44.499 -7.5h-142l131 196c11.333 16.667 24 29.334 38 38.001s33.667 13 59 13h230zM1837 1213c0 -16.667 -3.16699 -32.167 -9.5 -46.5s-15 -26.833 -26 -37.5s-23.833 -19 -38.5 -25s-30.334 -9 -47.001 -9
c-16 0 -31.167 3 -45.5 9s-26.833 14.333 -37.5 25s-19.167 23.167 -25.5 37.5s-9.5 29.833 -9.5 46.5c0 16 3.16699 31.333 9.5 46s14.833 27.5 25.5 38.5s23.167 19.667 37.5 26s29.5 9.5 45.5 9.5c16.667 0 32.334 -3.16699 47.001 -9.5s27.5 -15 38.5 -26
s19.667 -23.833 26 -38.5s9.5 -30 9.5 -46zM1518 1213c0 -16.667 -3.33301 -32.167 -10 -46.5s-15.5 -26.833 -26.5 -37.5s-24 -19 -39 -25s-30.5 -9 -46.5 -9s-31.167 3 -45.5 9s-26.833 14.333 -37.5 25s-19.167 23.167 -25.5 37.5s-9.5 29.833 -9.5 46.5
c0 16 3.16699 31.333 9.5 46s14.833 27.5 25.5 38.5s23.167 19.667 37.5 26s29.5 9.5 45.5 9.5s31.5 -3.16699 46.5 -9.5s28 -15 39 -26s19.833 -23.833 26.5 -38.5s10 -30 10 -46z" />
    <glyph glyph-name="f_uni0237.liga" unicode="f&#x237;" horiz-adv-x="1123" 
d="M460 1017l587.994 0.000976562l-127 -1052c-5.33301 -44.667 -16.5 -86.667 -33.5 -126s-39.667 -73.833 -68 -103.5s-62.666 -53 -102.999 -70s-86.833 -25.5 -139.5 -25.5c-26.667 0 -49.334 1.5 -68.001 4.5s-37.334 7.83301 -56.001 14.5l24 133
c3.33301 13.333 9.5 21.833 18.5 25.5s24.833 5.5 47.5 5.5c22 0 40.833 2.5 56.5 7.5s28.834 13 39.501 24s19.167 25.5 25.5 43.5s11.166 40.333 14.499 67l106 882h-338l-98 -805l-47 -188c-10.667 -32 -25.5 -56.833 -44.5 -74.5s-46.5 -26.5 -82.5 -26.5h-100l134 1093
l-79 14c-17.333 3.33301 -31.166 9.66602 -41.499 18.999s-14.166 23 -11.499 41l12 97h141l14 113c6.66699 54 18.834 102.5 36.501 145.5s40.334 79.5 68.001 109.5s60.334 52.833 98.001 68.5s79.834 23.5 126.501 23.5c16 0 31.667 -0.833008 47 -2.5
s29.333 -4.5 42 -8.5l-16 -130c-1.33301 -12 -7.16602 -20.167 -17.499 -24.5s-22.833 -6.5 -37.5 -6.5c-34.667 0 -61 -13.833 -79 -41.5s-30.667 -72.167 -38 -133.5z" />
    <glyph glyph-name="f_f_uni0237.liga" unicode="ff&#x237;" horiz-adv-x="1722" 
d="M1057 1017l590 0.000976562l-127 -1053c-5.33301 -44.667 -16.333 -86.667 -33 -126s-39.334 -73.833 -68.001 -103.5s-63.167 -53 -103.5 -70s-86.833 -25.5 -139.5 -25.5c-26 0 -48.5 1.66699 -67.5 5s-37.833 8 -56.5 14l24 133c4 13.333 10.333 22 19 26
s24.334 6 47.001 6s41.834 2.33301 57.501 7s28.667 12.5 39 23.5s18.666 25.5 24.999 43.5s11.166 40.333 14.499 67l106 883h-339l-99 -805l-47 -188c-10 -32 -24.667 -56.833 -44 -74.5s-47 -26.5 -83 -26.5h-99l133 1094h-357l-97 -805l-51 -188
c-10.667 -32 -25.5 -56.833 -44.5 -74.5s-46.5 -26.5 -82.5 -26.5h-100l134 1093l-78 14c-17.333 3.33301 -31.166 9.66602 -41.499 18.999s-14.166 23 -11.499 41l12 97h140l7 58c7.33301 58.667 22.5 111.334 45.5 158.001s52.167 86.334 87.5 119.001
s76.166 57.667 122.499 75s96.5 26 150.5 26c43.333 0 83 -6.33301 119 -19l-23 -128c-3.33301 -15.333 -12.5 -24.333 -27.5 -27s-32.167 -4 -51.5 -4c-26 0 -49.667 -2.83301 -71 -8.5s-40 -15.834 -56 -30.501s-29.333 -34.334 -40 -59.001s-18.334 -56 -23.001 -94
l-9 -66h367l14 113c6.66699 54 18.834 102.5 36.501 145.5s40.5 79.5 68.5 109.5s60.833 52.833 98.5 68.5s79.5 23.5 125.5 23.5c16.667 0 32.667 -0.833008 48 -2.5s29.333 -4.5 42 -8.5l-16 -130c-1.33301 -12 -7.33301 -20.167 -18 -24.5s-23 -6.5 -37 -6.5
c-34.667 0 -61.167 -13.833 -79.5 -41.5s-30.833 -72.167 -37.5 -133.5z" />
    <glyph glyph-name="f_jcircumflex.liga" unicode="f&#x135;" horiz-adv-x="1123" 
d="M460 1017l587.994 0.000976562l-127 -1052c-5.33301 -44.667 -16.5 -86.667 -33.5 -126s-39.667 -73.833 -68 -103.5s-62.666 -53 -102.999 -70s-86.833 -25.5 -139.5 -25.5c-26.667 0 -49.334 1.5 -68.001 4.5s-37.334 7.83301 -56.001 14.5l24 133
c3.33301 13.333 9.5 21.833 18.5 25.5s24.833 5.5 47.5 5.5c22 0 40.833 2.5 56.5 7.5s28.834 13 39.501 24s19.167 25.5 25.5 43.5s11.166 40.333 14.499 67l106 882h-338l-98 -805l-47 -188c-10.667 -32 -25.5 -56.833 -44.5 -74.5s-46.5 -26.5 -82.5 -26.5h-100l134 1093
l-79 14c-17.333 3.33301 -31.166 9.66602 -41.499 18.999s-14.166 23 -11.499 41l12 97h141l14 113c6.66699 54 18.834 102.5 36.501 145.5s40.334 79.5 68.001 109.5s60.334 52.833 98.001 68.5s79.834 23.5 126.501 23.5c16 0 31.667 -0.833008 47 -2.5
s29.333 -4.5 42 -8.5l-16 -130c-1.33301 -12 -7.16602 -20.167 -17.499 -24.5s-22.833 -6.5 -37.5 -6.5c-34.667 0 -61 -13.833 -79 -41.5s-30.667 -72.167 -38 -133.5zM1275.99 1168h-152.003c-8.66699 0 -17.167 1.83301 -25.5 5.5s-16.5 10.167 -24.5 19.5l-78 104
c-3.33301 3.33301 -6.16602 7 -8.49902 11s-5.16602 8.33301 -8.49902 13c-3.33301 -4.66699 -7 -9 -11 -13l-11 -11l-103 -104c-8.66699 -8.66699 -17.667 -15 -27 -19s-18.666 -6 -27.999 -6h-158l242 278h214z" />
    <glyph glyph-name="f_lcaron.liga" unicode="f&#x13e;" horiz-adv-x="1143" 
d="M1385 1487c15.333 0 24.9971 -3.33203 28.9971 -9.99902s6 -13.334 6 -20.001c0 -6 -1.16699 -13.5 -3.5 -22.5s-7.66602 -23 -15.999 -42s-20.666 -44.833 -36.999 -77.5l-66.5 -128c-10.667 -19.333 -22.667 -31.5 -36 -36.5s-30.666 -7.5 -51.999 -7.5h-60l100 344
h136zM448.997 841.001l-98.999 -800.001l-51 -188c-10 -32 -24.667 -57 -44 -75s-47 -27 -83 -27h-99l133 1089l-75 14c-18 4 -32.167 10.5 -42.5 19.5s-14.166 22.167 -11.499 39.5l12 104h138l6 45c6.66699 54.667 21 106.834 43 156.501s51.667 93.5 89 131.5
s82.5 68.167 135.5 90.5s113.5 33.5 181.5 33.5c56.667 0 110 -2 160 -6s100.667 -6 152 -6h137l-180 -1462h-239l156 1286c-28.667 3.33301 -57.334 6.5 -86.001 9.5s-56.334 4.5 -83.001 4.5c-66.667 0 -120.167 -20 -160.5 -60s-64.5 -99.333 -72.5 -178l-5 -45h217
l-21 -176h-208z" />
    <glyph glyph-name="f_lcommaaccent.liga" unicode="f&#x13c;" horiz-adv-x="1143" 
d="M449 841l-98.999 -800.001l-51 -188c-10 -32 -24.667 -57 -44 -75s-47 -27 -83 -27h-99l133 1089l-75 14c-18 4 -32.167 10.5 -42.5 19.5s-14.166 22.167 -11.499 39.5l12 104h138l6 45c6.66699 54.667 21 106.834 43 156.501s51.667 93.5 89 131.5
s82.5 68.167 135.5 90.5s113.5 33.5 181.5 33.5c56.667 0 110 -2 160 -6s100.667 -6 152 -6h137l-180 -1462h-239l156 1286c-28.667 3.33301 -57.334 6.5 -86.001 9.5s-56.334 4.5 -83.001 4.5c-66.667 0 -120.167 -20 -160.5 -60s-64.5 -99.333 -72.5 -178l-5 -45h217
l-21 -176h-208zM887.001 -90.001c15.333 0 25.168 -3.33398 29.501 -10.001s6.5 -13.334 6.5 -20.001c0 -7.33301 -1.33301 -16.666 -4 -27.999s-7.33398 -25.666 -14.001 -42.999s-16.167 -38.5 -28.5 -63.5s-27.833 -54.833 -46.5 -89.5
c-10.667 -18.667 -23 -30.667 -37 -36s-31.667 -8 -53 -8h-87l83 298h151z" />
    <glyph glyph-name="f_uni021B.liga" unicode="f&#x21b;" horiz-adv-x="1345" 
d="M462 1017h386.996l83 281c4.66699 13.333 11.667 23.666 21 30.999s20.666 11 33.999 11h133l-40 -323h248l-20 -170h-249l-56 -453l-8 -65c-2 -16 -3.5 -28.5 -4.5 -37.5s-1.66699 -15.333 -2 -19s-0.5 -6.16699 -0.5 -7.5c0 -25.333 6.16699 -45.333 18.5 -60
s30.166 -22 53.499 -22c14 0 25.833 1.83301 35.5 5.5s18.334 7.5 26.001 11.5s14.334 7.83301 20.001 11.5s11.167 5.5 16.5 5.5c7.33301 0 13 -1.83301 17 -5.5s7.66699 -9.16699 11 -16.5l54 -120c-37.333 -30 -78.166 -52.667 -122.499 -68s-89.166 -23 -134.499 -23
c-72.667 0 -130.167 19.667 -172.5 59s-64.833 94.666 -67.5 165.999c0 4.66699 0.166992 10.167 0.5 16.5s1 15.666 2 27.999s2.5 28.666 4.5 48.999s5 46.5 9 78.5l58 466h-367l-98 -805l-51 -188c-10 -32 -24.667 -56.833 -44 -74.5s-47 -26.5 -83 -26.5h-99l132 1093
l-77 14c-17.333 3.33301 -31.166 9.66602 -41.499 18.999s-14.166 23 -11.499 41l12 97h139l9 76c7.33301 58.667 22.833 111.334 46.5 158.001s53.667 86.334 90 119.001s78 57.667 125 75s97.833 26 152.5 26c43.333 0 83 -6.33301 119 -19l-23 -128
c-1.33301 -7.33301 -4.33301 -13.166 -9 -17.499s-10.667 -7.5 -18 -9.5s-15.5 -3.33301 -24.5 -4s-18.167 -1 -27.5 -1c-27.333 0 -52 -3.66699 -74 -11s-41.5 -19.166 -58.5 -35.499s-31 -37.666 -42 -63.999s-18.833 -58.5 -23.5 -96.5zM1010 -90
c15.333 0 25.168 -3.33398 29.501 -10.001s6.5 -13.334 6.5 -20.001c0 -7.33301 -1.33301 -16.666 -4 -27.999s-7.33398 -25.666 -14.001 -42.999s-16.167 -38.5 -28.5 -63.5s-27.833 -54.833 -46.5 -89.5c-10.667 -18.667 -23 -30.667 -37 -36s-31.667 -8 -53 -8h-87
l83 298h151z" />
    <glyph glyph-name="f_tcaron.liga" unicode="f&#x165;" horiz-adv-x="1345" 
d="M1401 1487c14.667 0 24.167 -3.33203 28.5 -9.99902s6.5 -13.334 6.5 -20.001c0 -6 -1.16699 -13.5 -3.5 -22.5s-7.66602 -23 -15.999 -42s-20.666 -44.833 -36.999 -77.5l-66.5 -128c-10.667 -19.333 -22.834 -31.5 -36.501 -36.5s-30.834 -7.5 -51.501 -7.5h-61
l100 344h137zM462 1017h386.996l83 281c4.66699 13.333 11.667 23.666 21 30.999s20.666 11 33.999 11h133l-40 -323h248l-20 -170h-249l-56 -453l-8 -65c-2 -16 -3.5 -28.5 -4.5 -37.5s-1.66699 -15.333 -2 -19s-0.5 -6.16699 -0.5 -7.5
c0 -25.333 6.16699 -45.333 18.5 -60s30.166 -22 53.499 -22c14 0 25.833 1.83301 35.5 5.5s18.334 7.5 26.001 11.5s14.334 7.83301 20.001 11.5s11.167 5.5 16.5 5.5c7.33301 0 13 -1.83301 17 -5.5s7.66699 -9.16699 11 -16.5l54 -120
c-37.333 -30 -78.166 -52.667 -122.499 -68s-89.166 -23 -134.499 -23c-72.667 0 -130.167 19.667 -172.5 59s-64.833 94.666 -67.5 165.999c0 4.66699 0.166992 10.167 0.5 16.5s1 15.666 2 27.999s2.5 28.666 4.5 48.999s5 46.5 9 78.5l58 466h-367l-98 -805l-51 -188
c-10 -32 -24.667 -56.833 -44 -74.5s-47 -26.5 -83 -26.5h-99l132 1093l-77 14c-17.333 3.33301 -31.166 9.66602 -41.499 18.999s-14.166 23 -11.499 41l12 97h139l9 76c7.33301 58.667 22.833 111.334 46.5 158.001s53.667 86.334 90 119.001s78 57.667 125 75
s97.833 26 152.5 26c43.333 0 83 -6.33301 119 -19l-23 -128c-1.33301 -7.33301 -4.33301 -13.166 -9 -17.499s-10.667 -7.5 -18 -9.5s-15.5 -3.33301 -24.5 -4s-18.167 -1 -27.5 -1c-27.333 0 -52 -3.66699 -74 -11s-41.5 -19.166 -58.5 -35.499s-31 -37.666 -42 -63.999
s-18.833 -58.5 -23.5 -96.5z" />
    <glyph glyph-name="f_uni1ECB.liga" unicode="f&#x1ecb;" horiz-adv-x="1124" 
d="M460 1017l589.998 -0.000976562l-124 -1017h-242l103 841h-340l-97 -800l-51 -188c-10 -32 -24.667 -57 -44 -75s-47 -27 -83 -27h-99l134 1089l-76 14c-18 4 -32 10.5 -42 19.5s-14 22.167 -12 39.5l11 104h141l4 33c7.33301 62.667 23.833 120.5 49.5 173.5
s60.5 99 104.5 138s97.333 69.5 160 91.5s135 33 217 33c26 0 53.5 -1.5 82.5 -4.5s53.167 -7.83301 72.5 -14.5l-24 -123c-3.33301 -15.333 -12.666 -24.166 -27.999 -26.499s-33.666 -3.5 -54.999 -3.5c-60 0 -111 -5.5 -153 -16.5s-76.5 -27.667 -103.5 -50
s-47.833 -50.333 -62.5 -84s-24.667 -73.167 -30 -118.5zM911.998 -249.001c0 -20 -3.99805 -38.667 -11.998 -56s-18.833 -32.5 -32.5 -45.5s-29.167 -23.333 -46.5 -31s-35 -11.5 -53 -11.5s-35.333 3.83301 -52 11.5s-31.334 18 -44.001 31s-22.834 28.167 -30.501 45.5
s-11.5 36 -11.5 56c0 19.333 3.83301 37.833 11.5 55.5s18 33.167 31 46.5s28 23.833 45 31.5s34.5 11.5 52.5 11.5s35.667 -3.83301 53 -11.5s32.5 -18 45.5 -31s23.5 -28.333 31.5 -46s12 -36.5 12 -56.5z" />
    <glyph glyph-name="f_uni1E2D.liga" unicode="f&#x1e2d;" horiz-adv-x="1124" 
d="M460 1017l589.998 -0.000976562l-124 -1017h-242l103 841h-340l-97 -800l-51 -188c-10 -32 -24.667 -57 -44 -75s-47 -27 -83 -27h-99l134 1089l-76 14c-18 4 -32 10.5 -42 19.5s-14 22.167 -12 39.5l11 104h141l4 33c7.33301 62.667 23.833 120.5 49.5 173.5
s60.5 99 104.5 138s97.333 69.5 160 91.5s135 33 217 33c26 0 53.5 -1.5 82.5 -4.5s53.167 -7.83301 72.5 -14.5l-24 -123c-3.33301 -15.333 -12.666 -24.166 -27.999 -26.499s-33.666 -3.5 -54.999 -3.5c-60 0 -111 -5.5 -153 -16.5s-76.5 -27.667 -103.5 -50
s-47.833 -50.333 -62.5 -84s-24.667 -73.167 -30 -118.5zM891.998 -154.001c18 0 32.833 5.50098 44.5 16.501s19.167 30.833 22.5 59.5h139c-4.66699 -37.333 -13.5 -71.166 -26.5 -101.499s-29 -56.333 -48 -78s-40.667 -38.334 -65 -50.001s-50.166 -17.5 -77.499 -17.5
c-22 0 -42.167 4.33301 -60.5 13s-35.166 18 -50.499 28l-43.5 28c-13.667 8.66699 -26.5 13 -38.5 13c-18 0 -32.667 -5.83301 -44 -17.5s-18.666 -31.5 -21.999 -59.5h-140c4 37.333 12.667 71.166 26 101.499s29.666 56.333 48.999 78s41.166 38.5 65.499 50.5
s50.166 18 77.499 18c22 0 42.167 -4.33301 60.5 -13s35.333 -18 51 -28l43 -28c13 -8.66699 25.5 -13 37.5 -13z" />
    <glyph glyph-name="f_uni0268.liga" unicode="f&#x268;" horiz-adv-x="1174" 
d="M754 572l32.998 268.999h-340l-97 -800l-51 -188c-10 -32 -24.667 -57 -44 -75s-47 -27 -83 -27h-99l134 1089l-76 14c-18 4 -32 10.5 -42 19.5s-14 22.167 -12 39.5l11 104h141l4 33c7.33301 62.667 23.833 120.5 49.5 173.5s60.5 99 104.5 138s97.333 69.5 160 91.5
s135 33 217 33c26 0 53.5 -1.5 82.5 -4.5s53.167 -7.83301 72.5 -14.5l-24 -123c-3.33301 -15.333 -12.666 -24.166 -27.999 -26.499s-33.666 -3.5 -54.999 -3.5c-60 0 -111 -5.5 -153 -16.5s-76.5 -27.667 -103.5 -50s-47.833 -50.333 -62.5 -84
s-24.667 -73.167 -30 -118.5l-3 -28h590l-55 -445h140l-21 -169h-139l-49 -403h-242l49 403h-109l20 169h110z" />
    <glyph glyph-name="f_iacute.liga" unicode="f&#xed;" horiz-adv-x="1124" 
d="M460 1017h589.996l-124 -1017h-242l103 841h-340l-98 -799l-46 -188c-10.667 -32 -25.667 -56.833 -45 -74.5s-47 -26.5 -83 -26.5h-99l133 1087l-78 14c-18 4 -32.167 10.5 -42.5 19.5s-14.166 22.167 -11.499 39.5l11 104h143l14 113
c6.66699 54 18.834 102.5 36.501 145.5s40.334 79.5 68.001 109.5s60.334 52.833 98.001 68.5s79.5 23.5 125.5 23.5c16.667 0 32.667 -0.833008 48 -2.5s29.333 -4.5 42 -8.5l-16 -130c-1.33301 -12 -7.33301 -20.167 -18 -24.5s-23 -6.5 -37 -6.5
c-34.667 0 -61 -13.833 -79 -41.5s-30.667 -72.167 -38 -133.5zM1286 1462l-257 -261c-12.667 -13.333 -24.667 -22.5 -36 -27.5s-25.666 -7.5 -42.999 -7.5h-136l158 243c11.333 17.333 23.666 30.5 36.999 39.5s32.333 13.5 57 13.5h220z" />
    <glyph glyph-name="f_uni1EC9.liga" unicode="f&#x1ec9;" horiz-adv-x="1124" 
d="M460 1017h589.996l-124 -1017h-242l103 841h-340l-98 -799l-46 -188c-10.667 -32 -25.667 -56.833 -45 -74.5s-47 -26.5 -83 -26.5h-99l133 1087l-78 14c-18 4 -32.167 10.5 -42.5 19.5s-14.166 22.167 -11.499 39.5l11 104h143l14 113
c6.66699 54 18.834 102.5 36.501 145.5s40.334 79.5 68.001 109.5s60.334 52.833 98.001 68.5s79.5 23.5 125.5 23.5c16.667 0 32.667 -0.833008 48 -2.5s29.333 -4.5 42 -8.5l-16 -130c-1.33301 -12 -7.33301 -20.167 -18 -24.5s-23 -6.5 -37 -6.5
c-34.667 0 -61 -13.833 -79 -41.5s-30.667 -72.167 -38 -133.5zM791.996 1444c21.333 16.667 50.167 30 86.5 40s74.166 15 113.499 15c63.333 0 109 -13 137 -39s39.667 -59 35 -99c-4 -35.333 -18.333 -66.333 -43 -93s-54 -47.667 -88 -63l-29 -85h-108l17 150
c32 4.66699 54.333 13 67 25s19.667 25 21 39s-1.83398 25.667 -9.50098 35s-21.5 14 -41.5 14c-11.333 0 -21.666 -1.33301 -30.999 -4s-18 -5.66699 -26 -9l-21.5 -9c-6.33301 -2.66699 -12.166 -4 -17.499 -4c-7.33301 0 -12.833 2 -16.5 6s-7.16699 9.33301 -10.5 16z
" />
    <glyph glyph-name="f_f_uni1ECB.liga" unicode="ff&#x1ecb;" horiz-adv-x="1720" 
d="M460 1017h366.998l4 33c7.33301 62.667 23.833 120.5 49.5 173.5s60.5 99 104.5 138s97.5 69.5 160.5 91.5s135.5 33 217.5 33c12.667 0 26 -0.333008 40 -1s27.833 -1.83398 41.5 -3.50098s26.834 -3.66699 39.501 -6s23.667 -5.16602 33 -8.49902l-24 -123
c-3.33301 -15.333 -12.666 -24.166 -27.999 -26.499s-33.333 -3.5 -54 -3.5c-60.667 0 -112 -5.5 -154 -16.5s-76.5 -27.667 -103.5 -50s-47.833 -50.333 -62.5 -84s-24.667 -73.167 -30 -118.5l-3 -28h588l-124 -1017h-239l104 847h-341l-98 -806l-51 -188
c-10 -32 -24.667 -57 -44 -75s-47 -27 -83 -27h-99l135 1096h-357l-97 -805l-51 -188c-10.667 -32 -25.5 -56.833 -44.5 -74.5s-46.5 -26.5 -82.5 -26.5h-100l134 1093l-78 14c-17.333 3.33301 -31.166 9.66602 -41.499 18.999s-14.166 23 -11.499 41l12 97h140l7 58
c7.33301 58.667 22.5 111.334 45.5 158.001s52.167 86.334 87.5 119.001s76.166 57.667 122.499 75s96.5 26 150.5 26c43.333 0 83 -6.33301 119 -19l-23 -128c-3.33301 -15.333 -12.5 -24.333 -27.5 -27s-32.167 -4 -51.5 -4c-26 0 -49.667 -2.83301 -71 -8.5
s-40 -15.834 -56 -30.501s-29.333 -34.334 -40 -59.001s-18.334 -56 -23.001 -94zM1511 -249c0 -20 -3.99805 -38.667 -11.998 -56s-18.833 -32.5 -32.5 -45.5s-29.167 -23.333 -46.5 -31s-35 -11.5 -53 -11.5s-35.333 3.83301 -52 11.5s-31.334 18 -44.001 31
s-22.834 28.167 -30.501 45.5s-11.5 36 -11.5 56c0 19.333 3.83301 37.833 11.5 55.5s18 33.167 31 46.5s28 23.833 45 31.5s34.5 11.5 52.5 11.5s35.667 -3.83301 53 -11.5s32.5 -18 45.5 -31s23.5 -28.333 31.5 -46s12 -36.5 12 -56.5z" />
    <glyph glyph-name="f_f_uni1E2D.liga" unicode="ff&#x1e2d;" horiz-adv-x="1720" 
d="M460 1017h366.998l4 33c7.33301 62.667 23.833 120.5 49.5 173.5s60.5 99 104.5 138s97.5 69.5 160.5 91.5s135.5 33 217.5 33c12.667 0 26 -0.333008 40 -1s27.833 -1.83398 41.5 -3.50098s26.834 -3.66699 39.501 -6s23.667 -5.16602 33 -8.49902l-24 -123
c-3.33301 -15.333 -12.666 -24.166 -27.999 -26.499s-33.333 -3.5 -54 -3.5c-60.667 0 -112 -5.5 -154 -16.5s-76.5 -27.667 -103.5 -50s-47.833 -50.333 -62.5 -84s-24.667 -73.167 -30 -118.5l-3 -28h588l-124 -1017h-239l104 847h-341l-98 -806l-51 -188
c-10 -32 -24.667 -57 -44 -75s-47 -27 -83 -27h-99l135 1096h-357l-97 -805l-51 -188c-10.667 -32 -25.5 -56.833 -44.5 -74.5s-46.5 -26.5 -82.5 -26.5h-100l134 1093l-78 14c-17.333 3.33301 -31.166 9.66602 -41.499 18.999s-14.166 23 -11.499 41l12 97h140l7 58
c7.33301 58.667 22.5 111.334 45.5 158.001s52.167 86.334 87.5 119.001s76.166 57.667 122.499 75s96.5 26 150.5 26c43.333 0 83 -6.33301 119 -19l-23 -128c-3.33301 -15.333 -12.5 -24.333 -27.5 -27s-32.167 -4 -51.5 -4c-26 0 -49.667 -2.83301 -71 -8.5
s-40 -15.834 -56 -30.501s-29.333 -34.334 -40 -59.001s-18.334 -56 -23.001 -94zM1479 -154c18 0 32.833 5.50098 44.5 16.501s19.167 30.833 22.5 59.5h139c-4.66699 -37.333 -13.5 -71.166 -26.5 -101.499s-29 -56.333 -48 -78s-40.667 -38.334 -65 -50.001
s-50.166 -17.5 -77.499 -17.5c-22 0 -42.167 4.33301 -60.5 13s-35.166 18 -50.499 28l-43.5 28c-13.667 8.66699 -26.5 13 -38.5 13c-18 0 -32.667 -5.83301 -44 -17.5s-18.666 -31.5 -21.999 -59.5h-140c4 37.333 12.667 71.166 26 101.499s29.666 56.333 48.999 78
s41.166 38.5 65.499 50.5s50.166 18 77.499 18c22 0 42.167 -4.33301 60.5 -13s35.333 -18 51 -28l43 -28c13 -8.66699 25.5 -13 37.5 -13z" />
    <glyph glyph-name="f_f_uni0268.liga" unicode="ff&#x268;" horiz-adv-x="1750" 
d="M1353 572l33.998 275h-341l-98 -806l-51 -188c-10 -32 -24.667 -57 -44 -75s-47 -27 -83 -27h-99l135 1096h-357l-97 -805l-51 -188c-10.667 -32 -25.5 -56.833 -44.5 -74.5s-46.5 -26.5 -82.5 -26.5h-100l134 1093l-78 14
c-17.333 3.33301 -31.166 9.66602 -41.499 18.999s-14.166 23 -11.499 41l12 97h140l7 58c7.33301 58.667 22.5 111.334 45.5 158.001s52.167 86.334 87.5 119.001s76.166 57.667 122.499 75s96.5 26 150.5 26c43.333 0 83 -6.33301 119 -19l-23 -128
c-3.33301 -15.333 -12.5 -24.333 -27.5 -27s-32.167 -4 -51.5 -4c-26 0 -49.667 -2.83301 -71 -8.5s-40 -15.834 -56 -30.501s-29.333 -34.334 -40 -59.001s-18.334 -56 -23.001 -94l-9 -66h367l4 33c7.33301 62.667 23.833 120.5 49.5 173.5s60.5 99 104.5 138
s97.5 69.5 160.5 91.5s135.5 33 217.5 33c12.667 0 26 -0.333008 40 -1s27.833 -1.83398 41.5 -3.50098s26.834 -3.66699 39.501 -6s23.667 -5.16602 33 -8.49902l-24 -123c-3.33301 -15.333 -12.666 -24.166 -27.999 -26.499s-33.333 -3.5 -54 -3.5
c-60.667 0 -112 -5.5 -154 -16.5s-76.5 -27.667 -103.5 -50s-47.833 -50.333 -62.5 -84s-24.667 -73.167 -30 -118.5l-3 -28h588l-55 -445h127l-21 -169h-126l-49 -403h-239l49 403h-125l20 169h126z" />
    <glyph glyph-name="f_f_iacute.liga" unicode="ff&#xed;" horiz-adv-x="1720" 
d="M1058 1017l587.999 0.000976562l-124 -1017h-239l104 847h-342l-98 -805l-47 -188c-10.667 -32 -25.5 -56.833 -44.5 -74.5s-46.5 -26.5 -82.5 -26.5h-99l133 1094h-358l-97 -805l-51 -188c-10.667 -32 -25.5 -56.833 -44.5 -74.5s-46.5 -26.5 -82.5 -26.5h-100l134 1093
l-78 14c-17.333 3.33301 -31.166 9.66602 -41.499 18.999s-14.166 23 -11.499 41l12 97h140l7 58c7.33301 58.667 22.5 111.334 45.5 158.001s52.167 86.334 87.5 119.001s76.166 57.667 122.499 75s96.5 26 150.5 26c43.333 0 83 -6.33301 119 -19l-23 -128
c-3.33301 -15.333 -12.5 -24.333 -27.5 -27s-32.167 -4 -51.5 -4c-26 0 -49.667 -2.83301 -71 -8.5s-40 -15.834 -56 -30.501s-29.333 -34.334 -40 -59.001s-18.334 -56 -23.001 -94l-9 -66h368l14 113c6.66699 54 18.834 102.5 36.501 145.5s40.5 79.5 68.5 109.5
s60.833 52.833 98.5 68.5s79.5 23.5 125.5 23.5c16 0 31.667 -0.833008 47 -2.5s29.333 -4.5 42 -8.5l-15 -130c-1.33301 -12 -7.33301 -20.167 -18 -24.5s-23 -6.5 -37 -6.5c-35.333 0 -62 -13.833 -80 -41.5s-30.333 -72.167 -37 -133.5zM1891 1462l-257 -261
c-12.667 -13.333 -24.667 -22.5 -36 -27.5s-25.666 -7.5 -42.999 -7.5h-136l158 243c11.333 17.333 23.666 30.5 36.999 39.5s32.333 13.5 57 13.5h220z" />
    <glyph glyph-name="f_f_uni1EC9.liga" unicode="ff&#x1ec9;" horiz-adv-x="1711" 
d="M1058 1017l587.999 0.000976562l-124 -1017h-239l104 847h-342l-98 -805l-47 -188c-10.667 -32 -25.5 -56.833 -44.5 -74.5s-46.5 -26.5 -82.5 -26.5h-99l133 1094h-358l-97 -805l-51 -188c-10.667 -32 -25.5 -56.833 -44.5 -74.5s-46.5 -26.5 -82.5 -26.5h-100l134 1093
l-78 14c-17.333 3.33301 -31.166 9.66602 -41.499 18.999s-14.166 23 -11.499 41l12 97h140l7 58c7.33301 58.667 22.5 111.334 45.5 158.001s52.167 86.334 87.5 119.001s76.166 57.667 122.499 75s96.5 26 150.5 26c43.333 0 83 -6.33301 119 -19l-23 -128
c-3.33301 -15.333 -12.5 -24.333 -27.5 -27s-32.167 -4 -51.5 -4c-26 0 -49.667 -2.83301 -71 -8.5s-40 -15.834 -56 -30.501s-29.333 -34.334 -40 -59.001s-18.334 -56 -23.001 -94l-9 -66h368l14 113c6.66699 54 18.834 102.5 36.501 145.5s40.5 79.5 68.5 109.5
s60.833 52.833 98.5 68.5s79.5 23.5 125.5 23.5c16 0 31.667 -0.833008 47 -2.5s29.333 -4.5 42 -8.5l-15 -130c-1.33301 -12 -7.33301 -20.167 -18 -24.5s-23 -6.5 -37 -6.5c-35.333 0 -62 -13.833 -80 -41.5s-30.333 -72.167 -37 -133.5zM1388 1444
c21.333 16.667 50.167 30 86.5 40s74.166 15 113.499 15c63.333 0 109 -13 137 -39s39.667 -59 35 -99c-4 -35.333 -18.333 -66.333 -43 -93s-54 -47.667 -88 -63l-29 -85h-108l17 150c32 4.66699 54.333 13 67 25s19.667 25 21 39s-1.83398 25.667 -9.50098 35
s-21.5 14 -41.5 14c-11.333 0 -21.666 -1.33301 -30.999 -4s-18 -5.66699 -26 -9l-21.5 -9c-6.33301 -2.66699 -12.166 -4 -17.499 -4c-7.33301 0 -12.833 2 -16.5 6s-7.16699 9.33301 -10.5 16z" />
    <glyph glyph-name="f_lacute.liga" unicode="f&#x13a;" horiz-adv-x="1143" 
d="M449 841l-98.999 -800.001l-51 -188c-10 -32 -24.667 -57 -44 -75s-47 -27 -83 -27h-99l133 1089l-75 14c-18 4 -32.167 10.5 -42.5 19.5s-14.166 22.167 -11.499 39.5l12 104h138l6 45c6.66699 54.667 21 106.834 43 156.501s51.667 93.5 89 131.5
s82.5 68.167 135.5 90.5s113.5 33.5 181.5 33.5c56.667 0 110 -2 160 -6s100.667 -6 152 -6h137l-180 -1462h-239l156 1286c-28.667 3.33301 -57.334 6.5 -86.001 9.5s-56.334 4.5 -83.001 4.5c-66.667 0 -120.167 -20 -160.5 -60s-64.5 -99.333 -72.5 -178l-5 -45h217
l-21 -176h-208zM1487 1861l-330.001 -286.002c-14 -12 -26.5 -19.333 -37.5 -22s-25.167 -4 -42.5 -4h-164l223 271c7.33301 9.33301 14.333 16.833 21 22.5s13.834 9.83398 21.501 12.501s16 4.33398 25 5.00098s19.5 1 31.5 1h252z" />
    <glyph glyph-name="t_i.liga" unicode="ti" horiz-adv-x="1202" 
d="M1003 0l-238.002 0.00390625l104 845h-427l-56 -451l-8 -65c-2 -16 -3.5 -28.5 -4.5 -37.5s-1.66699 -15.333 -2 -19s-0.5 -6.16699 -0.5 -7.5c0 -25.333 6.16699 -45.333 18.5 -60s29.833 -22 52.5 -22c14 0 26 1.83301 36 5.5s18.667 7.5 26 11.5s14 7.83301 20 11.5
s11.667 5.5 17 5.5c7.33301 0 13 -1.83301 17 -5.5s7.66699 -9.16699 11 -16.5l54 -120c-37.333 -30 -78.166 -52.667 -122.499 -68s-89.166 -23 -134.499 -23c-72.667 0 -130.167 19.667 -172.5 59s-64.833 94.666 -67.5 165.999v16.5c0 6.33301 0.5 15.666 1.5 27.999
s2.66699 28.666 5 48.999s5.5 46.5 9.5 78.5l57 464h-92c-13.333 0 -23.833 4.16699 -31.5 12.5s-10.5 20.833 -8.5 37.5l12 95l152 26l84 282c4 13.333 10.667 23.666 20 30.999s21 11 35 11h133l-40 -326h665zM1213 1325c0 -21.333 -4.5 -41.3301 -13.5 -59.9971
s-20.667 -35 -35 -49s-30.833 -25.167 -49.5 -33.5s-38 -12.5 -58 -12.5c-19.333 0 -38.166 4.16699 -56.499 12.5s-34.5 19.5 -48.5 33.5s-25.167 30.333 -33.5 49s-12.5 38.667 -12.5 60s4.33301 41.666 13 60.999s20 36.166 34 50.499s30.167 25.666 48.5 33.999
s37.166 12.5 56.499 12.5c20 0 39.333 -4.16699 58 -12.5s35.167 -19.5 49.5 -33.5s25.833 -30.667 34.5 -50s13 -40 13 -62z" />
    <glyph glyph-name="t_igrave.liga" unicode="t&#xec;" horiz-adv-x="1202" 
d="M1003 0l-238.002 0.00390625l104 845h-427l-56 -451l-8 -65c-2 -16 -3.5 -28.5 -4.5 -37.5s-1.66699 -15.333 -2 -19s-0.5 -6.16699 -0.5 -7.5c0 -25.333 6.16699 -45.333 18.5 -60s29.833 -22 52.5 -22c14 0 26 1.83301 36 5.5s18.667 7.5 26 11.5s14 7.83301 20 11.5
s11.667 5.5 17 5.5c7.33301 0 13 -1.83301 17 -5.5s7.66699 -9.16699 11 -16.5l54 -120c-37.333 -30 -78.166 -52.667 -122.499 -68s-89.166 -23 -134.499 -23c-72.667 0 -130.167 19.667 -172.5 59s-64.833 94.666 -67.5 165.999v16.5c0 6.33301 0.5 15.666 1.5 27.999
s2.66699 28.666 5 48.999s5.5 46.5 9.5 78.5l57 464h-92c-13.333 0 -23.833 4.16699 -31.5 12.5s-10.5 20.833 -8.5 37.5l12 95l152 26l84 282c4 13.333 10.667 23.666 20 30.999s21 11 35 11h133l-40 -326h665zM965.998 1462c24 0 41.666 -4.5 52.999 -13.5
s20.666 -22.167 27.999 -39.5l103 -243h-129c-17.333 0 -31.166 2.5 -41.499 7.5s-20.166 14.167 -29.499 27.5l-198 261h214z" />
    <glyph glyph-name="t_iacute.liga" unicode="t&#xed;" horiz-adv-x="1202" 
d="M1003 0l-238.002 0.00390625l104 845h-427l-56 -451l-8 -65c-2 -16 -3.5 -28.5 -4.5 -37.5s-1.66699 -15.333 -2 -19s-0.5 -6.16699 -0.5 -7.5c0 -25.333 6.16699 -45.333 18.5 -60s29.833 -22 52.5 -22c14 0 26 1.83301 36 5.5s18.667 7.5 26 11.5s14 7.83301 20 11.5
s11.667 5.5 17 5.5c7.33301 0 13 -1.83301 17 -5.5s7.66699 -9.16699 11 -16.5l54 -120c-37.333 -30 -78.166 -52.667 -122.499 -68s-89.166 -23 -134.499 -23c-72.667 0 -130.167 19.667 -172.5 59s-64.833 94.666 -67.5 165.999v16.5c0 6.33301 0.5 15.666 1.5 27.999
s2.66699 28.666 5 48.999s5.5 46.5 9.5 78.5l57 464h-92c-13.333 0 -23.833 4.16699 -31.5 12.5s-10.5 20.833 -8.5 37.5l12 95l152 26l84 282c4 13.333 10.667 23.666 20 30.999s21 11 35 11h133l-40 -326h665zM1382 1462l-257 -261
c-12.667 -13.333 -24.667 -22.5 -36 -27.5s-25.666 -7.5 -42.999 -7.5h-136l158 243c11.333 17.333 23.666 30.5 36.999 39.5s32.333 13.5 57 13.5h220z" />
    <glyph glyph-name="t_icircumflex.liga" unicode="t&#xee;" horiz-adv-x="1201" 
d="M1003 0l-238.002 0.00390625l104 845h-427l-56 -451l-8 -65c-2 -16 -3.5 -28.5 -4.5 -37.5s-1.66699 -15.333 -2 -19s-0.5 -6.16699 -0.5 -7.5c0 -25.333 6.16699 -45.333 18.5 -60s29.833 -22 52.5 -22c14 0 26 1.83301 36 5.5s18.667 7.5 26 11.5s14 7.83301 20 11.5
s11.667 5.5 17 5.5c7.33301 0 13 -1.83301 17 -5.5s7.66699 -9.16699 11 -16.5l54 -120c-37.333 -30 -78.166 -52.667 -122.499 -68s-89.166 -23 -134.499 -23c-72.667 0 -130.167 19.667 -172.5 59s-64.833 94.666 -67.5 165.999v16.5c0 6.33301 0.5 15.666 1.5 27.999
s2.66699 28.666 5 48.999s5.5 46.5 9.5 78.5l57 464h-92c-13.333 0 -23.833 4.16699 -31.5 12.5s-10.5 20.833 -8.5 37.5l12 95l152 26l84 282c4 13.333 10.667 23.666 20 30.999s21 11 35 11h133l-40 -326h665zM1358 1168h-152.003c-8.66699 0 -17.167 1.83301 -25.5 5.5
s-16.5 10.167 -24.5 19.5l-78 104c-3.33301 3.33301 -6.16602 7 -8.49902 11s-5.16602 8.33301 -8.49902 13c-3.33301 -4.66699 -7 -9 -11 -13l-11 -11l-103 -104c-8.66699 -8.66699 -17.667 -15 -27 -19s-18.666 -6 -27.999 -6h-158l242 278h214z" />
    <glyph glyph-name="t_idieresis.liga" unicode="t&#xef;" horiz-adv-x="1201" 
d="M1003 0l-238.002 0.00390625l104 845h-427l-56 -451l-8 -65c-2 -16 -3.5 -28.5 -4.5 -37.5s-1.66699 -15.333 -2 -19s-0.5 -6.16699 -0.5 -7.5c0 -25.333 6.16699 -45.333 18.5 -60s29.833 -22 52.5 -22c14 0 26 1.83301 36 5.5s18.667 7.5 26 11.5s14 7.83301 20 11.5
s11.667 5.5 17 5.5c7.33301 0 13 -1.83301 17 -5.5s7.66699 -9.16699 11 -16.5l54 -120c-37.333 -30 -78.166 -52.667 -122.499 -68s-89.166 -23 -134.499 -23c-72.667 0 -130.167 19.667 -172.5 59s-64.833 94.666 -67.5 165.999v16.5c0 6.33301 0.5 15.666 1.5 27.999
s2.66699 28.666 5 48.999s5.5 46.5 9.5 78.5l57 464h-92c-13.333 0 -23.833 4.16699 -31.5 12.5s-10.5 20.833 -8.5 37.5l12 95l152 26l84 282c4 13.333 10.667 23.666 20 30.999s21 11 35 11h133l-40 -326h665zM1052 1292c0 -18.667 -3.66699 -36.167 -11 -52.5
s-17.5 -30.5 -30.5 -42.5s-28 -21.5 -45 -28.5s-35.167 -10.5 -54.5 -10.5c-18 0 -35.167 3.5 -51.5 10.5s-30.666 16.5 -42.999 28.5s-22.166 26.167 -29.499 42.5s-11 33.833 -11 52.5c0 19.333 3.66699 37.5 11 54.5s17.166 31.833 29.499 44.5s26.666 22.667 42.999 30
s33.5 11 51.5 11c19.333 0 37.5 -3.66699 54.5 -11s32 -17.333 45 -30s23.167 -27.5 30.5 -44.5s11 -35.167 11 -54.5zM1372 1292c0 -18.667 -3.66699 -36.167 -11 -52.5s-17.333 -30.5 -30 -42.5s-27.5 -21.5 -44.5 -28.5s-34.833 -10.5 -53.5 -10.5
s-36.334 3.5 -53.001 10.5s-31.167 16.5 -43.5 28.5s-22.166 26.167 -29.499 42.5s-11 33.833 -11 52.5c0 19.333 3.66699 37.5 11 54.5s17.166 31.833 29.499 44.5s26.833 22.667 43.5 30s34.334 11 53.001 11s36.5 -3.66699 53.5 -11s31.833 -17.333 44.5 -30
s22.667 -27.5 30 -44.5s11 -35.167 11 -54.5z" />
    <glyph glyph-name="t_imacron.liga" unicode="t&#x12b;" horiz-adv-x="1202" 
d="M1003 0l-238.002 0.00390625l104 845h-427l-56 -451l-8 -65c-2 -16 -3.5 -28.5 -4.5 -37.5s-1.66699 -15.333 -2 -19s-0.5 -6.16699 -0.5 -7.5c0 -25.333 6.16699 -45.333 18.5 -60s29.833 -22 52.5 -22c14 0 26 1.83301 36 5.5s18.667 7.5 26 11.5s14 7.83301 20 11.5
s11.667 5.5 17 5.5c7.33301 0 13 -1.83301 17 -5.5s7.66699 -9.16699 11 -16.5l54 -120c-37.333 -30 -78.166 -52.667 -122.499 -68s-89.166 -23 -134.499 -23c-72.667 0 -130.167 19.667 -172.5 59s-64.833 94.666 -67.5 165.999v16.5c0 6.33301 0.5 15.666 1.5 27.999
s2.66699 28.666 5 48.999s5.5 46.5 9.5 78.5l57 464h-92c-13.333 0 -23.833 4.16699 -31.5 12.5s-10.5 20.833 -8.5 37.5l12 95l152 26l84 282c4 13.333 10.667 23.666 20 30.999s21 11 35 11h133l-40 -326h665zM782.998 1372h551l-18 -158h-550z" />
    <glyph glyph-name="t_itilde.liga" unicode="t&#x129;" horiz-adv-x="1202" 
d="M1003 0l-238.002 0.00390625l104 845h-427l-56 -451l-8 -65c-2 -16 -3.5 -28.5 -4.5 -37.5s-1.66699 -15.333 -2 -19s-0.5 -6.16699 -0.5 -7.5c0 -25.333 6.16699 -45.333 18.5 -60s29.833 -22 52.5 -22c14 0 26 1.83301 36 5.5s18.667 7.5 26 11.5s14 7.83301 20 11.5
s11.667 5.5 17 5.5c7.33301 0 13 -1.83301 17 -5.5s7.66699 -9.16699 11 -16.5l54 -120c-37.333 -30 -78.166 -52.667 -122.499 -68s-89.166 -23 -134.499 -23c-72.667 0 -130.167 19.667 -172.5 59s-64.833 94.666 -67.5 165.999v16.5c0 6.33301 0.5 15.666 1.5 27.999
s2.66699 28.666 5 48.999s5.5 46.5 9.5 78.5l57 464h-92c-13.333 0 -23.833 4.16699 -31.5 12.5s-10.5 20.833 -8.5 37.5l12 95l152 26l84 282c4 13.333 10.667 23.666 20 30.999s21 11 35 11h133l-40 -326h665zM1159 1359c18 0 32.833 5.50098 44.5 16.501
s19.167 30.833 22.5 59.5h139c-4.66699 -37.333 -13.5 -71.166 -26.5 -101.499s-29 -56.333 -48 -78s-40.667 -38.334 -65 -50.001s-50.166 -17.5 -77.499 -17.5c-22 0 -42.167 4.33301 -60.5 13s-35.166 18 -50.499 28l-43.5 28c-13.667 8.66699 -26.5 13 -38.5 13
c-18 0 -32.667 -5.83301 -44 -17.5s-18.666 -31.5 -21.999 -59.5h-140c4 37.333 12.667 71.166 26 101.499s29.666 56.333 48.999 78s41.166 38.5 65.499 50.5s50.166 18 77.499 18c22 0 42.167 -4.33301 60.5 -13s35.333 -18 51 -28l43 -28c13 -8.66699 25.5 -13 37.5 -13z
" />
    <glyph glyph-name="t_ibreve.liga" unicode="t&#x12d;" horiz-adv-x="1202" 
d="M1003 0l-238.002 0.00390625l104 845h-427l-56 -451l-8 -65c-2 -16 -3.5 -28.5 -4.5 -37.5s-1.66699 -15.333 -2 -19s-0.5 -6.16699 -0.5 -7.5c0 -25.333 6.16699 -45.333 18.5 -60s29.833 -22 52.5 -22c14 0 26 1.83301 36 5.5s18.667 7.5 26 11.5s14 7.83301 20 11.5
s11.667 5.5 17 5.5c7.33301 0 13 -1.83301 17 -5.5s7.66699 -9.16699 11 -16.5l54 -120c-37.333 -30 -78.166 -52.667 -122.499 -68s-89.166 -23 -134.499 -23c-72.667 0 -130.167 19.667 -172.5 59s-64.833 94.666 -67.5 165.999v16.5c0 6.33301 0.5 15.666 1.5 27.999
s2.66699 28.666 5 48.999s5.5 46.5 9.5 78.5l57 464h-92c-13.333 0 -23.833 4.16699 -31.5 12.5s-10.5 20.833 -8.5 37.5l12 95l152 26l84 282c4 13.333 10.667 23.666 20 30.999s21 11 35 11h133l-40 -326h665zM1038 1161c-52.667 0 -95.8359 7.5 -129.503 22.5
s-59.834 35.5 -78.501 61.5s-30.667 56.333 -36 91s-6 71.334 -2 110.001h160c-2.66699 -20 -3.16699 -38 -1.5 -54s6.33398 -29.5 14.001 -40.5s18.834 -19.5 33.501 -25.5s34 -9 58 -9c23.333 0 43 3 59 9s29 14.5 39 25.5s17.667 24.5 23 40.5s9.33301 34 12 54h159
c-4 -38.667 -12.667 -75.334 -26 -110.001s-32.166 -65 -56.499 -91s-55.166 -46.5 -92.499 -61.5s-82.333 -22.5 -135 -22.5z" />
    <glyph glyph-name="t_uni01D0.liga" unicode="t&#x1d0;" horiz-adv-x="1201" 
d="M1003 0l-238.002 0.00390625l104 845h-427l-56 -451l-8 -65c-2 -16 -3.5 -28.5 -4.5 -37.5s-1.66699 -15.333 -2 -19s-0.5 -6.16699 -0.5 -7.5c0 -25.333 6.16699 -45.333 18.5 -60s29.833 -22 52.5 -22c14 0 26 1.83301 36 5.5s18.667 7.5 26 11.5s14 7.83301 20 11.5
s11.667 5.5 17 5.5c7.33301 0 13 -1.83301 17 -5.5s7.66699 -9.16699 11 -16.5l54 -120c-37.333 -30 -78.166 -52.667 -122.499 -68s-89.166 -23 -134.499 -23c-72.667 0 -130.167 19.667 -172.5 59s-64.833 94.666 -67.5 165.999v16.5c0 6.33301 0.5 15.666 1.5 27.999
s2.66699 28.666 5 48.999s5.5 46.5 9.5 78.5l57 464h-92c-13.333 0 -23.833 4.16699 -31.5 12.5s-10.5 20.833 -8.5 37.5l12 95l152 26l84 282c4 13.333 10.667 23.666 20 30.999s21 11 35 11h133l-40 -326h665zM1371 1446l-242 -278h-213l-179 278h157
c9.33301 0 18 -1.66699 26 -5s14 -7.33301 18 -12l84 -111c6 -6.66699 11.667 -15 17 -25l12 13.5l11 11.5l109 111c5.33301 4 12.5 7.83301 21.5 11.5s18.167 5.5 27.5 5.5h151z" />
    <glyph glyph-name="t_uni1E2D.liga" unicode="t&#x1e2d;" horiz-adv-x="1202" 
d="M1003 0l-238.002 0.00390625l104 845h-427l-56 -451l-8 -65c-2 -16 -3.5 -28.5 -4.5 -37.5s-1.66699 -15.333 -2 -19s-0.5 -6.16699 -0.5 -7.5c0 -25.333 6.16699 -45.333 18.5 -60s29.833 -22 52.5 -22c14 0 26 1.83301 36 5.5s18.667 7.5 26 11.5s14 7.83301 20 11.5
s11.667 5.5 17 5.5c7.33301 0 13 -1.83301 17 -5.5s7.66699 -9.16699 11 -16.5l54 -120c-37.333 -30 -78.166 -52.667 -122.499 -68s-89.166 -23 -134.499 -23c-72.667 0 -130.167 19.667 -172.5 59s-64.833 94.666 -67.5 165.999v16.5c0 6.33301 0.5 15.666 1.5 27.999
s2.66699 28.666 5 48.999s5.5 46.5 9.5 78.5l57 464h-92c-13.333 0 -23.833 4.16699 -31.5 12.5s-10.5 20.833 -8.5 37.5l12 95l152 26l84 282c4 13.333 10.667 23.666 20 30.999s21 11 35 11h133l-40 -326h665zM1191 1325c0 -21.333 -4.5 -41.3301 -13.5 -59.9971
s-20.667 -35 -35 -49s-30.833 -25.167 -49.5 -33.5s-38 -12.5 -58 -12.5c-19.333 0 -38.166 4.16699 -56.499 12.5s-34.5 19.5 -48.5 33.5s-25.167 30.333 -33.5 49s-12.5 38.667 -12.5 60s4.33301 41.666 13 60.999s20 36.166 34 50.499s30.167 25.666 48.5 33.999
s37.166 12.5 56.499 12.5c20 0 39.333 -4.16699 58 -12.5s35.167 -19.5 49.5 -33.5s25.833 -30.667 34.5 -50s13 -40 13 -62zM935.998 -153.993c18 0 32.833 5.50098 44.5 16.501s19.167 30.833 22.5 59.5h139c-4.66699 -37.333 -13.5 -71.166 -26.5 -101.499
s-29 -56.333 -48 -78s-40.667 -38.334 -65 -50.001s-50.166 -17.5 -77.499 -17.5c-22 0 -42.167 4.33301 -60.5 13s-35.166 18 -50.499 28l-43.5 28c-13.667 8.66699 -26.5 13 -38.5 13c-18 0 -32.667 -5.83301 -44 -17.5s-18.666 -31.5 -21.999 -59.5h-140
c4 37.333 12.667 71.166 26 101.499s29.666 56.333 48.999 78s41.166 38.5 65.499 50.5s50.166 18 77.499 18c22 0 42.167 -4.33301 60.5 -13s35.333 -18 51 -28l43 -28c13 -8.66699 25.5 -13 37.5 -13z" />
    <glyph glyph-name="t_uni1E2F.liga" unicode="t&#x1e2f;" horiz-adv-x="1201" 
d="M1003 0l-238.002 0.00390625l104 845h-427l-56 -451l-8 -65c-2 -16 -3.5 -28.5 -4.5 -37.5s-1.66699 -15.333 -2 -19s-0.5 -6.16699 -0.5 -7.5c0 -25.333 6.16699 -45.333 18.5 -60s29.833 -22 52.5 -22c14 0 26 1.83301 36 5.5s18.667 7.5 26 11.5s14 7.83301 20 11.5
s11.667 5.5 17 5.5c7.33301 0 13 -1.83301 17 -5.5s7.66699 -9.16699 11 -16.5l54 -120c-37.333 -30 -78.166 -52.667 -122.499 -68s-89.166 -23 -134.499 -23c-72.667 0 -130.167 19.667 -172.5 59s-64.833 94.666 -67.5 165.999v16.5c0 6.33301 0.5 15.666 1.5 27.999
s2.66699 28.666 5 48.999s5.5 46.5 9.5 78.5l57 464h-92c-13.333 0 -23.833 4.16699 -31.5 12.5s-10.5 20.833 -8.5 37.5l12 95l152 26l84 282c4 13.333 10.667 23.666 20 30.999s21 11 35 11h133l-40 -326h665zM1431 1784l-257 -261
c-12.667 -13.333 -24.667 -22.5 -36 -27.5s-25.666 -7.5 -42.999 -7.5h-136l158 243c11.333 17.333 23.666 30.5 36.999 39.5s32.333 13.5 57 13.5h220zM988.998 1292c0 -18.667 -3.66699 -36.167 -11 -52.5s-17.5 -30.5 -30.5 -42.5s-28 -21.5 -45 -28.5
s-34.833 -10.5 -53.5 -10.5c-18 0 -35.167 3.5 -51.5 10.5s-30.833 16.5 -43.5 28.5s-22.667 26.167 -30 42.5s-11 33.833 -11 52.5c0 19.333 3.66699 37.5 11 54.5s17.333 31.833 30 44.5s27.167 22.667 43.5 30s33.5 11 51.5 11c18.667 0 36.5 -3.66699 53.5 -11
s32 -17.333 45 -30s23.167 -27.5 30.5 -44.5s11 -35.167 11 -54.5zM1373 1292c0 -18.667 -3.66699 -36.167 -11 -52.5s-17.166 -30.5 -29.499 -42.5s-27 -21.5 -44 -28.5s-34.833 -10.5 -53.5 -10.5c-19.333 0 -37.166 3.5 -53.499 10.5s-30.833 16.5 -43.5 28.5
s-22.5 26.167 -29.5 42.5s-10.5 33.833 -10.5 52.5c0 19.333 3.5 37.5 10.5 54.5s16.833 31.833 29.5 44.5s27.167 22.667 43.5 30s34.166 11 53.499 11c18.667 0 36.5 -3.66699 53.5 -11s31.667 -17.333 44 -30s22.166 -27.5 29.499 -44.5s11 -35.167 11 -54.5z" />
    <glyph glyph-name="t_uni0268.liga" unicode="t&#x268;" horiz-adv-x="1236" 
d="M1039 1170c-19.333 0 -38.166 4.16992 -56.499 12.5029s-34.5 19.5 -48.5 33.5s-25.167 30.333 -33.5 49s-12.5 38.667 -12.5 60s4.33301 41.666 13 60.999s20 36.166 34 50.499s30.167 25.666 48.5 33.999s37.166 12.5 56.499 12.5c20 0 39.333 -4.16699 58 -12.5
s35.167 -19.5 49.5 -33.5s25.833 -30.667 34.5 -50s13 -40 13 -62c0 -21.333 -4.5 -41.333 -13.5 -60s-20.667 -35 -35 -49s-30.833 -25.167 -49.5 -33.5s-38 -12.5 -58 -12.5zM1182 403.003l-129.002 0.00390625l-50 -403h-238l50 403h-123l20 169h123l34 273h-427
l-56 -451l-8 -65c-2 -16 -3.5 -28.5 -4.5 -37.5s-1.66699 -15.333 -2 -19s-0.5 -6.16699 -0.5 -7.5c0 -25.333 6.16699 -45.333 18.5 -60s29.833 -22 52.5 -22c14 0 26 1.83301 36 5.5s18.667 7.5 26 11.5s14 7.83301 20 11.5s11.667 5.5 17 5.5
c7.33301 0 13 -1.83301 17 -5.5s7.66699 -9.16699 11 -16.5l54 -120c-37.333 -30 -78.166 -52.667 -122.499 -68s-89.166 -23 -134.499 -23c-72.667 0 -130.167 19.667 -172.5 59s-64.833 94.666 -67.5 165.999v16.5c0 6.33301 0.5 15.666 1.5 27.999
s2.66699 28.666 5 48.999s5.5 46.5 9.5 78.5l57 464h-92c-13.333 0 -23.833 4.16699 -31.5 12.5s-10.5 20.833 -8.5 37.5l12 95l152 26l84 282c4 13.333 10.667 23.666 20 30.999s21 11 35 11h133l-40 -326h665l-54 -442h129z" />
    <glyph glyph-name="t_uni020B.liga" unicode="t&#x20b;" horiz-adv-x="1202" 
d="M1003 0l-238.002 0.00390625l104 845h-427l-56 -451l-8 -65c-2 -16 -3.5 -28.5 -4.5 -37.5s-1.66699 -15.333 -2 -19s-0.5 -6.16699 -0.5 -7.5c0 -25.333 6.16699 -45.333 18.5 -60s29.833 -22 52.5 -22c14 0 26 1.83301 36 5.5s18.667 7.5 26 11.5s14 7.83301 20 11.5
s11.667 5.5 17 5.5c7.33301 0 13 -1.83301 17 -5.5s7.66699 -9.16699 11 -16.5l54 -120c-37.333 -30 -78.166 -52.667 -122.499 -68s-89.166 -23 -134.499 -23c-72.667 0 -130.167 19.667 -172.5 59s-64.833 94.666 -67.5 165.999v16.5c0 6.33301 0.5 15.666 1.5 27.999
s2.66699 28.666 5 48.999s5.5 46.5 9.5 78.5l57 464h-92c-13.333 0 -23.833 4.16699 -31.5 12.5s-10.5 20.833 -8.5 37.5l12 95l152 26l84 282c4 13.333 10.667 23.666 20 30.999s21 11 35 11h133l-40 -326h665zM1056 1461c52.667 0 95.8359 -7.5 129.503 -22.5
s59.834 -35.5 78.501 -61.5s30.667 -56.333 36 -91s5.66602 -71.334 0.999023 -110.001h-158c2 20 2.16699 38 0.5 54s-6.33398 29.667 -14.001 41s-18.834 20 -33.501 26s-34 9 -58 9c-23.333 0 -43 -3 -59 -9s-29.167 -14.667 -39.5 -26s-18.166 -25 -23.499 -41
s-9 -34 -11 -54h-159c4 38.667 12.667 75.334 26 110.001s32.166 65 56.499 91s55.166 46.5 92.499 61.5s82.333 22.5 135 22.5z" />
    <glyph glyph-name="t_uni0209.liga" unicode="t&#x209;" horiz-adv-x="1202" 
d="M1003 0l-238.002 0.00390625l104 845h-427l-56 -451l-8 -65c-2 -16 -3.5 -28.5 -4.5 -37.5s-1.66699 -15.333 -2 -19s-0.5 -6.16699 -0.5 -7.5c0 -25.333 6.16699 -45.333 18.5 -60s29.833 -22 52.5 -22c14 0 26 1.83301 36 5.5s18.667 7.5 26 11.5s14 7.83301 20 11.5
s11.667 5.5 17 5.5c7.33301 0 13 -1.83301 17 -5.5s7.66699 -9.16699 11 -16.5l54 -120c-37.333 -30 -78.166 -52.667 -122.499 -68s-89.166 -23 -134.499 -23c-72.667 0 -130.167 19.667 -172.5 59s-64.833 94.666 -67.5 165.999v16.5c0 6.33301 0.5 15.666 1.5 27.999
s2.66699 28.666 5 48.999s5.5 46.5 9.5 78.5l57 464h-92c-13.333 0 -23.833 4.16699 -31.5 12.5s-10.5 20.833 -8.5 37.5l12 95l152 26l84 282c4 13.333 10.667 23.666 20 30.999s21 11 35 11h133l-40 -326h665zM1083 1462c24.667 0 42.667 -4.5 54 -13.5
s20.333 -22.167 27 -39.5l89 -243h-93c-17.333 0 -31.5 2.5 -42.5 7.5s-20.5 14.167 -28.5 27.5l-154 261h148zM777.998 1462c24.667 0 42.167 -4.5 52.5 -13.5s19.833 -22.167 28.5 -39.5l136 -243h-107c-17.333 0 -31.333 2.5 -42 7.5s-20.667 14.167 -30 27.5l-201 261
h163z" />
    <glyph glyph-name="t_t_i.liga" unicode="tti" horiz-adv-x="1795" 
d="M1597 0l-238.005 0.0078125l103 845h-408l-56 -451l-8 -65c-2 -16 -3.5 -28.5 -4.5 -37.5s-1.66699 -15.333 -2 -19s-0.5 -6.16699 -0.5 -7.5c0 -25.333 6.16699 -45.333 18.5 -60s30.166 -22 53.499 -22c14 0 25.833 1.83301 35.5 5.5s18.334 7.5 26.001 11.5
s14.334 7.83301 20.001 11.5s11.167 5.5 16.5 5.5c7.33301 0 13 -1.83301 17 -5.5s7.66699 -9.16699 11 -16.5l54 -120c-37.333 -30 -78.166 -52.667 -122.499 -68s-89.166 -23 -134.499 -23c-72.667 0 -130.167 19.667 -172.5 59s-64.833 94.666 -67.5 165.999
c0 4.66699 0.166992 10.167 0.5 16.5s1 15.666 2 27.999s2.5 28.666 4.5 48.999s5 46.5 9 78.5l57 464h-369l-56 -451l-8 -65c-2 -16 -3.5 -28.5 -4.5 -37.5s-1.66699 -15.333 -2 -19s-0.5 -6.16699 -0.5 -7.5c0 -25.333 6.16699 -45.333 18.5 -60s29.833 -22 52.5 -22
c14 0 26 1.83301 36 5.5s18.667 7.5 26 11.5s14 7.83301 20 11.5s11.667 5.5 17 5.5c7.33301 0 13 -1.83301 17 -5.5s7.66699 -9.16699 11 -16.5l54 -120c-37.333 -30 -78.166 -52.667 -122.499 -68s-89.166 -23 -134.499 -23c-72.667 0 -130.167 19.667 -172.5 59
s-64.833 94.666 -67.5 165.999v16.5c0 6.33301 0.5 15.666 1.5 27.999s2.66699 28.666 5 48.999s5.5 46.5 9.5 78.5l57 464h-92c-13.333 0 -23.833 4.16699 -31.5 12.5s-10.5 20.833 -8.5 37.5l12 95l152 26l84 282c4 13.333 10.667 23.666 20 30.999s21 11 35 11h133
l-40 -326h380l84 284c4 13.333 10.833 23.666 20.5 30.999s21.167 11 34.5 11h133l-40 -326h646zM1798 1325.01c0 -21.333 -4.5 -41.3301 -13.5 -59.9971s-20.667 -35 -35 -49s-30.833 -25.167 -49.5 -33.5s-38 -12.5 -58 -12.5c-19.333 0 -38.166 4.16699 -56.499 12.5
s-34.5 19.5 -48.5 33.5s-25.167 30.333 -33.5 49s-12.5 38.667 -12.5 60s4.33301 41.666 13 60.999s20 36.166 34 50.499s30.167 25.666 48.5 33.999s37.166 12.5 56.499 12.5c20 0 39.333 -4.16699 58 -12.5s35.167 -19.5 49.5 -33.5s25.833 -30.667 34.5 -50
s13 -40 13 -62z" />
    <glyph glyph-name="t_t_igrave.liga" unicode="tt&#xec;" horiz-adv-x="1795" 
d="M1597 0l-238.005 0.0078125l103 845h-408l-56 -451l-8 -65c-2 -16 -3.5 -28.5 -4.5 -37.5s-1.66699 -15.333 -2 -19s-0.5 -6.16699 -0.5 -7.5c0 -25.333 6.16699 -45.333 18.5 -60s30.166 -22 53.499 -22c14 0 25.833 1.83301 35.5 5.5s18.334 7.5 26.001 11.5
s14.334 7.83301 20.001 11.5s11.167 5.5 16.5 5.5c7.33301 0 13 -1.83301 17 -5.5s7.66699 -9.16699 11 -16.5l54 -120c-37.333 -30 -78.166 -52.667 -122.499 -68s-89.166 -23 -134.499 -23c-72.667 0 -130.167 19.667 -172.5 59s-64.833 94.666 -67.5 165.999
c0 4.66699 0.166992 10.167 0.5 16.5s1 15.666 2 27.999s2.5 28.666 4.5 48.999s5 46.5 9 78.5l57 464h-369l-56 -451l-8 -65c-2 -16 -3.5 -28.5 -4.5 -37.5s-1.66699 -15.333 -2 -19s-0.5 -6.16699 -0.5 -7.5c0 -25.333 6.16699 -45.333 18.5 -60s29.833 -22 52.5 -22
c14 0 26 1.83301 36 5.5s18.667 7.5 26 11.5s14 7.83301 20 11.5s11.667 5.5 17 5.5c7.33301 0 13 -1.83301 17 -5.5s7.66699 -9.16699 11 -16.5l54 -120c-37.333 -30 -78.166 -52.667 -122.499 -68s-89.166 -23 -134.499 -23c-72.667 0 -130.167 19.667 -172.5 59
s-64.833 94.666 -67.5 165.999v16.5c0 6.33301 0.5 15.666 1.5 27.999s2.66699 28.666 5 48.999s5.5 46.5 9.5 78.5l57 464h-92c-13.333 0 -23.833 4.16699 -31.5 12.5s-10.5 20.833 -8.5 37.5l12 95l152 26l84 282c4 13.333 10.667 23.666 20 30.999s21 11 35 11h133
l-40 -326h380l84 284c4 13.333 10.833 23.666 20.5 30.999s21.167 11 34.5 11h133l-40 -326h646zM1553 1462.01c24 0 41.666 -4.5 52.999 -13.5s20.666 -22.167 27.999 -39.5l103 -243h-129c-17.333 0 -31.166 2.5 -41.499 7.5s-20.166 14.167 -29.499 27.5l-198 261h214z
" />
    <glyph glyph-name="t_t_iacute.liga" unicode="tt&#xed;" horiz-adv-x="1795" 
d="M1597 0l-238.005 0.0078125l103 845h-408l-56 -451l-8 -65c-2 -16 -3.5 -28.5 -4.5 -37.5s-1.66699 -15.333 -2 -19s-0.5 -6.16699 -0.5 -7.5c0 -25.333 6.16699 -45.333 18.5 -60s30.166 -22 53.499 -22c14 0 25.833 1.83301 35.5 5.5s18.334 7.5 26.001 11.5
s14.334 7.83301 20.001 11.5s11.167 5.5 16.5 5.5c7.33301 0 13 -1.83301 17 -5.5s7.66699 -9.16699 11 -16.5l54 -120c-37.333 -30 -78.166 -52.667 -122.499 -68s-89.166 -23 -134.499 -23c-72.667 0 -130.167 19.667 -172.5 59s-64.833 94.666 -67.5 165.999
c0 4.66699 0.166992 10.167 0.5 16.5s1 15.666 2 27.999s2.5 28.666 4.5 48.999s5 46.5 9 78.5l57 464h-369l-56 -451l-8 -65c-2 -16 -3.5 -28.5 -4.5 -37.5s-1.66699 -15.333 -2 -19s-0.5 -6.16699 -0.5 -7.5c0 -25.333 6.16699 -45.333 18.5 -60s29.833 -22 52.5 -22
c14 0 26 1.83301 36 5.5s18.667 7.5 26 11.5s14 7.83301 20 11.5s11.667 5.5 17 5.5c7.33301 0 13 -1.83301 17 -5.5s7.66699 -9.16699 11 -16.5l54 -120c-37.333 -30 -78.166 -52.667 -122.499 -68s-89.166 -23 -134.499 -23c-72.667 0 -130.167 19.667 -172.5 59
s-64.833 94.666 -67.5 165.999v16.5c0 6.33301 0.5 15.666 1.5 27.999s2.66699 28.666 5 48.999s5.5 46.5 9.5 78.5l57 464h-92c-13.333 0 -23.833 4.16699 -31.5 12.5s-10.5 20.833 -8.5 37.5l12 95l152 26l84 282c4 13.333 10.667 23.666 20 30.999s21 11 35 11h133
l-40 -326h380l84 284c4 13.333 10.833 23.666 20.5 30.999s21.167 11 34.5 11h133l-40 -326h646zM1973 1462.01l-257 -261c-12.667 -13.333 -24.667 -22.5 -36 -27.5s-25.666 -7.5 -42.999 -7.5h-136l158 243c11.333 17.333 23.666 30.5 36.999 39.5s32.333 13.5 57 13.5
h220z" />
    <glyph glyph-name="t_t_icircumflex.liga" unicode="tt&#xee;" horiz-adv-x="1795" 
d="M1597 0l-238.005 0.0078125l103 845h-408l-56 -451l-8 -65c-2 -16 -3.5 -28.5 -4.5 -37.5s-1.66699 -15.333 -2 -19s-0.5 -6.16699 -0.5 -7.5c0 -25.333 6.16699 -45.333 18.5 -60s30.166 -22 53.499 -22c14 0 25.833 1.83301 35.5 5.5s18.334 7.5 26.001 11.5
s14.334 7.83301 20.001 11.5s11.167 5.5 16.5 5.5c7.33301 0 13 -1.83301 17 -5.5s7.66699 -9.16699 11 -16.5l54 -120c-37.333 -30 -78.166 -52.667 -122.499 -68s-89.166 -23 -134.499 -23c-72.667 0 -130.167 19.667 -172.5 59s-64.833 94.666 -67.5 165.999
c0 4.66699 0.166992 10.167 0.5 16.5s1 15.666 2 27.999s2.5 28.666 4.5 48.999s5 46.5 9 78.5l57 464h-369l-56 -451l-8 -65c-2 -16 -3.5 -28.5 -4.5 -37.5s-1.66699 -15.333 -2 -19s-0.5 -6.16699 -0.5 -7.5c0 -25.333 6.16699 -45.333 18.5 -60s29.833 -22 52.5 -22
c14 0 26 1.83301 36 5.5s18.667 7.5 26 11.5s14 7.83301 20 11.5s11.667 5.5 17 5.5c7.33301 0 13 -1.83301 17 -5.5s7.66699 -9.16699 11 -16.5l54 -120c-37.333 -30 -78.166 -52.667 -122.499 -68s-89.166 -23 -134.499 -23c-72.667 0 -130.167 19.667 -172.5 59
s-64.833 94.666 -67.5 165.999v16.5c0 6.33301 0.5 15.666 1.5 27.999s2.66699 28.666 5 48.999s5.5 46.5 9.5 78.5l57 464h-92c-13.333 0 -23.833 4.16699 -31.5 12.5s-10.5 20.833 -8.5 37.5l12 95l152 26l84 282c4 13.333 10.667 23.666 20 30.999s21 11 35 11h133
l-40 -326h380l84 284c4 13.333 10.833 23.666 20.5 30.999s21.167 11 34.5 11h133l-40 -326h646zM1941 1168.01h-152.003c-8.66699 0 -17.167 1.83301 -25.5 5.5s-16.5 10.167 -24.5 19.5l-78 104c-3.33301 3.33301 -6.16602 7 -8.49902 11s-5.16602 8.33301 -8.49902 13
c-3.33301 -4.66699 -7 -9 -11 -13l-11 -11l-103 -104c-8.66699 -8.66699 -17.667 -15 -27 -19s-18.666 -6 -27.999 -6h-158l242 278h214z" />
    <glyph glyph-name="t_t_idieresis.liga" unicode="tt&#xef;" horiz-adv-x="1795" 
d="M1597 0l-238.005 0.0078125l103 845h-408l-56 -451l-8 -65c-2 -16 -3.5 -28.5 -4.5 -37.5s-1.66699 -15.333 -2 -19s-0.5 -6.16699 -0.5 -7.5c0 -25.333 6.16699 -45.333 18.5 -60s30.166 -22 53.499 -22c14 0 25.833 1.83301 35.5 5.5s18.334 7.5 26.001 11.5
s14.334 7.83301 20.001 11.5s11.167 5.5 16.5 5.5c7.33301 0 13 -1.83301 17 -5.5s7.66699 -9.16699 11 -16.5l54 -120c-37.333 -30 -78.166 -52.667 -122.499 -68s-89.166 -23 -134.499 -23c-72.667 0 -130.167 19.667 -172.5 59s-64.833 94.666 -67.5 165.999
c0 4.66699 0.166992 10.167 0.5 16.5s1 15.666 2 27.999s2.5 28.666 4.5 48.999s5 46.5 9 78.5l57 464h-369l-56 -451l-8 -65c-2 -16 -3.5 -28.5 -4.5 -37.5s-1.66699 -15.333 -2 -19s-0.5 -6.16699 -0.5 -7.5c0 -25.333 6.16699 -45.333 18.5 -60s29.833 -22 52.5 -22
c14 0 26 1.83301 36 5.5s18.667 7.5 26 11.5s14 7.83301 20 11.5s11.667 5.5 17 5.5c7.33301 0 13 -1.83301 17 -5.5s7.66699 -9.16699 11 -16.5l54 -120c-37.333 -30 -78.166 -52.667 -122.499 -68s-89.166 -23 -134.499 -23c-72.667 0 -130.167 19.667 -172.5 59
s-64.833 94.666 -67.5 165.999v16.5c0 6.33301 0.5 15.666 1.5 27.999s2.66699 28.666 5 48.999s5.5 46.5 9.5 78.5l57 464h-92c-13.333 0 -23.833 4.16699 -31.5 12.5s-10.5 20.833 -8.5 37.5l12 95l152 26l84 282c4 13.333 10.667 23.666 20 30.999s21 11 35 11h133
l-40 -326h380l84 284c4 13.333 10.833 23.666 20.5 30.999s21.167 11 34.5 11h133l-40 -326h646zM1637 1292.01c0 -18.667 -3.66699 -36.167 -11 -52.5s-17.5 -30.5 -30.5 -42.5s-28 -21.5 -45 -28.5s-35.167 -10.5 -54.5 -10.5c-18 0 -35.167 3.5 -51.5 10.5
s-30.666 16.5 -42.999 28.5s-22.166 26.167 -29.499 42.5s-11 33.833 -11 52.5c0 19.333 3.66699 37.5 11 54.5s17.166 31.833 29.499 44.5s26.666 22.667 42.999 30s33.5 11 51.5 11c19.333 0 37.5 -3.66699 54.5 -11s32 -17.333 45 -30s23.167 -27.5 30.5 -44.5
s11 -35.167 11 -54.5zM1957 1292.01c0 -18.667 -3.66699 -36.167 -11 -52.5s-17.333 -30.5 -30 -42.5s-27.5 -21.5 -44.5 -28.5s-34.833 -10.5 -53.5 -10.5s-36.334 3.5 -53.001 10.5s-31.167 16.5 -43.5 28.5s-22.166 26.167 -29.499 42.5s-11 33.833 -11 52.5
c0 19.333 3.66699 37.5 11 54.5s17.166 31.833 29.499 44.5s26.833 22.667 43.5 30s34.334 11 53.001 11s36.5 -3.66699 53.5 -11s31.833 -17.333 44.5 -30s22.667 -27.5 30 -44.5s11 -35.167 11 -54.5z" />
    <glyph glyph-name="t_t_imacron.liga" unicode="tt&#x12b;" horiz-adv-x="1795" 
d="M1597 0l-238.005 0.0078125l103 845h-408l-56 -451l-8 -65c-2 -16 -3.5 -28.5 -4.5 -37.5s-1.66699 -15.333 -2 -19s-0.5 -6.16699 -0.5 -7.5c0 -25.333 6.16699 -45.333 18.5 -60s30.166 -22 53.499 -22c14 0 25.833 1.83301 35.5 5.5s18.334 7.5 26.001 11.5
s14.334 7.83301 20.001 11.5s11.167 5.5 16.5 5.5c7.33301 0 13 -1.83301 17 -5.5s7.66699 -9.16699 11 -16.5l54 -120c-37.333 -30 -78.166 -52.667 -122.499 -68s-89.166 -23 -134.499 -23c-72.667 0 -130.167 19.667 -172.5 59s-64.833 94.666 -67.5 165.999
c0 4.66699 0.166992 10.167 0.5 16.5s1 15.666 2 27.999s2.5 28.666 4.5 48.999s5 46.5 9 78.5l57 464h-369l-56 -451l-8 -65c-2 -16 -3.5 -28.5 -4.5 -37.5s-1.66699 -15.333 -2 -19s-0.5 -6.16699 -0.5 -7.5c0 -25.333 6.16699 -45.333 18.5 -60s29.833 -22 52.5 -22
c14 0 26 1.83301 36 5.5s18.667 7.5 26 11.5s14 7.83301 20 11.5s11.667 5.5 17 5.5c7.33301 0 13 -1.83301 17 -5.5s7.66699 -9.16699 11 -16.5l54 -120c-37.333 -30 -78.166 -52.667 -122.499 -68s-89.166 -23 -134.499 -23c-72.667 0 -130.167 19.667 -172.5 59
s-64.833 94.666 -67.5 165.999v16.5c0 6.33301 0.5 15.666 1.5 27.999s2.66699 28.666 5 48.999s5.5 46.5 9.5 78.5l57 464h-92c-13.333 0 -23.833 4.16699 -31.5 12.5s-10.5 20.833 -8.5 37.5l12 95l152 26l84 282c4 13.333 10.667 23.666 20 30.999s21 11 35 11h133
l-40 -326h380l84 284c4 13.333 10.833 23.666 20.5 30.999s21.167 11 34.5 11h133l-40 -326h646zM1373 1372.01h551l-18 -158h-550z" />
    <glyph glyph-name="t_t_itilde.liga" unicode="tt&#x129;" horiz-adv-x="1795" 
d="M1597 0l-238.005 0.0078125l103 845h-408l-56 -451l-8 -65c-2 -16 -3.5 -28.5 -4.5 -37.5s-1.66699 -15.333 -2 -19s-0.5 -6.16699 -0.5 -7.5c0 -25.333 6.16699 -45.333 18.5 -60s30.166 -22 53.499 -22c14 0 25.833 1.83301 35.5 5.5s18.334 7.5 26.001 11.5
s14.334 7.83301 20.001 11.5s11.167 5.5 16.5 5.5c7.33301 0 13 -1.83301 17 -5.5s7.66699 -9.16699 11 -16.5l54 -120c-37.333 -30 -78.166 -52.667 -122.499 -68s-89.166 -23 -134.499 -23c-72.667 0 -130.167 19.667 -172.5 59s-64.833 94.666 -67.5 165.999
c0 4.66699 0.166992 10.167 0.5 16.5s1 15.666 2 27.999s2.5 28.666 4.5 48.999s5 46.5 9 78.5l57 464h-369l-56 -451l-8 -65c-2 -16 -3.5 -28.5 -4.5 -37.5s-1.66699 -15.333 -2 -19s-0.5 -6.16699 -0.5 -7.5c0 -25.333 6.16699 -45.333 18.5 -60s29.833 -22 52.5 -22
c14 0 26 1.83301 36 5.5s18.667 7.5 26 11.5s14 7.83301 20 11.5s11.667 5.5 17 5.5c7.33301 0 13 -1.83301 17 -5.5s7.66699 -9.16699 11 -16.5l54 -120c-37.333 -30 -78.166 -52.667 -122.499 -68s-89.166 -23 -134.499 -23c-72.667 0 -130.167 19.667 -172.5 59
s-64.833 94.666 -67.5 165.999v16.5c0 6.33301 0.5 15.666 1.5 27.999s2.66699 28.666 5 48.999s5.5 46.5 9.5 78.5l57 464h-92c-13.333 0 -23.833 4.16699 -31.5 12.5s-10.5 20.833 -8.5 37.5l12 95l152 26l84 282c4 13.333 10.667 23.666 20 30.999s21 11 35 11h133
l-40 -326h380l84 284c4 13.333 10.833 23.666 20.5 30.999s21.167 11 34.5 11h133l-40 -326h646zM1744 1359.01c18 0 32.833 5.50098 44.5 16.501s19.167 30.833 22.5 59.5h139c-4.66699 -37.333 -13.5 -71.166 -26.5 -101.499s-29 -56.333 -48 -78
s-40.667 -38.334 -65 -50.001s-50.166 -17.5 -77.499 -17.5c-22 0 -42.167 4.33301 -60.5 13s-35.166 18 -50.499 28l-43.5 28c-13.667 8.66699 -26.5 13 -38.5 13c-18 0 -32.667 -5.83301 -44 -17.5s-18.666 -31.5 -21.999 -59.5h-140c4 37.333 12.667 71.166 26 101.499
s29.666 56.333 48.999 78s41.166 38.5 65.499 50.5s50.166 18 77.499 18c22 0 42.167 -4.33301 60.5 -13s35.333 -18 51 -28l43 -28c13 -8.66699 25.5 -13 37.5 -13z" />
    <glyph glyph-name="t_t_ibreve.liga" unicode="tt&#x12d;" horiz-adv-x="1795" 
d="M1597 0l-238.005 0.0078125l103 845h-408l-56 -451l-8 -65c-2 -16 -3.5 -28.5 -4.5 -37.5s-1.66699 -15.333 -2 -19s-0.5 -6.16699 -0.5 -7.5c0 -25.333 6.16699 -45.333 18.5 -60s30.166 -22 53.499 -22c14 0 25.833 1.83301 35.5 5.5s18.334 7.5 26.001 11.5
s14.334 7.83301 20.001 11.5s11.167 5.5 16.5 5.5c7.33301 0 13 -1.83301 17 -5.5s7.66699 -9.16699 11 -16.5l54 -120c-37.333 -30 -78.166 -52.667 -122.499 -68s-89.166 -23 -134.499 -23c-72.667 0 -130.167 19.667 -172.5 59s-64.833 94.666 -67.5 165.999
c0 4.66699 0.166992 10.167 0.5 16.5s1 15.666 2 27.999s2.5 28.666 4.5 48.999s5 46.5 9 78.5l57 464h-369l-56 -451l-8 -65c-2 -16 -3.5 -28.5 -4.5 -37.5s-1.66699 -15.333 -2 -19s-0.5 -6.16699 -0.5 -7.5c0 -25.333 6.16699 -45.333 18.5 -60s29.833 -22 52.5 -22
c14 0 26 1.83301 36 5.5s18.667 7.5 26 11.5s14 7.83301 20 11.5s11.667 5.5 17 5.5c7.33301 0 13 -1.83301 17 -5.5s7.66699 -9.16699 11 -16.5l54 -120c-37.333 -30 -78.166 -52.667 -122.499 -68s-89.166 -23 -134.499 -23c-72.667 0 -130.167 19.667 -172.5 59
s-64.833 94.666 -67.5 165.999v16.5c0 6.33301 0.5 15.666 1.5 27.999s2.66699 28.666 5 48.999s5.5 46.5 9.5 78.5l57 464h-92c-13.333 0 -23.833 4.16699 -31.5 12.5s-10.5 20.833 -8.5 37.5l12 95l152 26l84 282c4 13.333 10.667 23.666 20 30.999s21 11 35 11h133
l-40 -326h380l84 284c4 13.333 10.833 23.666 20.5 30.999s21.167 11 34.5 11h133l-40 -326h646zM1640 1161.01c-52.667 0 -95.8359 7.5 -129.503 22.5s-59.834 35.5 -78.501 61.5s-30.667 56.333 -36 91s-6 71.334 -2 110.001h160c-2.66699 -20 -3.16699 -38 -1.5 -54
s6.33398 -29.5 14.001 -40.5s18.834 -19.5 33.501 -25.5s34 -9 58 -9c23.333 0 43 3 59 9s29 14.5 39 25.5s17.667 24.5 23 40.5s9.33301 34 12 54h159c-4 -38.667 -12.667 -75.334 -26 -110.001s-32.166 -65 -56.499 -91s-55.166 -46.5 -92.499 -61.5
s-82.333 -22.5 -135 -22.5z" />
    <glyph glyph-name="t_t_uni01D0.liga" unicode="tt&#x1d0;" horiz-adv-x="1794" 
d="M1597 0l-238.005 0.0078125l103 845h-408l-56 -451l-8 -65c-2 -16 -3.5 -28.5 -4.5 -37.5s-1.66699 -15.333 -2 -19s-0.5 -6.16699 -0.5 -7.5c0 -25.333 6.16699 -45.333 18.5 -60s30.166 -22 53.499 -22c14 0 25.833 1.83301 35.5 5.5s18.334 7.5 26.001 11.5
s14.334 7.83301 20.001 11.5s11.167 5.5 16.5 5.5c7.33301 0 13 -1.83301 17 -5.5s7.66699 -9.16699 11 -16.5l54 -120c-37.333 -30 -78.166 -52.667 -122.499 -68s-89.166 -23 -134.499 -23c-72.667 0 -130.167 19.667 -172.5 59s-64.833 94.666 -67.5 165.999
c0 4.66699 0.166992 10.167 0.5 16.5s1 15.666 2 27.999s2.5 28.666 4.5 48.999s5 46.5 9 78.5l57 464h-369l-56 -451l-8 -65c-2 -16 -3.5 -28.5 -4.5 -37.5s-1.66699 -15.333 -2 -19s-0.5 -6.16699 -0.5 -7.5c0 -25.333 6.16699 -45.333 18.5 -60s29.833 -22 52.5 -22
c14 0 26 1.83301 36 5.5s18.667 7.5 26 11.5s14 7.83301 20 11.5s11.667 5.5 17 5.5c7.33301 0 13 -1.83301 17 -5.5s7.66699 -9.16699 11 -16.5l54 -120c-37.333 -30 -78.166 -52.667 -122.499 -68s-89.166 -23 -134.499 -23c-72.667 0 -130.167 19.667 -172.5 59
s-64.833 94.666 -67.5 165.999v16.5c0 6.33301 0.5 15.666 1.5 27.999s2.66699 28.666 5 48.999s5.5 46.5 9.5 78.5l57 464h-92c-13.333 0 -23.833 4.16699 -31.5 12.5s-10.5 20.833 -8.5 37.5l12 95l152 26l84 282c4 13.333 10.667 23.666 20 30.999s21 11 35 11h133
l-40 -326h380l84 284c4 13.333 10.833 23.666 20.5 30.999s21.167 11 34.5 11h133l-40 -326h646zM1974 1446.01l-242 -278h-213l-179 278h157c9.33301 0 18 -1.66699 26 -5s14 -7.33301 18 -12l84 -111c6 -6.66699 11.667 -15 17 -25l12 13.5l11 11.5l109 111
c5.33301 4 12.5 7.83301 21.5 11.5s18.167 5.5 27.5 5.5h151z" />
    <glyph glyph-name="t_t_uni1E2D.liga" unicode="tt&#x1e2d;" horiz-adv-x="1796" 
d="M1597 0l-238.005 0.0078125l103 845h-408l-56 -451l-8 -65c-2 -16 -3.5 -28.5 -4.5 -37.5s-1.66699 -15.333 -2 -19s-0.5 -6.16699 -0.5 -7.5c0 -25.333 6.16699 -45.333 18.5 -60s30.166 -22 53.499 -22c14 0 25.833 1.83301 35.5 5.5s18.334 7.5 26.001 11.5
s14.334 7.83301 20.001 11.5s11.167 5.5 16.5 5.5c7.33301 0 13 -1.83301 17 -5.5s7.66699 -9.16699 11 -16.5l54 -120c-37.333 -30 -78.166 -52.667 -122.499 -68s-89.166 -23 -134.499 -23c-72.667 0 -130.167 19.667 -172.5 59s-64.833 94.666 -67.5 165.999
c0 4.66699 0.166992 10.167 0.5 16.5s1 15.666 2 27.999s2.5 28.666 4.5 48.999s5 46.5 9 78.5l57 464h-369l-56 -451l-8 -65c-2 -16 -3.5 -28.5 -4.5 -37.5s-1.66699 -15.333 -2 -19s-0.5 -6.16699 -0.5 -7.5c0 -25.333 6.16699 -45.333 18.5 -60s29.833 -22 52.5 -22
c14 0 26 1.83301 36 5.5s18.667 7.5 26 11.5s14 7.83301 20 11.5s11.667 5.5 17 5.5c7.33301 0 13 -1.83301 17 -5.5s7.66699 -9.16699 11 -16.5l54 -120c-37.333 -30 -78.166 -52.667 -122.499 -68s-89.166 -23 -134.499 -23c-72.667 0 -130.167 19.667 -172.5 59
s-64.833 94.666 -67.5 165.999v16.5c0 6.33301 0.5 15.666 1.5 27.999s2.66699 28.666 5 48.999s5.5 46.5 9.5 78.5l57 464h-92c-13.333 0 -23.833 4.16699 -31.5 12.5s-10.5 20.833 -8.5 37.5l12 95l152 26l84 282c4 13.333 10.667 23.666 20 30.999s21 11 35 11h133
l-40 -326h380l84 284c4 13.333 10.833 23.666 20.5 30.999s21.167 11 34.5 11h133l-40 -326h646zM1525 -153.992c18 0 32.833 5.50098 44.5 16.501s19.167 30.833 22.5 59.5h139c-4.66699 -37.333 -13.5 -71.166 -26.5 -101.499s-29 -56.333 -48 -78
s-40.667 -38.334 -65 -50.001s-50.166 -17.5 -77.499 -17.5c-22 0 -42.167 4.33301 -60.5 13s-35.166 18 -50.499 28l-43.5 28c-13.667 8.66699 -26.5 13 -38.5 13c-18 0 -32.667 -5.83301 -44 -17.5s-18.666 -31.5 -21.999 -59.5h-140c4 37.333 12.667 71.166 26 101.499
s29.666 56.333 48.999 78s41.166 38.5 65.499 50.5s50.166 18 77.499 18c22 0 42.167 -4.33301 60.5 -13s35.333 -18 51 -28l43 -28c13 -8.66699 25.5 -13 37.5 -13zM1782 1325.01c0 -21.333 -4.5 -41.3301 -13.5 -59.9971s-20.667 -35 -35 -49s-30.833 -25.167 -49.5 -33.5
s-38 -12.5 -58 -12.5c-19.333 0 -38.166 4.16699 -56.499 12.5s-34.5 19.5 -48.5 33.5s-25.167 30.333 -33.5 49s-12.5 38.667 -12.5 60s4.33301 41.666 13 60.999s20 36.166 34 50.499s30.167 25.666 48.5 33.999s37.166 12.5 56.499 12.5c20 0 39.333 -4.16699 58 -12.5
s35.167 -19.5 49.5 -33.5s25.833 -30.667 34.5 -50s13 -40 13 -62z" />
    <glyph glyph-name="t_t_uni1E2F.liga" unicode="tt&#x1e2f;" horiz-adv-x="1794" 
d="M1597 0l-238.005 0.0078125l103 845h-408l-56 -451l-8 -65c-2 -16 -3.5 -28.5 -4.5 -37.5s-1.66699 -15.333 -2 -19s-0.5 -6.16699 -0.5 -7.5c0 -25.333 6.16699 -45.333 18.5 -60s30.166 -22 53.499 -22c14 0 25.833 1.83301 35.5 5.5s18.334 7.5 26.001 11.5
s14.334 7.83301 20.001 11.5s11.167 5.5 16.5 5.5c7.33301 0 13 -1.83301 17 -5.5s7.66699 -9.16699 11 -16.5l54 -120c-37.333 -30 -78.166 -52.667 -122.499 -68s-89.166 -23 -134.499 -23c-72.667 0 -130.167 19.667 -172.5 59s-64.833 94.666 -67.5 165.999
c0 4.66699 0.166992 10.167 0.5 16.5s1 15.666 2 27.999s2.5 28.666 4.5 48.999s5 46.5 9 78.5l57 464h-369l-56 -451l-8 -65c-2 -16 -3.5 -28.5 -4.5 -37.5s-1.66699 -15.333 -2 -19s-0.5 -6.16699 -0.5 -7.5c0 -25.333 6.16699 -45.333 18.5 -60s29.833 -22 52.5 -22
c14 0 26 1.83301 36 5.5s18.667 7.5 26 11.5s14 7.83301 20 11.5s11.667 5.5 17 5.5c7.33301 0 13 -1.83301 17 -5.5s7.66699 -9.16699 11 -16.5l54 -120c-37.333 -30 -78.166 -52.667 -122.499 -68s-89.166 -23 -134.499 -23c-72.667 0 -130.167 19.667 -172.5 59
s-64.833 94.666 -67.5 165.999v16.5c0 6.33301 0.5 15.666 1.5 27.999s2.66699 28.666 5 48.999s5.5 46.5 9.5 78.5l57 464h-92c-13.333 0 -23.833 4.16699 -31.5 12.5s-10.5 20.833 -8.5 37.5l12 95l152 26l84 282c4 13.333 10.667 23.666 20 30.999s21 11 35 11h133
l-40 -326h380l84 284c4 13.333 10.833 23.666 20.5 30.999s21.167 11 34.5 11h133l-40 -326h646zM2032 1784.01l-257 -261c-12.667 -13.333 -24.667 -22.5 -36 -27.5s-25.666 -7.5 -42.999 -7.5h-136l158 243c11.333 17.333 23.666 30.5 36.999 39.5s32.333 13.5 57 13.5
h220zM1590 1292.01c0 -18.667 -3.66699 -36.167 -11 -52.5s-17.5 -30.5 -30.5 -42.5s-28 -21.5 -45 -28.5s-34.833 -10.5 -53.5 -10.5c-18 0 -35.167 3.5 -51.5 10.5s-30.833 16.5 -43.5 28.5s-22.667 26.167 -30 42.5s-11 33.833 -11 52.5c0 19.333 3.66699 37.5 11 54.5
s17.333 31.833 30 44.5s27.167 22.667 43.5 30s33.5 11 51.5 11c18.667 0 36.5 -3.66699 53.5 -11s32 -17.333 45 -30s23.167 -27.5 30.5 -44.5s11 -35.167 11 -54.5zM1974 1292.01c0 -18.667 -3.66699 -36.167 -11 -52.5s-17.166 -30.5 -29.499 -42.5s-27 -21.5 -44 -28.5
s-34.833 -10.5 -53.5 -10.5c-19.333 0 -37.166 3.5 -53.499 10.5s-30.833 16.5 -43.5 28.5s-22.5 26.167 -29.5 42.5s-10.5 33.833 -10.5 52.5c0 19.333 3.5 37.5 10.5 54.5s16.833 31.833 29.5 44.5s27.167 22.667 43.5 30s34.166 11 53.499 11
c18.667 0 36.5 -3.66699 53.5 -11s31.667 -17.333 44 -30s22.166 -27.5 29.499 -44.5s11 -35.167 11 -54.5z" />
    <glyph glyph-name="t_t_uni0268.liga" unicode="tt&#x268;" horiz-adv-x="1828" 
d="M1628 1170c-19.333 0 -38.166 4.16992 -56.499 12.5029s-34.5 19.5 -48.5 33.5s-25.167 30.333 -33.5 49s-12.5 38.667 -12.5 60s4.33301 41.666 13 60.999s20 36.166 34 50.499s30.167 25.666 48.5 33.999s37.166 12.5 56.499 12.5c20 0 39.333 -4.16699 58 -12.5
s35.167 -19.5 49.5 -33.5s25.833 -30.667 34.5 -50s13 -40 13 -62c0 -21.333 -4.5 -41.333 -13.5 -60s-20.667 -35 -35 -49s-30.833 -25.167 -49.5 -33.5s-38 -12.5 -58 -12.5zM1774 403.003l-128.005 0.0078125l-49 -403h-238l49 403h-124l20 169h125l33 273h-408l-56 -451
l-8 -65c-2 -16 -3.5 -28.5 -4.5 -37.5s-1.66699 -15.333 -2 -19s-0.5 -6.16699 -0.5 -7.5c0 -25.333 6.16699 -45.333 18.5 -60s30.166 -22 53.499 -22c14 0 25.833 1.83301 35.5 5.5s18.334 7.5 26.001 11.5s14.334 7.83301 20.001 11.5s11.167 5.5 16.5 5.5
c7.33301 0 13 -1.83301 17 -5.5s7.66699 -9.16699 11 -16.5l54 -120c-37.333 -30 -78.166 -52.667 -122.499 -68s-89.166 -23 -134.499 -23c-72.667 0 -130.167 19.667 -172.5 59s-64.833 94.666 -67.5 165.999c0 4.66699 0.166992 10.167 0.5 16.5s1 15.666 2 27.999
s2.5 28.666 4.5 48.999s5 46.5 9 78.5l57 464h-369l-56 -451l-8 -65c-2 -16 -3.5 -28.5 -4.5 -37.5s-1.66699 -15.333 -2 -19s-0.5 -6.16699 -0.5 -7.5c0 -25.333 6.16699 -45.333 18.5 -60s29.833 -22 52.5 -22c14 0 26 1.83301 36 5.5s18.667 7.5 26 11.5
s14 7.83301 20 11.5s11.667 5.5 17 5.5c7.33301 0 13 -1.83301 17 -5.5s7.66699 -9.16699 11 -16.5l54 -120c-37.333 -30 -78.166 -52.667 -122.499 -68s-89.166 -23 -134.499 -23c-72.667 0 -130.167 19.667 -172.5 59s-64.833 94.666 -67.5 165.999v16.5
c0 6.33301 0.5 15.666 1.5 27.999s2.66699 28.666 5 48.999s5.5 46.5 9.5 78.5l57 464h-92c-13.333 0 -23.833 4.16699 -31.5 12.5s-10.5 20.833 -8.5 37.5l12 95l152 26l84 282c4 13.333 10.667 23.666 20 30.999s21 11 35 11h133l-40 -326h380l84 284
c4 13.333 10.833 23.666 20.5 30.999s21.167 11 34.5 11h133l-40 -326h646l-54 -442h128z" />
    <glyph glyph-name="t_t_uni020B.liga" unicode="tt&#x20b;" horiz-adv-x="1795" 
d="M1597 0l-238.005 0.0078125l103 845h-408l-56 -451l-8 -65c-2 -16 -3.5 -28.5 -4.5 -37.5s-1.66699 -15.333 -2 -19s-0.5 -6.16699 -0.5 -7.5c0 -25.333 6.16699 -45.333 18.5 -60s30.166 -22 53.499 -22c14 0 25.833 1.83301 35.5 5.5s18.334 7.5 26.001 11.5
s14.334 7.83301 20.001 11.5s11.167 5.5 16.5 5.5c7.33301 0 13 -1.83301 17 -5.5s7.66699 -9.16699 11 -16.5l54 -120c-37.333 -30 -78.166 -52.667 -122.499 -68s-89.166 -23 -134.499 -23c-72.667 0 -130.167 19.667 -172.5 59s-64.833 94.666 -67.5 165.999
c0 4.66699 0.166992 10.167 0.5 16.5s1 15.666 2 27.999s2.5 28.666 4.5 48.999s5 46.5 9 78.5l57 464h-369l-56 -451l-8 -65c-2 -16 -3.5 -28.5 -4.5 -37.5s-1.66699 -15.333 -2 -19s-0.5 -6.16699 -0.5 -7.5c0 -25.333 6.16699 -45.333 18.5 -60s29.833 -22 52.5 -22
c14 0 26 1.83301 36 5.5s18.667 7.5 26 11.5s14 7.83301 20 11.5s11.667 5.5 17 5.5c7.33301 0 13 -1.83301 17 -5.5s7.66699 -9.16699 11 -16.5l54 -120c-37.333 -30 -78.166 -52.667 -122.499 -68s-89.166 -23 -134.499 -23c-72.667 0 -130.167 19.667 -172.5 59
s-64.833 94.666 -67.5 165.999v16.5c0 6.33301 0.5 15.666 1.5 27.999s2.66699 28.666 5 48.999s5.5 46.5 9.5 78.5l57 464h-92c-13.333 0 -23.833 4.16699 -31.5 12.5s-10.5 20.833 -8.5 37.5l12 95l152 26l84 282c4 13.333 10.667 23.666 20 30.999s21 11 35 11h133
l-40 -326h380l84 284c4 13.333 10.833 23.666 20.5 30.999s21.167 11 34.5 11h133l-40 -326h646zM1659 1461.01c52.667 0 95.8359 -7.5 129.503 -22.5s59.834 -35.5 78.501 -61.5s30.667 -56.333 36 -91s5.66602 -71.334 0.999023 -110.001h-158c2 20 2.16699 38 0.5 54
s-6.33398 29.667 -14.001 41s-18.834 20 -33.501 26s-34 9 -58 9c-23.333 0 -43 -3 -59 -9s-29.167 -14.667 -39.5 -26s-18.166 -25 -23.499 -41s-9 -34 -11 -54h-159c4 38.667 12.667 75.334 26 110.001s32.166 65 56.499 91s55.166 46.5 92.499 61.5s82.333 22.5 135 22.5
z" />
    <glyph glyph-name="t_t_uni0209.liga" unicode="tt&#x209;" horiz-adv-x="1795" 
d="M1597 0l-238.005 0.0078125l103 845h-408l-56 -451l-8 -65c-2 -16 -3.5 -28.5 -4.5 -37.5s-1.66699 -15.333 -2 -19s-0.5 -6.16699 -0.5 -7.5c0 -25.333 6.16699 -45.333 18.5 -60s30.166 -22 53.499 -22c14 0 25.833 1.83301 35.5 5.5s18.334 7.5 26.001 11.5
s14.334 7.83301 20.001 11.5s11.167 5.5 16.5 5.5c7.33301 0 13 -1.83301 17 -5.5s7.66699 -9.16699 11 -16.5l54 -120c-37.333 -30 -78.166 -52.667 -122.499 -68s-89.166 -23 -134.499 -23c-72.667 0 -130.167 19.667 -172.5 59s-64.833 94.666 -67.5 165.999
c0 4.66699 0.166992 10.167 0.5 16.5s1 15.666 2 27.999s2.5 28.666 4.5 48.999s5 46.5 9 78.5l57 464h-369l-56 -451l-8 -65c-2 -16 -3.5 -28.5 -4.5 -37.5s-1.66699 -15.333 -2 -19s-0.5 -6.16699 -0.5 -7.5c0 -25.333 6.16699 -45.333 18.5 -60s29.833 -22 52.5 -22
c14 0 26 1.83301 36 5.5s18.667 7.5 26 11.5s14 7.83301 20 11.5s11.667 5.5 17 5.5c7.33301 0 13 -1.83301 17 -5.5s7.66699 -9.16699 11 -16.5l54 -120c-37.333 -30 -78.166 -52.667 -122.499 -68s-89.166 -23 -134.499 -23c-72.667 0 -130.167 19.667 -172.5 59
s-64.833 94.666 -67.5 165.999v16.5c0 6.33301 0.5 15.666 1.5 27.999s2.66699 28.666 5 48.999s5.5 46.5 9.5 78.5l57 464h-92c-13.333 0 -23.833 4.16699 -31.5 12.5s-10.5 20.833 -8.5 37.5l12 95l152 26l84 282c4 13.333 10.667 23.666 20 30.999s21 11 35 11h133
l-40 -326h380l84 284c4 13.333 10.833 23.666 20.5 30.999s21.167 11 34.5 11h133l-40 -326h646zM1670 1462.01c24.667 0 42.667 -4.5 54 -13.5s20.333 -22.167 27 -39.5l89 -243h-93c-17.333 0 -31.5 2.5 -42.5 7.5s-20.5 14.167 -28.5 27.5l-154 261h148zM1365 1462.01
c24.667 0 42.167 -4.5 52.5 -13.5s19.833 -22.167 28.5 -39.5l136 -243h-107c-17.333 0 -31.333 2.5 -42 7.5s-20.667 14.167 -30 27.5l-201 261h163z" />
    <glyph glyph-name=".notdef" horiz-adv-x="1094" 
d="M239 1147c38 30.667 81.167 56.499 129.5 77.499s105.5 31.5 171.5 31.5c46.667 0 88.667 -6.33301 126 -19s69 -30.5 95 -53.5s45.833 -50.667 59.5 -83s20.5 -68.166 20.5 -107.499c0 -36.667 -4.66699 -68.167 -14 -94.5s-21 -49.333 -35 -69s-29.333 -36.5 -46 -50.5
l-48 -39.5c-15.333 -12.333 -28.833 -24.5 -40.5 -36.5s-19.167 -25.333 -22.5 -40l-22 -96h-169l-17 114c-4 24.667 -2.16699 45.834 5.5 63.501s18.334 33.667 32.001 48s29 27.666 46 39.999s33 25.333 48 39s27.667 29 38 46s15.5 37.167 15.5 60.5s-8 42.333 -24 57
s-39.333 22 -70 22c-24 0 -44.167 -2.33301 -60.5 -7s-30.5 -9.66699 -42.5 -15s-22.5 -10.333 -31.5 -15s-18.5 -7 -28.5 -7c-22.667 0 -39.334 9.66699 -50.001 29zM385 312.999c0 18.667 3.5 36.334 10.5 53.001s16.5 31.167 28.5 43.5s26.333 22 43 29
s34.667 10.5 54 10.5c18.667 0 36.167 -3.5 52.5 -10.5s30.666 -16.667 42.999 -29s22 -26.833 29 -43.5s10.5 -34.334 10.5 -53.001c0 -19.333 -3.5 -37.166 -10.5 -53.499s-16.667 -30.5 -29 -42.5s-26.666 -21.5 -42.999 -28.5s-33.833 -10.5 -52.5 -10.5
c-19.333 0 -37.333 3.5 -54 10.5s-31 16.5 -43 28.5s-21.5 26.167 -28.5 42.5s-10.5 34.166 -10.5 53.499zM42 1446h1010v-1446h-1010v1446zM107 68.999h873v1309h-873v-1309z" />
    <glyph glyph-name="glyph1" horiz-adv-x="0" 
 />
    <glyph glyph-name="glyph1" horiz-adv-x="0" 
 />
    <glyph glyph-name="space" unicode=" " horiz-adv-x="438" 
 />
    <glyph glyph-name="space" unicode="&#xa0;" horiz-adv-x="438" 
 />
    <glyph glyph-name="exclam" unicode="!" horiz-adv-x="530" 
d="M473 1446l-70.0029 -573c-7.33301 -60.667 -17.666 -120.167 -30.999 -178.5s-28.666 -120.5 -45.999 -186.5h-161c-1.33301 66 -1.16602 128.167 0.500977 186.5s6.5 117.833 14.5 178.5l70 573h223zM62.9971 136c0 20.667 3.83301 40.334 11.5 59.001
s18.167 34.667 31.5 48s29.333 24 48 32s38.667 12 60 12c20.667 0 40.334 -4 59.001 -12s34.834 -18.667 48.501 -32s24.5 -29.333 32.5 -48s12 -38.334 12 -59.001c0 -21.333 -4 -41.166 -12 -59.499s-18.833 -34.166 -32.5 -47.499s-29.834 -23.833 -48.501 -31.5
s-38.334 -11.5 -59.001 -11.5c-21.333 0 -41.333 3.83301 -60 11.5s-34.667 18.167 -48 31.5s-23.833 29.166 -31.5 47.499s-11.5 38.166 -11.5 59.499z" />
    <glyph glyph-name="quotedbl" unicode="&#x22;" horiz-adv-x="743" 
d="M406 1445l-36.001 -288l-40 -157c-7.33301 -28 -17.833 -49.667 -31.5 -65s-34.5 -23 -62.5 -23c-23.333 0 -40.166 7.66699 -50.499 23s-16.833 37 -19.5 65l-3 157l37 288h206zM744.999 1445l-36.001 -288l-40 -157c-7.33301 -28 -17.833 -49.667 -31.5 -65
s-34.5 -23 -62.5 -23c-23.333 0 -40.166 7.66699 -50.499 23s-16.833 37 -19.5 65l-3 157l37 288h206z" />
    <glyph glyph-name="numbersign" unicode="#" horiz-adv-x="1160" 
d="M736 865h-210l-89 -284h211zM1182 1036l-32 -99c-7.33301 -25.333 -19.666 -43.666 -36.999 -54.999s-43 -17 -77 -17h-104l-89 -284h147c24 0 40.667 -7 50 -21s9.33301 -39 0 -75l-23 -76h-219l-127 -409h-111c-11.333 0 -21.333 2.66699 -30 8s-15.667 12.5 -21 21.5
s-8.5 19.5 -9.5 31.5s0.833008 24.667 5.5 38l98 310h-211l-99 -322c-9.33301 -32 -25 -54.5 -47 -67.5s-45.667 -19.5 -71 -19.5h-107l129 409h-119c-24.667 0 -41.5 7.33301 -50.5 22s-8.83301 39.667 0.5 75l22 75h192l88 284h-216l29 98c8 25.333 20.667 43.833 38 55.5
s43.333 17.5 78 17.5h117l102 328c8.66699 25.333 23.167 45.166 43.5 59.499s43.166 21.5 68.499 21.5h110l-128 -409h209l128 409h107c24 0 42.5 -8 55.5 -24s15.5 -36 7.5 -60l-101 -325h204z" />
    <glyph glyph-name="dollar" unicode="$" horiz-adv-x="1160" 
d="M647 1256c-42 -4.66699 -77.999 -13.332 -107.999 -25.999s-54.5 -28.167 -73.5 -46.5s-33 -39 -42 -62s-13.5 -47.167 -13.5 -72.5c0 -22 4 -41.833 12 -59.5s19 -33.334 33 -47.001s30.667 -26 50 -37s40.666 -20.833 63.999 -29.5zM575.001 185.002
c82 9.33301 144.5 36.166 187.5 80.499s64.5 100.5 64.5 168.5c0 22.667 -4.16699 42.834 -12.5 60.501s-20 33.167 -35 46.5s-32.667 25 -53 35s-42.5 19.333 -66.5 28zM1063 1206c-10.667 -13.333 -20.834 -23.1709 -30.501 -29.5039s-21.167 -9.5 -34.5 -9.5
c-10 0 -21.333 3.33301 -34 10l-44 24c-16.667 9.33301 -35.5 18.833 -56.5 28.5s-44.5 17.167 -70.5 22.5l-86 -423c42.667 -14 85 -29.167 127 -45.5s79.833 -37.166 113.5 -62.499s60.834 -56.333 81.501 -93s31 -82 31 -136c0 -65.333 -12.167 -127.333 -36.5 -186
s-59.166 -110.834 -104.499 -156.501s-100.5 -83 -165.5 -112s-138.167 -46.167 -219.5 -51.5l-31 -151c-2.66699 -15.333 -10.834 -29.166 -24.501 -41.499s-29.5 -18.5 -47.5 -18.5h-88l44 215c-76.667 10.667 -147.167 32 -211.5 64s-117.5 72 -159.5 120l87 109
c7.33301 9.33301 16.666 17 27.999 23s23.333 9 36 9c14.667 0 29.5 -5.33301 44.5 -16l52 -37c19.667 -14 42.667 -28.167 69 -42.5s58.166 -24.833 95.499 -31.5l94 459c-42 12.667 -83.5 27.334 -124.5 44.001s-77.5 38 -109.5 64s-58 58.333 -78 97s-30 86.667 -30 144
c0 58 11.667 114 35 168s57 102.167 101 144.5s97.333 77 160 104s133.334 42.167 212.001 45.5l26 127c2.66699 16 10.834 30.167 24.501 42.5s29.5 18.5 47.5 18.5h88l-40 -195c69.333 -11.333 127.833 -31.166 175.5 -59.499s88.167 -61.166 121.5 -98.499z" />
    <glyph glyph-name="percent" unicode="%" horiz-adv-x="1523" 
d="M758 1150c0 -64 -10.332 -121.501 -30.999 -172.501s-47.834 -94.333 -81.501 -130s-72.167 -63 -115.5 -82s-87.333 -28.5 -132 -28.5c-40 0 -76.5 7.16699 -109.5 21.5s-61.167 34.833 -84.5 61.5s-41.5 58.834 -54.5 96.501s-19.5 79.834 -19.5 126.501
c0 63.333 9.33301 120.666 28 171.999s44.167 95 76.5 131s70.333 63.833 114 83.5s90.167 29.5 139.5 29.5c40 0 76.667 -7.16699 110 -21.5s61.833 -35 85.5 -62s42 -59.5 55 -97.5s19.5 -80.667 19.5 -128zM573.001 1149c0 56 -9.83203 95.999 -29.499 119.999
s-44.834 36 -75.501 36c-22 0 -42.333 -4.83301 -61 -14.5s-35 -25 -49 -46s-24.833 -48 -32.5 -81s-11.5 -73.167 -11.5 -120.5c0 -27.333 2.5 -50.666 7.5 -69.999s12.167 -35 21.5 -47s20.333 -20.667 33 -26s26.667 -8 42 -8c21.333 0 41.5 4.5 60.5 13.5
s35.5 23.667 49.5 44s25 46.833 33 79.5s12 72.667 12 120zM1230 1407c9.33301 9.33301 20.165 18 32.498 26s28.833 12 49.5 12h173l-1166 -1409c-9.33301 -10 -20.166 -18.5 -32.499 -25.5s-27.166 -10.5 -44.499 -10.5h-176zM1420 394.998
c0 -64 -10.335 -121.5 -31.002 -172.5s-47.667 -94.333 -81 -130s-71.666 -63 -114.999 -82s-87.333 -28.5 -132 -28.5c-40 0 -76.667 7.33301 -110 22s-61.666 35.167 -84.999 61.5s-41.5 58.333 -54.5 96s-19.5 79.5 -19.5 125.5c0 64 9.33301 121.833 28 173.5
s44.167 95.5 76.5 131.5s70.333 63.833 114 83.5s90.167 29.5 139.5 29.5c40 0 76.667 -7.33301 110 -22s61.833 -35.5 85.5 -62.5s42 -59.5 55 -97.5s19.5 -80.667 19.5 -128zM1235 393.998c0 56 -9.83301 95.833 -29.5 119.5s-44.5 35.5 -74.5 35.5
c-22 0 -42.5 -4.83301 -61.5 -14.5s-35.5 -25 -49.5 -46s-24.833 -48 -32.5 -81s-11.5 -73.167 -11.5 -120.5c0 -54 9.66699 -92.667 29 -116s44.333 -35 75 -35c22 0 42.333 4.5 61 13.5s35 23.667 49 44s25 47 33 80s12 73.167 12 120.5z" />
    <glyph glyph-name="ampersand" unicode="&#x26;" horiz-adv-x="1337" 
d="M453 673c-59.333 -38.667 -101.667 -82.8311 -127 -132.498s-38 -102.834 -38 -159.501c0 -64.667 17 -115.334 51 -152.001s83.333 -55 148 -55c48 0 94.167 9.66699 138.5 29s85.833 46 124.5 80zM1264 0.00292969l-205.997 0.00390625c-19.333 0 -36 1.16699 -50 3.5
s-26.333 6.33301 -37 12s-20.5 12.834 -29.5 21.501s-18.5 19.334 -28.5 32.001l-52 69c-62 -48.667 -128.667 -86.5 -200 -113.5s-146.333 -40.5 -225 -40.5c-61.333 0 -116.333 8.5 -165 25.5s-90 41.333 -124 73s-60 70 -78 115s-27 95.5 -27 151.5
c0 51.333 8.16699 99.833 24.5 145.5s39 87.667 68 126s63.333 72.833 103 103.5s82.5 56.667 128.5 78c-21.333 42 -37 83.667 -47 125s-15 81 -15 119c0 56.667 10 110.167 30 160.5s48.333 94.333 85 132s81.167 67.5 133.5 89.5s111.166 33 176.499 33
c54.667 0 103.167 -8.66699 145.5 -26s77.666 -40.833 105.999 -70.5s49.666 -63.834 63.999 -102.501s21.166 -79.334 20.499 -122.001l-143 -28c-20 -4 -35.333 -3.33301 -46 2s-18.667 17 -24 35c-4 18 -10 34.833 -18 50.5s-18 29.5 -30 41.5s-26 21.333 -42 28
s-34.333 10 -55 10c-28 0 -53.167 -5.66699 -75.5 -17s-41.333 -26.833 -57 -46.5s-27.667 -42.667 -36 -69s-12.5 -54.5 -12.5 -84.5c0 -32 6.16699 -65 18.5 -99s32.166 -70 59.499 -108l296 -383c22 40 40.833 81.667 56.5 125s27.834 87.666 36.501 132.999
c3.33301 15.333 9 27.666 17 36.999s20 14 36 14h167c-11.333 -88.667 -33.166 -172.834 -65.499 -252.501s-72.833 -152.834 -121.5 -219.501z" />
    <glyph glyph-name="quotesingle" unicode="'" horiz-adv-x="404" 
d="M406 1445l-36.001 -288l-40 -157c-7.33301 -28 -17.833 -49.667 -31.5 -65s-34.5 -23 -62.5 -23c-23.333 0 -40.166 7.66699 -50.499 23s-16.833 37 -19.5 65l-3 157l37 288h206z" />
    <glyph glyph-name="parenleft" unicode="(" horiz-adv-x="533" 
d="M276 433c0 -46 2 -94.6689 6 -146.002s9.83301 -102.666 17.5 -153.999s17.167 -101.666 28.5 -150.999s24.666 -95 39.999 -137c10 -26 10.667 -46 2 -60s-20.334 -25.333 -35.001 -34l-113 -63c-27.333 56.667 -50.666 115.667 -69.999 177
s-35.166 123.166 -47.499 185.499s-21.5 124.333 -27.5 186s-9 121.167 -9 178.5c0 99.333 6.16699 195.833 18.5 289.5s33.166 187.167 62.499 280.5s68.666 187.833 117.999 283.5s111 195.167 185 298.5l99 -63c6 -4 11.333 -8.83301 16 -14.5
s7.83398 -12.167 9.50098 -19.5s1.33398 -16 -0.999023 -26s-7.83301 -21.333 -16.5 -34c-43.333 -73.333 -82.5 -147.666 -117.5 -222.999s-64.833 -153 -89.5 -233s-43.5 -163.167 -56.5 -249.5s-19.5 -176.833 -19.5 -271.5z" />
    <glyph glyph-name="parenright" unicode=")" horiz-adv-x="532" 
d="M260 821c0 46 -2.00293 94.668 -6.00293 146.001s-10 102.833 -18 154.5s-17.667 102.167 -29 151.5s-24.333 95 -39 137c-10 26 -10.667 46 -2 60s20.334 25.333 35.001 34l113 63c26.667 -56.667 49.834 -115.5 69.501 -176.5s35.667 -122.833 48 -185.5
s21.5 -124.834 27.5 -186.501s9 -121.167 9 -178.5c0 -99.333 -6.16699 -195.833 -18.5 -289.5s-33.166 -187.167 -62.499 -280.5s-68.833 -187.833 -118.5 -283.5s-111.5 -195.167 -185.5 -298.5l-97 63c-6 4 -11.5 8.83301 -16.5 14.5s-8.33301 12.167 -10 19.5
s-1.33398 15.833 0.999023 25.5s7.83301 21.167 16.5 34.5c44 73.333 83.333 148.166 118 224.499s64.334 154.833 89.001 235.5s43.5 163.834 56.5 249.501s19.5 174.5 19.5 266.5z" />
    <glyph glyph-name="asterisk" unicode="*" horiz-adv-x="792" 
d="M623 1205c-26.667 -14.667 -51.3359 -24.0029 -74.0029 -28.0029c22.667 -2.66699 45 -12 67 -28l132 -94l-67 -96l-133 94c-21.333 14 -38 28.333 -50 43c5.33301 -21.333 6.33301 -44.666 3 -69.999l-23 -186h-114l23 184c1.33301 13.333 3.5 26 6.5 38
s7.16699 23.333 12.5 34c-8 -8 -17.167 -15.5 -27.5 -22.5s-21.166 -13.833 -32.499 -20.5l-155 -94l-44 97l155 93c12.667 7.33301 25.167 13.5 37.5 18.5s25.166 8.16699 38.499 9.5c-24.667 4 -47.667 13.333 -69 28l-133 94l69 97l133 -95
c20.667 -12.667 37.334 -27.667 50.001 -45c-6 21.333 -7.33301 45.333 -4 72l24 186h113l-23 -184c-1.33301 -13.333 -3.66602 -26.166 -6.99902 -38.499s-8 -24.166 -14 -35.499c16.667 18 37.334 33 62.001 45l155 94l44 -97z" />
    <glyph glyph-name="plus" unicode="+" horiz-adv-x="1160" 
d="M1063 583h-390l-51 -414h-195l51 414h-388l22 177h388l51 412h194l-51 -412h392z" />
    <glyph glyph-name="comma" unicode="," horiz-adv-x="470" 
d="M62 -245c-12 10 -17.998 21.999 -17.998 35.999c0 9.33301 5.66699 20.5 17 33.5l38.5 45.5c14.333 17.333 28.5 37 42.5 59s24 46.667 30 74c-21.333 0 -40.5 3.83301 -57.5 11.5s-31.833 18.167 -44.5 31.5s-22.334 29 -29.001 47s-10 37.667 -10 59
c0 18.667 3.5 36.167 10.5 52.5s16.833 30.666 29.5 42.999s27.834 22 45.501 29s37.167 10.5 58.5 10.5c25.333 0 47.5 -4.5 66.5 -13.5s34.667 -21.333 47 -37s21.666 -33.667 27.999 -54s9.5 -41.833 9.5 -64.5c0 -32 -4.83301 -65.667 -14.5 -101
s-23.834 -70.666 -42.501 -105.999s-41.667 -69.666 -69 -102.999s-59 -64 -95 -92z" />
    <glyph glyph-name="hyphen" unicode="-" horiz-adv-x="694" 
d="M117 703h481l-26 -199h-479z" />
    <glyph glyph-name="hyphen" unicode="&#x2010;" horiz-adv-x="694" 
d="M117 703h481l-26 -199h-479z" />
    <glyph glyph-name="hyphen" unicode="&#xad;" horiz-adv-x="694" 
d="M117 703h481l-26 -199h-479z" />
    <glyph glyph-name="period" unicode="." horiz-adv-x="476" 
d="M31 136c0 20.667 3.83301 40.334 11.5 59.001s18.334 34.667 32.001 48s29.834 24 48.501 32s38.667 12 60 12c20.667 0 40.334 -4 59.001 -12s34.834 -18.667 48.501 -32s24.5 -29.333 32.5 -48s12 -38.334 12 -59.001c0 -21.333 -4 -41.166 -12 -59.499
s-18.833 -34.166 -32.5 -47.499s-29.834 -23.833 -48.501 -31.5s-38.334 -11.5 -59.001 -11.5c-21.333 0 -41.333 3.83301 -60 11.5s-34.834 18.167 -48.501 31.5s-24.334 29.166 -32.001 47.499s-11.5 38.166 -11.5 59.499z" />
    <glyph glyph-name="slash" unicode="/" horiz-adv-x="859" 
d="M207 -7c-14.667 -29.333 -34.8311 -51.668 -60.498 -67.001s-50.834 -23 -75.501 -23h-101l702 1468c13.333 26.667 31.666 47.334 54.999 62.001s49 22 77 22h101z" />
    <glyph glyph-name="zero" unicode="0" horiz-adv-x="1160" 
d="M1095 881c0 -151.333 -15.832 -283.166 -47.499 -395.499s-74.5 -205.666 -128.5 -279.999s-117 -129.833 -189 -166.5s-148.333 -55 -229 -55c-60.667 0 -116.167 12 -166.5 36s-93.5 60.167 -129.5 108.5s-64 108.833 -84 181.5s-30 157.334 -30 254.001
c0 151.333 15.667 283.166 47 395.499s73.666 205.666 126.999 279.999s115.833 129.833 187.5 166.5s148.167 55 229.5 55c60.667 0 116.167 -12 166.5 -36s93.833 -60.167 130.5 -108.5s65.167 -108.833 85.5 -181.5s30.5 -157.334 30.5 -254.001zM850.001 893
c0 69.333 -5.16699 127.503 -15.5 174.503s-24.333 85 -42 114s-38 49.833 -61 62.5s-47.5 19 -73.5 19c-26.667 0 -53.167 -5.16699 -79.5 -15.5s-51.5 -26.833 -75.5 -49.5s-46.333 -52.334 -67 -89.001s-38.5 -81.5 -53.5 -134.5s-26.667 -114.5 -35 -184.5
s-12.5 -150 -12.5 -240c0 -68.667 5.16699 -126.5 15.5 -173.5s24.166 -84.833 41.499 -113.5s37.5 -49.334 60.5 -62.001s47.167 -19 72.5 -19c40 0 79.333 11.667 118 35s73.334 62.666 104.001 117.999s55.5 128.333 74.5 219s28.5 203.667 28.5 339z" />
    <glyph glyph-name="one" unicode="1" horiz-adv-x="1160" 
d="M953 178l-22.998 -178.001h-741l22 178h267l106 862l6.5 47.5c2.33301 16.333 5.16602 32.833 8.49902 49.5l-206 -176c-12 -9.33301 -23.833 -15.166 -35.5 -17.499s-22.334 -2.5 -32.001 -0.5s-18 5.5 -25 10.5s-12.167 10.5 -15.5 16.5l-62 103l453 374h196
l-155 -1269h236z" />
    <glyph glyph-name="two" unicode="2" horiz-adv-x="1160" 
d="M902 222c25.333 0 44.668 -7.33398 58.001 -22.001s18.666 -34 15.999 -58l-18 -142h-918l10 79c2 16 7.16699 32.833 15.5 50.5s21.166 33.834 38.499 48.501l454 443c44.667 42.667 83.5 82.834 116.5 120.501s60.5 74.667 82.5 111s38.5 73.166 49.5 110.499
s16.5 77.333 16.5 120c0 58 -14.333 102 -43 132s-68.667 45 -120 45c-26 0 -50.5 -4.33301 -73.5 -13s-44 -20.667 -63 -36s-35.667 -33.5 -50 -54.5s-25.833 -43.833 -34.5 -68.5c-14.667 -30 -31.334 -49.833 -50.001 -59.5s-44 -11.834 -76 -6.50098l-123 22
c18 68.667 43.5 129.167 76.5 181.5s71.667 95.833 116 130.5s93.333 60.834 147 78.501s110.167 26.5 169.5 26.5c56.667 0 107.834 -8.5 153.501 -25.5s84.5 -41.167 116.5 -72.5s56.667 -69 74 -113s26 -92.667 26 -146c0 -60.667 -8.83301 -116.167 -26.5 -166.5
s-41.667 -98 -72 -143s-65.666 -88.667 -105.999 -131l-128.5 -129.5l-350 -344c33.333 9.33301 66.5 17 99.5 23s63.5 9 91.5 9h325z" />
    <glyph glyph-name="three" unicode="3" horiz-adv-x="1160" 
d="M195 1044c18 68.667 43.5 129.167 76.5 181.5s71.667 95.833 116 130.5s93.333 60.834 147 78.501s110.167 26.5 169.5 26.5c57.333 0 108.333 -8.33301 153 -25s82.5 -39.834 113.5 -69.501s54.5 -64.5 70.5 -104.5s24 -83.333 24 -130
c0 -53.333 -5.66699 -100.166 -17 -140.499s-28 -75.5 -50 -105.5s-49.167 -55 -81.5 -75s-69.166 -36.333 -110.499 -49c68.667 -25.333 119.834 -62 153.501 -110s50.5 -107 50.5 -177c0 -78 -14.333 -147.5 -43 -208.5s-67 -112.5 -115 -154.5s-103 -73.833 -165 -95.5
s-126.333 -32.5 -193 -32.5c-66 0 -122.833 8.5 -170.5 25.5s-88 41.667 -121 74s-59.833 72.166 -80.5 119.499s-36.667 101.333 -48 162l110 44c29.333 11.333 55.666 14.5 78.999 9.5s39 -18.167 47 -39.5c8.66699 -22.667 18.334 -45.667 29.001 -69
s23.667 -44.333 39 -63s34.166 -33.834 56.499 -45.501s49.5 -17.5 81.5 -17.5c40.667 0 76.834 8.16699 108.501 24.5s58.5 38 80.5 65s38.667 57.833 50 92.5s17 70.667 17 108c0 26 -4 50 -12 72s-22.333 41 -43 57s-48.834 28.667 -84.501 38s-81.5 14 -137.5 14l21 170
c57.333 0.666992 105.833 6.83398 145.5 18.501s71.834 28.667 96.501 51s42.5 49.5 53.5 81.5s16.5 68.667 16.5 110c0 56.667 -14.333 99.834 -43 129.501s-68.667 44.5 -120 44.5c-26 0 -50.5 -4.33301 -73.5 -13s-44 -20.667 -63 -36s-35.833 -33.5 -50.5 -54.5
s-26.334 -43.833 -35.001 -68.5c-14.667 -30 -31.334 -49.833 -50.001 -59.5s-44 -11.834 -76 -6.50098z" />
    <glyph glyph-name="four" unicode="4" horiz-adv-x="1160" 
d="M690 541l60 490c2 18 4.83301 37.333 8.5 58s8.16699 42 13.5 64l-481 -612h399zM1060 541l-17 -137.001c-1.33301 -13.333 -6.83301 -24.666 -16.5 -33.999s-22.167 -14 -37.5 -14h-114l-44 -356h-207l44 356h-558c-15.333 0 -28.5 4.83301 -39.5 14.5
s-17.167 22.167 -18.5 37.5l-10 121l741 917h226l-111 -905h162z" />
    <glyph glyph-name="five" unicode="5" horiz-adv-x="1160" 
d="M1070 1445l-13 -101.001c-4 -34 -18 -61.667 -42 -83s-61.333 -32 -112 -32h-354l-88 -310c30 6.66699 58.333 11.334 85 14.001s52.667 4 78 4c63.333 0 118.666 -9.83301 165.999 -29.5s86.833 -46.5 118.5 -80.5s55.5 -74.167 71.5 -120.5s24 -96.166 24 -149.499
c0 -85.333 -14.833 -163 -44.5 -233s-70 -130.333 -121 -181s-110.833 -89.834 -179.5 -117.501s-142.334 -41.5 -221.001 -41.5c-42 0 -81.333 4.5 -118 13.5s-70.667 21.333 -102 37s-59.833 33.667 -85.5 54s-48.5 41.5 -68.5 63.5l86 101
c18.667 21.333 40.334 32 65.001 32c16 0 31.333 -5.33301 46 -16s31.5 -22.167 50.5 -34.5s41.5 -23.833 67.5 -34.5s58.667 -16 98 -16c48 0 89.833 9.16699 125.5 27.5s65.334 43.166 89.001 74.499s41.5 67.833 53.5 109.5s18 85.834 18 132.501
c0 66.667 -18 119 -54 157s-89.333 57 -160 57c-31.333 0 -63.333 -3 -96 -9s-66 -15.333 -100 -28l-143 42l198 698h662z" />
    <glyph glyph-name="six" unicode="6" horiz-adv-x="1067" 
d="M527 179c38.667 0 74.667 7.83398 108 23.501s62.5 37.5 87.5 65.5s44.667 61.167 59 99.5s21.5 80.166 21.5 125.499c0 35.333 -4.83301 67.166 -14.5 95.499s-23.5 52.333 -41.5 72s-39.833 34.834 -65.5 45.501s-54.5 16 -86.5 16c-38 0 -73.333 -8 -106 -24
s-61 -38 -85 -66s-42.833 -61.333 -56.5 -100s-20.5 -80.667 -20.5 -126c0 -33.333 4.16699 -64 12.5 -92s20.833 -52 37.5 -72s37.5 -35.5 62.5 -46.5s54.167 -16.5 87.5 -16.5zM574 918.001l-25.502 -29.001l-24.5 -28c26 12.667 53.667 22.334 83 29.001s60.333 10 93 10
c46 0 89.833 -8 131.5 -24s78.334 -39.5 110.001 -70.5s56.834 -69.5 75.501 -115.5s28 -99.333 28 -160c0 -50.667 -6.16699 -99.334 -18.5 -146.001s-29.833 -90.167 -52.5 -130.5s-50.167 -77 -82.5 -110s-68.333 -61.333 -108 -85s-82.834 -42 -129.501 -55
s-95.667 -19.5 -147 -19.5c-64 0 -121.167 10.5 -171.5 31.5s-92.833 50.5 -127.5 88.5s-61.167 83.333 -79.5 136s-27.5 111 -27.5 175c0 44 4.5 86.833 13.5 128.5s22.333 83.167 40 124.5s39.834 82.833 66.501 124.5s58 84.834 94 129.501l372 467
c13.333 15.333 32 28.5 56 39.5s50 16.5 78 16.5h212z" />
    <glyph glyph-name="seven" unicode="7" horiz-adv-x="1160" 
d="M1151 1445l-12 -102.999c-4 -30.667 -10.667 -55.5 -20 -74.5s-17.666 -35.167 -24.999 -48.5l-636 -1138c-14 -22.667 -31.667 -41.834 -53 -57.501s-49 -23.5 -83 -23.5h-173l644 1116c14.667 22.667 29.167 43.167 43.5 61.5s29.833 35.5 46.5 51.5h-628
c-14 0 -25.833 5.66699 -35.5 17s-13.834 24 -12.501 38l20 161h924z" />
    <glyph glyph-name="eight" unicode="8" horiz-adv-x="1160" 
d="M525 170c41.333 0 77.6699 7.16699 109.003 21.5s57.666 34.333 78.999 60s37.5 56.167 48.5 91.5s16.5 74 16.5 116c0 64.667 -17.167 113.334 -51.5 146.001s-81.833 49 -142.5 49c-36 0 -69.333 -5.33301 -100 -16s-57.334 -27.5 -80.001 -50.5
s-40.334 -52.333 -53.001 -88s-19 -78.5 -19 -128.5c0 -28.667 4 -55.334 12 -80.001s20 -46 36 -64s36.167 -32 60.5 -42s52.5 -15 84.5 -15zM662.004 1281c-37.333 0 -69.668 -6.83398 -97.001 -20.501s-50 -32.167 -68 -55.5s-31.333 -50.5 -40 -81.5
s-13 -63.833 -13 -98.5c0 -23.333 2.83301 -46 8.5 -68s14.834 -41.5 27.501 -58.5s29.334 -30.667 50.001 -41s46.334 -15.5 77.001 -15.5c37.333 0 69.833 6.83301 97.5 20.5s50.5 32.334 68.5 56.001s31.5 51.334 40.5 83.001s13.5 65.5 13.5 101.5
c0 24 -3.16699 46.667 -9.5 68s-16.333 40.166 -30 56.499s-30.834 29.333 -51.501 39s-45.334 14.5 -74.001 14.5zM820.002 751.999c70 -25.333 121.331 -63.167 153.998 -113.5s49 -110.833 49 -181.5c0 -72 -13 -137.167 -39 -195.5s-62.167 -108 -108.5 -149
s-101.333 -72.667 -165 -95s-132.834 -33.5 -207.501 -33.5c-64 0 -121.667 8.83301 -173 26.5s-95.166 42.5 -131.499 74.5s-64.333 70.667 -84 116s-29.5 96 -29.5 152c0 100 23.167 184.5 69.5 253.5s119.5 118.833 219.5 149.5c-54 26 -94.5 62.167 -121.5 108.5
s-40.5 100.5 -40.5 162.5s12 119.333 36 172s57.167 98.5 99.5 137.5s92.333 69.5 150 91.5s119.834 33 186.501 33c56.667 0 108.167 -8.83301 154.5 -26.5s86 -42 119 -73s58.333 -67.5 76 -109.5s26.5 -87 26.5 -135c0 -86.667 -20.167 -161.167 -60.5 -223.5
s-100.166 -109.5 -179.499 -141.5z" />
    <glyph glyph-name="nine" unicode="9" horiz-adv-x="1160" 
d="M403 965c0 -65.333 16.001 -115.998 48.001 -151.998s78.333 -54 139 -54c39.333 0 74.833 7.5 106.5 22.5s58.5 35.667 80.5 62s39 57.166 51 92.499s18 73.333 18 114c0 68 -17.333 121 -52 159s-81.334 57 -140.001 57c-37.333 0 -71.333 -7.33301 -102 -22
s-57 -35.334 -79 -62.001s-39.167 -58.5 -51.5 -95.5s-18.5 -77.5 -18.5 -121.5zM639.001 563.002l33.001 39.501l31 38.5c-32.667 -20.667 -67.5 -36.167 -104.5 -46.5s-75.5 -15.5 -115.5 -15.5c-41.333 0 -81.333 7.66699 -120 23s-73 38.166 -103 68.499
s-54 67.666 -72 111.999s-27 95.5 -27 153.5c0 72 13.167 140 39.5 204s62.666 119.667 108.999 167s101.333 84.833 165 112.5s132.5 41.5 206.5 41.5c62 0 117.333 -10.167 166 -30.5s89.834 -48.5 123.501 -84.5s59.167 -79 76.5 -129s26 -104.667 26 -164
c0 -51.333 -4.83301 -99.5 -14.5 -144.5s-23.5 -88.167 -41.5 -129.5s-40 -82.166 -66 -122.499s-55.333 -81.833 -88 -124.5l-360 -477c-12.667 -15.333 -30.334 -28.333 -53.001 -39s-48 -16 -76 -16h-220z" />
    <glyph glyph-name="colon" unicode=":" horiz-adv-x="518" 
d="M52 136c0 20.667 3.83301 40.334 11.5 59.001s18.334 34.667 32.001 48s29.834 24 48.501 32s38.667 12 60 12c20.667 0 40.334 -4 59.001 -12s34.834 -18.667 48.501 -32s24.5 -29.333 32.5 -48s12 -38.334 12 -59.001c0 -21.333 -4 -41.166 -12 -59.499
s-18.833 -34.166 -32.5 -47.499s-29.834 -23.833 -48.501 -31.5s-38.334 -11.5 -59.001 -11.5c-21.333 0 -41.333 3.83301 -60 11.5s-34.834 18.167 -48.501 31.5s-24.334 29.166 -32.001 47.499s-11.5 38.166 -11.5 59.499zM132 849c0 20.667 3.83301 40.334 11.5 59.001
s18.334 34.667 32.001 48s29.834 24 48.501 32s38.667 12 60 12c20.667 0 40.334 -4 59.001 -12s34.834 -18.667 48.501 -32s24.5 -29.333 32.5 -48s12 -38.334 12 -59.001c0 -21.333 -4 -41.166 -12 -59.499s-18.833 -34.166 -32.5 -47.499s-29.834 -23.833 -48.501 -31.5
s-38.334 -11.5 -59.001 -11.5c-21.333 0 -41.333 3.83301 -60 11.5s-34.834 18.167 -48.501 31.5s-24.334 29.166 -32.001 47.499s-11.5 38.166 -11.5 59.499z" />
    <glyph glyph-name="semicolon" unicode=";" horiz-adv-x="541" 
d="M100 -245c-12 10 -17.998 21.999 -17.998 35.999c0 9.33301 5.66699 20.5 17 33.5l38.5 45.5c14.333 17.333 28.5 37 42.5 59s24 46.667 30 74c-21.333 0 -40.5 3.83301 -57.5 11.5s-31.833 18.167 -44.5 31.5s-22.334 29 -29.001 47s-10 37.667 -10 59
c0 18.667 3.5 36.167 10.5 52.5s16.833 30.666 29.5 42.999s27.834 22 45.501 29s37.167 10.5 58.5 10.5c25.333 0 47.5 -4.5 66.5 -13.5s34.667 -21.333 47 -37s21.666 -33.667 27.999 -54s9.5 -41.833 9.5 -64.5c0 -32 -4.83301 -65.667 -14.5 -101
s-23.834 -70.666 -42.501 -105.999s-41.667 -69.666 -69 -102.999s-59 -64 -95 -92zM143.002 848.999c0 20.667 3.83301 40.334 11.5 59.001s18.334 34.667 32.001 48s29.834 24 48.501 32s38.667 12 60 12c20.667 0 40.334 -4 59.001 -12s34.834 -18.667 48.501 -32
s24.5 -29.333 32.5 -48s12 -38.334 12 -59.001c0 -21.333 -4 -41.166 -12 -59.499s-18.833 -34.166 -32.5 -47.499s-29.834 -23.833 -48.501 -31.5s-38.334 -11.5 -59.001 -11.5c-21.333 0 -41.333 3.83301 -60 11.5s-34.834 18.167 -48.501 31.5
s-24.334 29.166 -32.001 47.499s-11.5 38.166 -11.5 59.499z" />
    <glyph glyph-name="less" unicode="&#x3c;" horiz-adv-x="1160" 
d="M1011 1137l-21.999 -176.002c-1.33301 -13.333 -6 -25.5 -14 -36.5s-20.333 -20.5 -37 -28.5l-386 -186c-16.667 -7.33301 -33.834 -14 -51.501 -20s-36.5 -11.333 -56.5 -16c36.667 -9.33301 69.667 -21.333 99 -36l341 -187c14 -7.33301 23.667 -16.666 29 -27.999
s7.33301 -23.666 6 -36.999l-23 -176l-740 414l8 75h1l3 25z" />
    <glyph glyph-name="equal" unicode="=" horiz-adv-x="1160" 
d="M134 586h882l-22 -177h-883zM177 936h882l-21 -178h-883z" />
    <glyph glyph-name="greater" unicode="&#x3e;" horiz-adv-x="1160" 
d="M1019 724l-12 -99.998l-844 -414l23 176c1.33301 13.333 5.83301 25.666 13.5 36.999s20.167 20.666 37.5 27.999l385 187c32.667 14.667 68.667 26.667 108 36c-37.333 8.66699 -70.333 20.667 -99 36l-340 186c-14.667 8 -24.5 17.5 -29.5 28.5
s-6.83301 23.167 -5.5 36.5l21 176z" />
    <glyph glyph-name="question" unicode="?" horiz-adv-x="861" 
d="M149 1314c24 20 49.6699 38.8301 77.0029 56.4971s56.5 33.334 87.5 47.001s64 24.334 99 32.001s72.167 11.5 111.5 11.5c52 0 98.167 -7.5 138.5 -22.5s74.166 -35.5 101.499 -61.5s48 -56.5 62 -91.5s21 -72.5 21 -112.5c0 -56 -7.5 -103.667 -22.5 -143
s-34 -73.166 -57 -101.499s-48.333 -52.833 -76 -73.5l-80.5 -60.5c-26 -19.667 -49.333 -40.167 -70 -61.5s-35.334 -47 -44.001 -77l-40 -148h-165l5 164c0.666992 33.333 9.33398 63 26.001 89s37.167 50 61.5 72s50.666 43.167 78.999 63.5s54.5 41.833 78.5 64.5
s44 47.334 60 74.001s24 57.667 24 93c0 43.333 -12.167 77.5 -36.5 102.5s-60.833 37.5 -109.5 37.5c-34.667 0 -64.334 -4.33301 -89.001 -13s-46 -18.167 -64 -28.5s-33.5 -19.833 -46.5 -28.5s-24.5 -13 -34.5 -13c-12 0 -21.167 2.16699 -27.5 6.5
s-12.5 12.166 -18.5 23.499zM200.003 135.997c0 20.667 3.83301 40.334 11.5 59.001s18.167 34.667 31.5 48s29.333 24 48 32s38.667 12 60 12s41.166 -4 59.499 -12s34.333 -18.667 48 -32s24.5 -29.333 32.5 -48s12 -38.334 12 -59.001c0 -21.333 -4 -41.166 -12 -59.499
s-18.833 -34.166 -32.5 -47.499s-29.667 -23.833 -48 -31.5s-38.166 -11.5 -59.499 -11.5s-41.333 3.83301 -60 11.5s-34.667 18.167 -48 31.5s-23.833 29.166 -31.5 47.499s-11.5 38.166 -11.5 59.499z" />
    <glyph glyph-name="at" unicode="@" horiz-adv-x="1544" 
d="M961 806c-19.333 4 -38.667 6 -58 6c-40 0 -78.5 -10.333 -115.5 -31s-69.833 -48 -98.5 -82s-51.5 -72.833 -68.5 -116.5s-25.5 -88.5 -25.5 -134.5c0 -34 6.83301 -60.667 20.5 -80s33.834 -29 60.501 -29c15.333 0 31.166 2.83301 47.499 8.5s32.333 15.5 48 29.5
s31 32.667 46 56s28.5 53 40.5 89zM1043 546c-14.667 -43.333 -23.668 -78.8301 -27.001 -106.497s-2.33301 -49.5 3 -65.5s14.166 -27 26.499 -33s26.833 -9 43.5 -9c30 0 58.667 11.333 86 34s51.5 54 72.5 94s37.833 87.333 50.5 142s19 114 19 178
c0 72 -10.167 135.833 -30.5 191.5s-49.333 102.334 -87 140.001s-83.334 66.167 -137.001 85.5s-113.5 29 -179.5 29c-88.667 0 -171.5 -19 -248.5 -57s-144 -90.667 -201 -158s-101.833 -147 -134.5 -239s-49 -192 -49 -300c0 -90.667 12.5 -170.667 37.5 -240
s60 -127.5 105 -174.5s99.167 -82.667 162.5 -107s133.333 -36.5 210 -36.5c48 0 92.5 2.66699 133.5 8s78.333 12.5 112 21.5s63.834 19.167 90.501 30.5s49.334 22.666 68.001 33.999c14.667 8 27.5 12.667 38.5 14s20.333 0.166016 28 -3.50098
s13.834 -8.83398 18.501 -15.501s8.33398 -14 11.001 -22l17 -68c-69.333 -45.333 -148.166 -82.333 -236.499 -111s-187.5 -43 -297.5 -43c-101.333 0 -193.333 16.5 -276 49.5s-153.167 80 -211.5 141s-103.5 134.833 -135.5 221.5s-48 184 -48 292
c0 83.333 10 163.833 30 241.5s48 150.5 84 218.5s79.333 129.833 130 185.5s106.5 103.5 167.5 143.5s126.5 71 196.5 93s142.333 33 217 33c80 0 155.5 -13.833 226.5 -41.5s132.833 -67.334 185.5 -119.001s94.334 -114.5 125.001 -188.5s46 -157 46 -249
c0 -84 -11.833 -162.167 -35.5 -234.5s-55.667 -135.333 -96 -189s-87.833 -95.834 -142.5 -126.501s-113 -46 -175 -46c-41.333 0 -77 10.5 -107 31.5s-48.667 54.833 -56 101.5c-42 -47.333 -84.667 -81.166 -128 -101.499s-88.666 -30.5 -135.999 -30.5
c-34 0 -63.5 6 -88.5 18s-45.833 28.667 -62.5 50s-29 46.5 -37 75.5s-12 60.167 -12 93.5c0 40.667 5.33301 82.167 16 124.5s26.5 83.5 47.5 123.5s47 77.5 78 112.5s66.833 65.667 107.5 92s86.167 47.166 136.5 62.499s105.166 23 164.499 23
c24.667 0 47.167 -1 67.5 -3s39.166 -4.83301 56.499 -8.5s33.666 -8.16699 48.999 -13.5s30.666 -11.666 45.999 -18.999z" />
    <glyph glyph-name="A" unicode="A" horiz-adv-x="1300" 
d="M852 544l-98.001 495l-14 79c-5.33301 30 -10.666 62.667 -15.999 98c-13.333 -35.333 -26.333 -68 -39 -98l-34 -80l-219 -494h420zM1229 0h-201.003c-22.667 0 -40.167 5.5 -52.5 16.5s-21.166 25.167 -26.499 42.5l-60 302h-539l-134 -302
c-7.33301 -15.333 -19.166 -29 -35.499 -41s-35.166 -18 -56.499 -18h-204l699 1446h265z" />
    <glyph glyph-name="B" unicode="B" horiz-adv-x="1228" 
d="M607 202c46 0 85.834 6.33301 119.501 19s61.167 30.5 82.5 53.5s37.166 50.667 47.499 83s15.5 67.833 15.5 106.5c0 52.667 -16.667 94.667 -50 126s-88 47 -164 47h-244l-53 -435h246zM489.001 1246l-52.999 -430.001h192c89.333 0 158.166 21 206.499 63
s72.5 106.333 72.5 193c0 60.667 -17.167 104.834 -51.5 132.501s-87.833 41.5 -160.5 41.5h-206zM719.002 1446c80 0 148.502 -7.83105 205.502 -23.498s103.667 -37.834 140 -66.501s63.166 -63.334 80.499 -104.001s26 -86 26 -136c0 -41.333 -5.5 -80.833 -16.5 -118.5
s-28.167 -72.5 -51.5 -104.5s-53 -60.667 -89 -86s-79 -46.333 -129 -63c82 -20.667 143 -54.167 183 -100.5s60 -105.166 60 -176.499c0 -66.667 -12.333 -128.5 -37 -185.5s-60.334 -106.333 -107.001 -148s-103.5 -74.334 -170.5 -98.001s-142.833 -35.5 -227.5 -35.5
h-509l178 1446h464z" />
    <glyph glyph-name="C" unicode="C" horiz-adv-x="1241" 
d="M685 204c40.667 0 76.001 3.16406 106.001 9.49707s56.333 14.5 79 24.5s41.834 20.5 57.501 31.5s29.5 21.5 41.5 31.5s22.667 18.167 32 24.5s18.666 9.5 27.999 9.5c8.66699 0 15.667 -1.66699 21 -5s9.66602 -6.66602 12.999 -9.99902l91 -113
c-62.667 -72 -136.334 -127.167 -221.001 -165.5s-182 -57.5 -292 -57.5c-89.333 0 -168.666 15.833 -237.999 47.5s-127.833 75.5 -175.5 131.5s-84 122.333 -109 199s-37.5 160.334 -37.5 251.001c0 83.333 9 162.166 27 236.499s43.667 143 77 206
s73.166 119.5 119.499 169.5s98 92.667 155 128s118.333 62.333 184 81s134.167 28 205.5 28c52.667 0 100.667 -4.83301 144 -14.5s82.5 -23.167 117.5 -40.5s66.667 -38.166 95 -62.499s53.833 -51.5 76.5 -81.5l-90 -108c-6.66699 -8 -14.5 -15 -23.5 -21
s-20.167 -9 -33.5 -9c-14.667 0 -28.667 6 -42 18s-30.166 25.167 -50.499 39.5s-46.666 27.5 -78.999 39.5s-74.833 18 -127.5 18c-69.333 0 -133.833 -14.167 -193.5 -42.5s-111.5 -68.833 -155.5 -121.5s-78.5 -116.167 -103.5 -190.5s-37.5 -157.833 -37.5 -250.5
c0 -67.333 8.5 -127.666 25.5 -180.999s40.667 -98.5 71 -135.5s66.166 -65.333 107.499 -85s86.333 -29.5 135 -29.5z" />
    <glyph glyph-name="D" unicode="D" horiz-adv-x="1416" 
d="M1361 820c0 -120 -19.333 -230.334 -58 -331.001s-92.5 -187.167 -161.5 -259.5s-150.833 -128.666 -245.5 -168.999s-198 -60.5 -310 -60.5h-509l178 1446h510c92 0 174.833 -15.667 248.5 -47s136.167 -74.666 187.5 -129.999s90.833 -121.333 118.5 -198
s41.5 -160.334 41.5 -251.001zM1095 813.999c0 64.667 -7.99902 123.333 -23.999 176s-39.167 97.5 -69.5 134.5s-67.5 65.5 -111.5 85.5s-94.333 30 -151 30h-248l-128 -1033h249c72.667 0 138.667 14 198 42s110.166 68.167 152.499 120.5s75 116 98 191
s34.5 159.5 34.5 253.5z" />
    <glyph glyph-name="E" unicode="E" horiz-adv-x="1073" 
d="M491 1239l-51 -411h457l-25 -199h-457l-52 -422h584l-26 -207h-844l178 1446h843l-26 -207h-581z" />
    <glyph glyph-name="F" unicode="F" horiz-adv-x="1062" 
d="M491 1239l-55 -440h492l-28 -207h-489l-73 -592h-261l178 1446h843l-26 -207h-581z" />
    <glyph glyph-name="G" unicode="G" horiz-adv-x="1355" 
d="M819 721l449.996 -0.000976562l-72 -581c-73.333 -53.333 -152.333 -92.666 -237 -117.999s-181.334 -38 -290.001 -38c-88.667 0 -169.167 16 -241.5 48s-134.333 76.5 -186 133.5s-91.5 124.667 -119.5 203s-42 163.833 -42 256.5c0 81.333 9 158.5 27 231.5
s43.5 140.5 76.5 202.5s72.833 117.833 119.5 167.5s98.667 92 156 127s119.5 61.833 186.5 80.5s137.167 28 210.5 28c58.667 0 111.834 -5.16699 159.501 -15.5s90.834 -24.5 129.501 -42.5s73.334 -39 104.001 -63s58 -49.333 82 -76l-84 -108
c-13.333 -18.667 -29.666 -30.167 -48.999 -34.5s-39 0.166992 -59 13.5l-58 37.5c-19.333 12.333 -40.5 23.5 -63.5 33.5s-49.167 18 -78.5 24s-63.666 9 -102.999 9c-72 0 -138 -14.5 -198 -43.5s-111.667 -70 -155 -123s-77 -116.667 -101 -191
s-36 -157.166 -36 -248.499c0 -69.333 8.83301 -131.333 26.5 -186s42.5 -101 74.5 -139s70.5 -67.167 115.5 -87.5s95.167 -30.5 150.5 -30.5c54.667 0 102.667 5.16699 144 15.5s81 25.166 119 44.499l33 275h-160c-16.667 0 -29.167 4.5 -37.5 13.5
s-11.833 20.167 -10.5 33.5z" />
    <glyph glyph-name="H" unicode="H" horiz-adv-x="1435" 
d="M1386 1446l-178 -1446h-262l79 635h-609l-78 -635h-261l178 1446h261l-77 -627h608l78 627h261z" />
    <glyph glyph-name="I" unicode="I" horiz-adv-x="564" 
d="M338 0h-261l176 1446h261z" />
    <glyph glyph-name="J" unicode="J" horiz-adv-x="818" 
d="M665 501c-10 -80 -27.999 -152.001 -53.999 -216.001s-59.833 -118.167 -101.5 -162.5s-91.167 -78.5 -148.5 -102.5s-122.333 -36 -195 -36c-36 0 -70.167 2.16699 -102.5 6.5s-65.5 11.166 -99.5 20.499l19 152c2 14 7 25.667 15 35s20.667 14 38 14
c15.333 0 33.166 -2.33301 53.499 -7s45.833 -7 76.5 -7s59.167 5.33301 85.5 16s49.833 27.834 70.5 51.501s38.167 54.334 52.5 92.001s24.5 83.5 30.5 137.5l116 951h259z" />
    <glyph glyph-name="K" unicode="K" horiz-adv-x="1283" 
d="M437 835l56.0029 0.000976562c23.333 0 43.166 3.5 59.499 10.5s31.166 18.5 44.499 34.5l418 510c16.667 22 34.834 36.833 54.501 44.5s42.5 11.5 68.5 11.5h223l-512 -605c-14.667 -18.667 -29.334 -34.167 -44.001 -46.5s-30 -22.166 -46 -29.499
c19.333 -8 36.5 -18.833 51.5 -32.5s28.167 -32.167 39.5 -55.5l368 -677h-229c-15.333 0 -28.333 1.16699 -39 3.5s-19.834 5.66602 -27.501 9.99902s-14 9.66602 -19 15.999s-9.5 13.5 -13.5 21.5l-298 539c-8.66699 18 -20.5 30.667 -35.5 38s-36.833 11 -65.5 11h-78
l-78 -639h-258l176 1447h260z" />
    <glyph glyph-name="L" unicode="L" horiz-adv-x="966" 
d="M888 215l-25 -215h-786l178 1446h259l-152 -1231h526z" />
    <glyph glyph-name="M" unicode="M" horiz-adv-x="1758" 
d="M1709 1446l-178.002 -1446h-228l116 942c2.66699 17.333 5.83398 36 9.50098 56s7.83398 40.667 12.501 62l-497 -824c-11.333 -18.667 -25.5 -32.667 -42.5 -42s-35.5 -14 -55.5 -14h-36c-20 0 -37.5 4.66699 -52.5 14s-25.833 23.333 -32.5 42l-298 824
c-0.666992 -20.667 -1.5 -40.667 -2.5 -60s-2.5 -37.333 -4.5 -54l-114 -946h-229l178 1446h195c11.333 0 20.833 -0.5 28.5 -1.5s14.5 -3 20.5 -6s11.667 -7.33301 17 -13s11 -12.834 17 -21.501l299 -826c12 -35.333 22 -71.333 30 -108l26.5 55
c9 18 18.833 35.667 29.5 53l502 826c8 8.66699 15.167 15.834 21.5 21.501s12.833 10 19.5 13s14 5 22 6s17.667 1.5 29 1.5h197z" />
    <glyph glyph-name="N" unicode="N" horiz-adv-x="1435" 
d="M1386 1446l-178.002 -1446h-134c-20 0 -36.5 3.5 -49.5 10.5s-25.167 18.5 -36.5 34.5l-560 988c-1.33301 -16.667 -2.66602 -32.5 -3.99902 -47.5s-2.66602 -29.167 -3.99902 -42.5l-114 -943h-229l178 1446h136c11.333 0 20.833 -0.5 28.5 -1.5s14.5 -3 20.5 -6
s11.333 -7.16699 16 -12.5s9.66699 -12.666 15 -21.999l563 -987c1.33301 20 2.83301 39.167 4.5 57.5s3.5 35.166 5.5 50.499l113 921h229z" />
    <glyph glyph-name="O" unicode="O" horiz-adv-x="1506" 
d="M1453 820c0 -80 -8.82812 -156.169 -26.4951 -228.502s-42.834 -139.5 -75.501 -201.5s-72.334 -118 -119.001 -168s-98.834 -92.667 -156.501 -128s-120.167 -62.5 -187.5 -81.5s-138 -28.5 -212 -28.5c-92 0 -174.667 16.333 -248 49s-135.833 77.667 -187.5 135
s-91.167 125 -118.5 203s-41 162.667 -41 254c0 80 8.83301 156.167 26.5 228.5s43 139.5 76 201.5s72.667 118 119 168s98.333 92.833 156 128.5s120.167 63 187.5 82s138.333 28.5 213 28.5c92 0 174.667 -16.333 248 -49s135.666 -77.667 186.999 -135
s90.666 -125.166 117.999 -203.499s41 -163.166 41 -254.499zM1187 813.998c0 65.333 -8.16699 124.667 -24.5 178s-40 99 -71 137s-68.833 67.333 -113.5 88s-95 31 -151 31c-72 0 -137.5 -14.667 -196.5 -44s-109.5 -71 -151.5 -125s-74.5 -119 -97.5 -195
s-34.5 -160.333 -34.5 -253c0 -65.333 8 -124.666 24 -177.999s39.333 -98.833 70 -136.5s68.167 -66.667 112.5 -87s94.833 -30.5 151.5 -30.5c72.667 0 138.667 14.667 198 44s110 70.666 152 123.999s74.5 117.833 97.5 193.5s34.5 160.167 34.5 253.5z" />
    <glyph glyph-name="P" unicode="P" horiz-adv-x="1162" 
d="M604 714c51.333 0 95.667 7.66699 133 23s68.166 36.833 92.499 64.5s42.333 60.5 54 98.5s17.5 80 17.5 126c0 32.667 -4.66699 62.667 -14 90s-23.666 50.5 -42.999 69.5s-43.5 33.833 -72.5 44.5s-63.5 16 -103.5 16h-180l-65 -532h181zM693.001 1446
c82 0 152.5 -9.83301 211.5 -29.5s107.5 -47.167 145.5 -82.5s66.167 -77.166 84.5 -125.499s27.5 -101.5 27.5 -159.5c0 -77.333 -12.167 -148.833 -36.5 -214.5s-60.833 -122.334 -109.5 -170.001s-109.5 -85 -182.5 -112s-158.167 -40.5 -255.5 -40.5h-180l-63 -512h-258
l176 1446h440z" />
    <glyph glyph-name="Q" unicode="Q" horiz-adv-x="1506" 
d="M347 631c0 -65.333 8 -124.665 24 -177.998s39.333 -98.833 70 -136.5s68.167 -66.667 112.5 -87s94.833 -30.5 151.5 -30.5c72.667 0 138.667 14.667 198 44s110 70.666 152 123.999s74.5 117.833 97.5 193.5s34.5 160.167 34.5 253.5
c0 65.333 -8.16699 124.666 -24.5 177.999s-40 99 -71 137s-68.833 67.333 -113.5 88s-95 31 -151 31c-72 0 -137.5 -14.667 -196.5 -44s-109.5 -71 -151.5 -125s-74.5 -119 -97.5 -195s-34.5 -160.333 -34.5 -253zM871 8.00098c-62 -16 -126.997 -24.002 -194.997 -24.002
c-92 0 -174.667 16.333 -248 49s-135.833 77.667 -187.5 135s-91.167 125 -118.5 203s-41 162.667 -41 254c0 80 8.83301 156.167 26.5 228.5s43 139.5 76 201.5s72.667 118 119 168s98.333 92.833 156 128.5s120.167 63 187.5 82s138.333 28.5 213 28.5
c92 0 174.667 -16.333 248 -49s135.666 -77.667 186.999 -135s90.666 -125.166 117.999 -203.499s41 -163.166 41 -254.499c0 -76.667 -8.16699 -150 -24.5 -220s-39.833 -135.167 -70.5 -195.5s-67.5 -115.333 -110.5 -165s-91.5 -92.5 -145.5 -128.5l289 -395h-212
c-30.667 0 -57.834 4.16699 -81.501 12.5s-44.167 23.833 -61.5 46.5z" />
    <glyph glyph-name="R" unicode="R" horiz-adv-x="1199" 
d="M577 755c52 0 96.832 7.50098 134.499 22.501s68.834 35.667 93.501 62s43 57.166 55 92.499s18 73.333 18 114c0 62.667 -19.5 111.667 -58.5 147s-98.833 53 -179.5 53h-152l-60 -491h149zM663.999 1446c83.333 0 154.837 -8.83398 214.504 -26.501
s108.5 -42.334 146.5 -74.001s66 -69.5 84 -113.5s27 -92.333 27 -145c0 -55.333 -7.83301 -107.666 -23.5 -156.999s-38.167 -94 -67.5 -134s-65.333 -75 -108 -105s-91 -53.333 -145 -70c15.333 -9.33301 29.166 -20.666 41.499 -33.999s23.166 -29.333 32.499 -48
l258 -539h-233c-44.667 0 -74.334 17.333 -89.001 52l-212 469c-8 17.333 -17.833 29.833 -29.5 37.5s-29.834 11.5 -54.501 11.5h-101l-70 -570h-258l176 1446h411z" />
    <glyph glyph-name="S" unicode="S" horiz-adv-x="1031" 
d="M941 1186c-9.33301 -13.333 -18.498 -23.1631 -27.498 -29.4961s-20.167 -9.5 -33.5 -9.5s-27 5.33301 -41 16s-30.667 22.5 -50 35.5s-42.333 24.833 -69 35.5s-58.667 16 -96 16c-36 0 -68 -5.33301 -96 -16s-51.5 -25.334 -70.5 -44.001s-33.333 -40.667 -43 -66
s-14.5 -52.666 -14.5 -81.999c0 -30.667 7.83301 -56.167 23.5 -76.5s36.167 -38.166 61.5 -53.499s54.333 -29 87 -41l99.5 -38c33.667 -13.333 66.834 -28.666 99.501 -45.999s61.667 -38.666 87 -63.999s45.833 -55.833 61.5 -91.5s23.5 -78.834 23.5 -129.501
c0 -70.667 -12.333 -137.334 -37 -200.001s-59.667 -117.5 -105 -164.5s-100.666 -84.333 -165.999 -112s-138.333 -41.5 -219 -41.5c-42 0 -83.333 4.5 -124 13.5s-79 21.833 -115 38.5s-69.333 36.667 -100 60s-57.334 49.333 -80.001 78l92 124
c7.33301 9.33301 16.666 17 27.999 23s22.666 9 33.999 9c10.667 0 21.167 -3.33301 31.5 -10s21.666 -14.834 33.999 -24.501l40 -32c14.333 -11.667 30.666 -22.334 48.999 -32.001s39.333 -17.834 63 -24.501s50.5 -10 80.5 -10c76 0 135.333 21.333 178 64
s64 101.667 64 177c0 33.333 -7.66699 60.666 -23 81.999s-35.666 39.333 -60.999 54s-54.166 27.5 -86.499 38.5l-98.5 35c-33.333 12.333 -66.166 26.666 -98.499 42.999s-61.166 37.333 -86.499 63s-45.666 57.167 -60.999 94.5s-23 83.333 -23 138
c0 62 11.5 121.667 34.5 179s56 107.833 99 151.5s95 78.667 156 105s129.833 39.5 206.5 39.5c39.333 0 77.166 -4 113.499 -12s70.166 -19.333 101.499 -34s60.166 -32.167 86.499 -52.5s49.166 -42.833 68.499 -67.5z" />
    <glyph glyph-name="T" unicode="T" horiz-adv-x="1114" 
d="M1158 1233h-395l-152 -1233h-258l150 1233h-397l26 213h1053z" />
    <glyph glyph-name="U" unicode="U" horiz-adv-x="1383" 
d="M642 208c46.667 0 89.5 8.83496 128.5 26.502s73.167 42.667 102.5 75s53.5 71.166 72.5 116.499s31.833 95.666 38.5 150.999l106 869h260l-107 -869c-10.667 -85.333 -33.334 -164.333 -68.001 -237s-79.167 -135.334 -133.5 -188.001
s-117.666 -93.834 -189.999 -123.501s-151.5 -44.5 -237.5 -44.5s-161.5 14.833 -226.5 44.5s-118.167 70.834 -159.5 123.501s-70.333 115.334 -87 188.001s-19.667 151.667 -9 237l104 869h260l-106 -868c-6.66699 -55.333 -6.16699 -105.833 1.5 -151.5
s22.334 -84.667 44.001 -117s49.667 -57.333 84 -75s75.166 -26.5 122.499 -26.5z" />
    <glyph glyph-name="V" unicode="V" horiz-adv-x="1298" 
d="M1406 1446l-714.999 -1446h-235l-360 1446h209c22.667 0 40.5 -5.5 53.5 -16.5s21.167 -25.167 24.5 -42.5l194 -901c7.33301 -28 14 -58.5 20 -91.5s11.333 -67.5 16 -103.5c11.333 36 23.666 70.5 36.999 103.5s27 63.5 41 91.5l412 901
c6.66699 14.667 18.5 28.167 35.5 40.5s36.167 18.5 57.5 18.5h210z" />
    <glyph glyph-name="W" unicode="W" horiz-adv-x="1937" 
d="M2024 1446l-590.999 -1446h-235l-163 1002c-2 13.333 -4 27.5 -6 42.5s-3.66699 30.833 -5 47.5l-17.5 -47.5l-16.5 -42.5l-409 -1002h-233l-236 1446h203c22.667 0 40.834 -5.5 54.501 -16.5s21.834 -25.167 24.501 -42.5l127 -887c2 -21.333 3.83301 -44.333 5.5 -69
s3.16699 -50.334 4.5 -77.001l26 77c8.66699 24.667 17.667 47.667 27 69l360 887c7.33301 14.667 19.166 28.167 35.499 40.5s35.166 18.5 56.499 18.5h61c22.667 0 40.334 -5.5 53.001 -16.5s21.667 -25.167 27 -42.5l144 -887c3.33301 -20.667 6.5 -43 9.5 -67
s5.5 -49 7.5 -75l22 74.5c7.33301 23.667 14.666 46.167 21.999 67.5l343 887c2.66699 8 7 15.5 13 22.5s13.167 13.167 21.5 18.5s17.666 9.66602 27.999 12.999s20.833 5 31.5 5h205z" />
    <glyph glyph-name="X" unicode="X" horiz-adv-x="1261" 
d="M832 784l363 -783.999h-233c-17.333 0 -30.833 4.66699 -40.5 14s-17.167 19.666 -22.5 30.999l-250 579c-6 -11.333 -12.333 -22 -19 -32l-374 -547c-11.333 -16.667 -23.833 -28.334 -37.5 -35.001s-28.167 -10 -43.5 -10h-259l558 773l-326 673h235
c17.333 0 30 -2.5 38 -7.5s14.667 -13.5 20 -25.5l221 -498c3.33301 6.66699 7 13.334 11 20.001l13 21l308 454c16 24 35.667 36 59 36h271z" />
    <glyph glyph-name="Y" unicode="Y" horiz-adv-x="1215" 
d="M731 564l-69.999 -564h-259l70 562l-377 884h231c22.667 0 40.334 -5.33301 53.001 -16s22 -25 28 -43l186 -500c8.66699 -24.667 16 -48.5 22 -71.5s11.333 -45.167 16 -66.5c10.667 22 22.167 44.167 34.5 66.5l40.5 71.5l311 500c9.33301 15.333 21.666 29 36.999 41
s33.666 18 54.999 18h215z" />
    <glyph glyph-name="Z" unicode="Z" horiz-adv-x="1122" 
d="M1163 1365c-2 -11.333 -5.49902 -22 -10.499 -32s-11.167 -20 -18.5 -30l-799 -1096h670l-26 -207h-1016l10 79c1.33301 11.333 4.66602 22 9.99902 32s11.333 20 18 30l801 1098h-642l25 207h989z" />
    <glyph glyph-name="bracketleft" unicode="[" horiz-adv-x="597" 
d="M648 1451c-2 -16 -9.66699 -30 -23 -42s-29 -18 -47 -18h-122l-190 -1543h123c18.667 0 33 -5.83301 43 -17.5s14 -26.167 12 -43.5l-12 -92h-383l227 1850h383z" />
    <glyph glyph-name="backslash" unicode="\" horiz-adv-x="852" 
d="M157 1455l101 0.00195312c28.667 0 52.5 -7.33301 71.5 -22s32.167 -35.334 39.5 -62.001l342 -1468h-100c-25.333 0 -49 7.66699 -71 23s-36.667 37.666 -44 66.999z" />
    <glyph glyph-name="bracketright" unicode="]" horiz-adv-x="597" 
d="M321 -305h-383l12 92c2 17.333 9.5 31.833 22.5 43.5s28.5 17.5 46.5 17.5h123l190 1543h-123c-18.667 0 -33 6 -43 18s-14.333 26 -13 42l13 94h383z" />
    <glyph glyph-name="asciicircum" unicode="^" horiz-adv-x="1160" 
d="M1082 777h-181c-15.333 0 -27.833 4 -37.5 12s-17.834 17.667 -24.501 29l-158 289c-10.667 18.667 -20 36.334 -28 53.001s-15 33.667 -21 51c-9.33301 -32.667 -24.333 -67.334 -45 -104.001l-155 -289c-6 -11.333 -14.167 -21 -24.5 -29s-24.166 -12 -41.499 -12h-190
l373 669h160z" />
    <glyph glyph-name="underscore" unicode="_" horiz-adv-x="889" 
d="M717 -138l-20 -155h-725l19 155h726z" />
    <glyph glyph-name="grave" unicode="`" 
d="M452 1462c24 0 41.666 -4.5 52.999 -13.5s20.666 -22.167 27.999 -39.5l103 -243h-129c-17.333 0 -31.166 2.5 -41.499 7.5s-20.166 14.167 -29.499 27.5l-198 261h214z" />
    <glyph glyph-name="a" unicode="a" horiz-adv-x="1042" 
d="M720 864c-9.33301 0.666992 -18.1699 1.16699 -26.5029 1.5s-16.5 0.5 -24.5 0.5c-55.333 0 -106.666 -12.667 -153.999 -38s-88.166 -59.5 -122.499 -102.5s-61.333 -93 -81 -150s-29.5 -117.167 -29.5 -180.5c0 -72 11.333 -124.667 34 -158s53.667 -50 93 -50
c27.333 0 54.166 9.5 80.499 28.5s51.333 45 75 78s45.334 71.833 65.001 116.5s36.834 92.667 51.501 144zM651.996 214c-45.333 -70 -96.499 -125.667 -153.499 -167s-119.167 -62 -186.5 -62c-38.667 0 -74.834 7.66699 -108.501 23s-63 38.166 -88 68.499
s-44.667 68.333 -59 114s-21.5 99.167 -21.5 160.5s7.66699 121 23 179s37.166 112.5 65.499 163.5s62.5 97.833 102.5 140.5s84.833 79.334 134.5 110.001s103.334 54.5 161.001 71.5s118.5 25.5 182.5 25.5c46 0 92.167 -3.33301 138.5 -10s91.5 -18.667 135.5 -36
l-123 -995h-131c-31.333 -0 -52.5 7.83301 -63.5 23.5s-16.5 35.167 -16.5 58.5z" />
    <glyph glyph-name="b" unicode="b" horiz-adv-x="1078" 
d="M309 240c22.667 -24.667 48.667 -42.001 78 -52.001s58.333 -15 87 -15c44 0 84 13.667 120 41s66.833 63 92.5 107s45.5 93.5 59.5 148.5s21 110.167 21 165.5c0 72 -11.667 125.5 -35 160.5s-56 52.5 -98 52.5c-27.333 0 -55 -9.16699 -83 -27.5
s-55 -43.666 -81 -75.999s-50.167 -70.5 -72.5 -114.5s-41.5 -91.333 -57.5 -142zM381 822.999c48 67.333 101.498 120.667 160.498 160s121.833 59 188.5 59c42.667 0 81.334 -7.83301 116.001 -23.5s64.334 -39.167 89.001 -70.5s43.667 -71 57 -119s20 -104.333 20 -169
c0 -58 -6 -115 -18 -171s-28.833 -109 -50.5 -159s-47.834 -96 -78.501 -138s-64.5 -78.333 -101.5 -109s-76.667 -54.667 -119 -72s-86.166 -26 -131.499 -26c-52 0 -98.667 10.5 -140 31.5s-76 49.5 -104 85.5l-8 -34c-7.33301 -23.333 -17 -40.5 -29 -51.5
s-31.333 -16.5 -58 -16.5h-134l180 1486h242z" />
    <glyph glyph-name="c" unicode="c" horiz-adv-x="907" 
d="M831 182c-34 -37.333 -66.5 -68.6709 -97.5 -94.0039s-62.5 -45.666 -94.5 -60.999s-65.5 -26.166 -100.5 -32.499s-73.5 -9.5 -115.5 -9.5c-59.333 0 -112.5 10.167 -159.5 30.5s-86.833 49.166 -119.5 86.499s-57.667 82.333 -75 135s-26 111.334 -26 176.001
c0 55.333 6 109.333 18 162s29.333 102.334 52 149.001s50 89.334 82 128.001s68 72 108 100s83.5 49.833 130.5 65.5s96.833 23.5 149.5 23.5c68 0 125.833 -12 173.5 -36s89.834 -60 126.501 -108l-79 -94c-5.33301 -6 -12 -11.5 -20 -16.5s-16.667 -7.5 -26 -7.5
c-11.333 0 -21.5 3.5 -30.5 10.5s-19.667 14.5 -32 22.5s-27.666 15.5 -45.999 22.5s-42.166 10.5 -71.499 10.5c-38 0 -74.333 -10.333 -109 -31s-65.334 -50 -92.001 -88s-47.834 -83.667 -63.501 -137s-23.5 -112.333 -23.5 -177c0 -75.333 16.667 -133.5 50 -174.5
s78.666 -61.5 135.999 -61.5c25.333 0 47.666 2.66699 66.999 8s36.5 11.833 51.5 19.5s28.167 16 39.5 25l32 25c10 7.66699 19.5 14.167 28.5 19.5s18.833 8 29.5 8c8.66699 0 16.834 -2.16699 24.501 -6.5s14.5 -9.83301 20.5 -16.5l62 -76v0z" />
    <glyph glyph-name="d" unicode="d" horiz-adv-x="1079" 
d="M744 787c-22.667 24.667 -48.667 42.001 -78 52.001s-58.333 15 -87 15c-44 0 -84 -13.667 -120 -41s-66.833 -63 -92.5 -107s-45.5 -93.5 -59.5 -148.5s-21 -110.167 -21 -165.5c0 -72 11.833 -125.5 35.5 -160.5s56.5 -52.5 98.5 -52.5c26.667 0 54 9.16699 82 27.5
s55 43.666 81 75.999s50.167 70.5 72.5 114.5s41.5 91.333 57.5 142zM1073 1486l-183.995 -1486h-131c-31.333 0 -52.5 7.83301 -63.5 23.5s-16.5 35.167 -16.5 58.5l9 143c-24.667 -36.667 -51 -69.834 -79 -99.501s-57.333 -54.834 -88 -75.501s-62.5 -36.667 -95.5 -48
s-66.833 -17 -101.5 -17c-42.667 0 -81.334 7.83301 -116.001 23.5s-64.334 39.167 -89.001 70.5s-43.667 71 -57 119s-20 104.667 -20 170c0 58 6 114.833 18 170.5s29 108.5 51 158.5s48.167 96 78.5 138s64.166 78.333 101.499 109s77.166 54.667 119.499 72
s86.166 26 131.499 26c46 0 87.667 -8.33301 125 -25s70 -39.667 98 -69l67 538h242z" />
    <glyph glyph-name="e" unicode="e" horiz-adv-x="974" 
d="M575 868c-33.333 0 -64.332 -6.83301 -92.999 -20.5s-54.5 -32.834 -77.5 -57.501s-43 -54.167 -60 -88.5s-30.5 -71.833 -40.5 -112.5c82.667 11.333 149.167 23.833 199.5 37.5s89.166 28.334 116.499 44.001s45.5 32.667 54.5 51s13.5 37.5 13.5 57.5
c0 10 -2.16699 20.333 -6.5 31s-11 20.167 -20 28.5s-20.667 15.333 -35 21s-31.5 8.5 -51.5 8.5zM283.001 418c0 -161.333 68.3359 -242 205.003 -242c29.333 0 55.333 2.83301 78 8.5s42.5 12.5 59.5 20.5s32.333 17 46 27l38 27c11.667 8 23.167 14.833 34.5 20.5
s23.666 8.5 36.999 8.5c8 0 15.833 -2 23.5 -6s14.5 -9.33301 20.5 -16l63 -76c-35.333 -35.333 -70 -66 -104 -92s-68.667 -47.333 -104 -64s-72.666 -29 -111.999 -37s-82 -12 -128 -12c-60 0 -114.333 10.167 -163 30.5s-90.334 49 -125.001 86s-61.5 81.667 -80.5 134
s-28.5 110.833 -28.5 175.5c0 54 5.83301 107 17.5 159s28.5 101.333 50.5 148s49 89.667 81 129s68.167 73.333 108.5 102s84.666 51 132.999 67s100.166 24 155.499 24c53.333 0 100.166 -7.66699 140.499 -23s74 -35.166 101 -59.499s47.167 -51.5 60.5 -81.5
s20 -59.333 20 -88c0 -46 -9.16699 -88 -27.5 -126s-51 -72 -98 -102s-111.167 -55.833 -192.5 -77.5s-184.666 -38.834 -309.999 -51.501v-13z" />
    <glyph glyph-name="f" unicode="f" horiz-adv-x="662" 
d="M448 841l-97.001 -799.005l-51 -188c-10 -32 -24.667 -56.833 -44 -74.5s-47 -26.5 -83 -26.5h-99l131 1088l-79 14c-15.333 3.33301 -28 9.83301 -38 19.5s-13.667 23.834 -11 42.501l12 100h138l9 76c7.33301 58.667 22.833 111.334 46.5 158.001
s53.667 86.334 90 119.001s78.166 57.667 125.499 75s98.333 26 153 26c42.667 0 82 -6.33301 118 -19l-22 -128c-3.33301 -15.333 -12.666 -24.5 -27.999 -27.5s-32.666 -4.5 -51.999 -4.5c-26.667 0 -51.167 -3.66699 -73.5 -11s-42 -19.166 -59 -35.499
s-31 -37.666 -42 -63.999s-18.833 -58.5 -23.5 -96.5l-8 -68h230l-23 -176h-220z" />
    <glyph glyph-name="g" unicode="g" horiz-adv-x="1005" 
d="M368 -189c37.333 0 71.333 4.66602 102 13.999s57 22.333 79 39s39 36.334 51 59.001s18 47 18 73c0 9.33301 -0.5 18.5 -1.5 27.5s-2.16699 17.5 -3.5 25.5c-78.667 13.333 -146 19 -202 17s-101.667 -9 -137 -21s-61.333 -28 -78 -48s-25 -41.333 -25 -64
c0 -40 16.167 -70.333 48.5 -91s81.833 -31 148.5 -31zM457 480.999c30 0 56.334 7.00098 79.001 21.001s41.834 32.333 57.501 55s27.5 48.167 35.5 76.5s12.333 57.166 13 86.499c0 50 -11.833 88.333 -35.5 115s-57.834 40 -102.501 40c-30 0 -56.333 -6.5 -79 -19.5
s-41.667 -30.333 -57 -52s-26.833 -46.5 -34.5 -74.5s-11.5 -57 -11.5 -87c0 -51.333 11.667 -91 35 -119s56.666 -42 99.999 -42zM1022 989l-10.999 -80.0049c-4.66699 -32 -21 -53.333 -49 -64l-105 -27c3.33301 -13.333 5.83301 -27.5 7.5 -42.5s2.5 -30.5 2.5 -46.5
c0 -30.667 -3.33301 -58.167 -10 -82.5s-14.834 -46.833 -24.501 -67.5s-20.167 -40.167 -31.5 -58.5s-21.833 -37 -31.5 -56s-17.834 -39 -24.501 -60s-10 -44.167 -10 -69.5c0 -27.333 5.66699 -52.5 17 -75.5s23.666 -46.5 36.999 -70.5s25.666 -49.667 36.999 -77
s17 -59 17 -95c-0.666992 -50.667 -12.334 -98.834 -35.001 -144.501s-55.167 -85.667 -97.5 -120s-94.166 -61.5 -155.499 -81.5s-130.666 -30 -207.999 -30c-62.667 0 -119.334 6.5 -170.001 19.5s-93.667 31.167 -129 54.5s-62.666 50.833 -81.999 82.5
s-29 66.5 -29 104.5c0 46.667 10 87.334 30 122.001s46.667 63.834 80 87.501s71.666 42.5 114.999 56.5s88.333 24 135 30s93.334 8.33301 140.001 7s90 -5.33301 130 -12c-6 20 -9 41.667 -9 65c0 38.667 10.667 81.334 32 128.001
c-25.333 -17.333 -54.166 -30.666 -86.499 -39.999s-71.166 -14 -116.499 -14c-38.667 0 -75.5 6.33301 -110.5 19s-65.833 32 -92.5 58s-47.834 58.5 -63.501 97.5s-23.5 84.5 -23.5 136.5c0 50 9.33301 98.833 28 146.5s46.334 90.334 83.001 128.001
s82 67.834 136 90.501s116.667 34 188 34c38 0 74.167 -4.33301 108.5 -13s65.833 -22 94.5 -40h287z" />
    <glyph glyph-name="h" unicode="h" horiz-adv-x="1082" 
d="M390 852c50 64 104.166 111.665 162.499 142.998s117.833 47 178.5 47c43.333 0 82.166 -8.66699 116.499 -26s62.5 -42.5 84.5 -75.5s37.5 -73.667 46.5 -122s9.5 -103.5 1.5 -165.5l-78 -653h-246l77 653c8.66699 66.667 5.16699 114.667 -10.5 144
s-44.167 44 -85.5 44c-25.333 0 -51.666 -7.16699 -78.999 -21.5s-53.666 -34.666 -78.999 -60.999s-49 -58.166 -71 -95.499s-40.667 -79 -56 -125l-65 -538h-247l180 1486h247z" />
    <glyph glyph-name="i" unicode="i" horiz-adv-x="490" 
d="M416 1026l-123 -1026h-243l123 1026h243zM479 1325c0 -21.333 -4.49805 -41.3301 -13.498 -59.9971s-20.833 -35 -35.5 -49s-31.334 -25.167 -50.001 -33.5s-38 -12.5 -58 -12.5c-19.333 0 -38 4.16699 -56 12.5s-34 19.5 -48 33.5s-25.167 30.333 -33.5 49
s-12.5 38.667 -12.5 60s4.33301 41.666 13 60.999s20 36.166 34 50.499s30.167 25.666 48.5 33.999s37.166 12.5 56.499 12.5c20 0 39.333 -4.16699 58 -12.5s35.167 -19.5 49.5 -33.5s25.833 -30.667 34.5 -50s13 -40 13 -62z" />
    <glyph glyph-name="j" unicode="j" horiz-adv-x="488" 
d="M415 1026l-128.998 -1061c-5.33301 -44.667 -16.5 -86.667 -33.5 -126s-39.833 -73.833 -68.5 -103.5s-63.167 -53 -103.5 -70s-86.5 -25.5 -138.5 -25.5c-26.667 0 -49.334 1.5 -68.001 4.5s-37.334 7.83301 -56.001 14.5l24 133c3.33301 13.333 9.5 21.833 18.5 25.5
s24.833 5.5 47.5 5.5c22 0 40.833 2.5 56.5 7.5s28.834 13 39.501 24s19.167 25.5 25.5 43.5s11.166 40.333 14.499 67l129 1061h242zM470.002 1325c0 -21.333 -4.49805 -41.3301 -13.498 -59.9971s-20.833 -35 -35.5 -49s-31.334 -25.167 -50.001 -33.5
s-38 -12.5 -58 -12.5c-19.333 0 -38 4.16699 -56 12.5s-34 19.5 -48 33.5s-25.167 30.333 -33.5 49s-12.5 38.667 -12.5 60s4.33301 41.666 13 60.999s20 36.166 34 50.499s30.167 25.666 48.5 33.999s37.166 12.5 56.499 12.5c20 0 39.333 -4.16699 58 -12.5
s35.167 -19.5 49.5 -33.5s25.833 -30.667 34.5 -50s13 -40 13 -62z" />
    <glyph glyph-name="k" unicode="k" horiz-adv-x="1001" 
d="M464 1486l-104.002 -851.002h25c15.333 0 27.833 2.33301 37.5 7s19.834 13.334 30.501 26.001l273 315c11.333 14 23.333 24.667 36 32s28.667 11 48 11h220l-338 -381c-24 -29.333 -50 -52.333 -78 -69c12.667 -9.33301 23.5 -20.666 32.5 -33.999s17.167 -28 24.5 -44
l253 -498h-214c-18 0 -33 3.16699 -45 9.5s-21.667 17.833 -29 34.5l-199 389c-7.33301 15.333 -15.166 25.333 -23.499 30s-21.833 7 -40.5 7h-34l-57 -470h-244l183 1486h243z" />
    <glyph glyph-name="l" unicode="l" horiz-adv-x="477" 
d="M43 0l180 1486h244l-181 -1486h-243z" />
    <glyph glyph-name="m" unicode="m" horiz-adv-x="1586" 
d="M40 0l123.996 1027h126c26 0 46.167 -6.33301 60.5 -19s21.5 -33 21.5 -61l-5 -113c46 70 96 122.167 150 156.5s110.333 51.5 169 51.5c62.667 0 112.334 -21 149.001 -63s58 -102.667 64 -182c48 84 101.167 145.833 159.5 185.5s121.833 59.5 190.5 59.5
c43.333 0 81.333 -8.66699 114 -26s59.334 -42.5 80.001 -75.5s34.667 -73.667 42 -122s7 -103.5 -1 -165.5l-77 -653h-244l77 653c8.66699 66.667 6.83398 114.5 -5.49902 143.5s-37.166 43.5 -74.499 43.5c-25.333 0 -50 -6.66699 -74 -20s-46.833 -32.666 -68.5 -57.999
s-41.667 -56.333 -60 -93s-34.5 -78 -48.5 -124l-64 -545h-244l78 653c8 66.667 6.33301 114.5 -5 143.5s-36 43.5 -74 43.5c-26.667 0 -52.167 -7 -76.5 -21s-47.333 -34.167 -69 -60.5s-41.667 -58.333 -60 -96s-34.5 -79.834 -48.5 -126.501l-64 -536h-242z" />
    <glyph glyph-name="n" unicode="n" horiz-adv-x="1082" 
d="M365 814c52 76.667 109.668 133.833 173.001 171.5s128.666 56.5 195.999 56.5c42.667 0 81 -8.66699 115 -26s62 -42.5 84 -75.5s37.5 -73.667 46.5 -122s9.5 -103.5 1.5 -165.5l-77 -653h-247l77 653c8.66699 66.667 5.33398 114.5 -9.99902 143.5
s-43.333 43.5 -84 43.5c-27.333 0 -55.333 -7.83301 -84 -23.5s-56.334 -38 -83.001 -67s-51.167 -63.667 -73.5 -104s-40.5 -85.5 -54.5 -135.5l-57 -510h-247l123 1027h125c26 0 46.167 -6.33301 60.5 -19s21.5 -33 21.5 -61z" />
    <glyph glyph-name="o" unicode="o" horiz-adv-x="1047" 
d="M462 175c41.333 0 78.668 11.833 112.001 35.5s61.666 55.334 84.999 95.001s41.333 85.834 54 138.501s19 108 19 166c0 83.333 -14 144.5 -42 183.5s-70.667 58.5 -128 58.5c-41.333 0 -78.833 -11.667 -112.5 -35s-62.167 -54.833 -85.5 -94.5
s-41.333 -85.834 -54 -138.501s-19 -108.334 -19 -167.001c0 -83.333 14 -144.5 42 -183.5s71 -58.5 129 -58.5zM439.002 -15c-56.667 0 -109 9.49707 -157 28.4971s-89.667 46.833 -125 83.5s-63 81.667 -83 135s-30 114.333 -30 183c0 88.667 14.333 171.334 43 248.001
s67.5 143 116.5 199s106.167 100 171.5 132s135 48 209 48c56.667 0 109.167 -9.5 157.5 -28.5s90 -46.833 125 -83.5s62.5 -81.667 82.5 -135s30 -114.333 30 -183c0 -88 -14.333 -170.167 -43 -246.5s-67.5 -142.666 -116.5 -198.999s-106.167 -100.666 -171.5 -132.999
s-135 -48.5 -209 -48.5z" />
    <glyph glyph-name="p" unicode="p" horiz-adv-x="1078" 
d="M310 240c22.667 -24.667 48.667 -42 78 -52s58 -15 86 -15c44 0 84 13.667 120 41s67 63 93 107s46 93.5 60 148.5s21 110.167 21 165.5c0 72 -11.833 125.5 -35.5 160.5s-56.5 52.5 -98.5 52.5c-27.333 0 -55 -9.33301 -83 -28s-55 -44.167 -81 -76.5
s-50.167 -70.5 -72.5 -114.5s-41.5 -91.333 -57.5 -142zM365 800c49.333 74 105.162 132.832 167.495 176.499s128.5 65.5 198.5 65.5c42.667 0 81.334 -7.83301 116.001 -23.5s64.334 -39.167 89.001 -70.5s43.667 -71 57 -119s20 -104.333 20 -169c0 -58 -6 -115 -18 -171
s-29 -109 -51 -159s-48.167 -96 -78.5 -138s-64.166 -78.333 -101.499 -109s-77.166 -54.667 -119.499 -72s-86.166 -26 -131.499 -26c-46.667 0 -88.5 8.33301 -125.5 25s-69.5 39.334 -97.5 68.001l-51 -413h-240l166 1362h125c26 0 46.167 -6.33301 60.5 -19
s21.5 -33 21.5 -61z" />
    <glyph glyph-name="q" unicode="q" horiz-adv-x="1043" 
d="M721 864c-9.33301 0.666992 -18.1709 1.16797 -26.5039 1.50098s-16.5 0.5 -24.5 0.5c-55.333 0 -106.666 -12.667 -153.999 -38s-88.166 -59.5 -122.499 -102.5s-61.333 -93 -81 -150s-29.5 -117.167 -29.5 -180.5c0 -72 11.333 -124.667 34 -158s53.667 -50 93 -50
c27.333 0 54 9.33301 80 28s50.833 44.5 74.5 77.5s45.334 71.667 65.001 116s36.834 92.166 51.501 143.499zM633.995 187.001c-44 -62.667 -92.667 -112.001 -146 -148.001s-111.666 -54 -174.999 -54c-38.667 0 -75 7.66699 -109 23s-63.5 38.166 -88.5 68.499
s-44.667 68.333 -59 114s-21.5 99.167 -21.5 160.5s7.66699 121 23 179s37.166 112.5 65.499 163.5s62.5 97.833 102.5 140.5s84.833 79.334 134.5 110.001s103.334 54.5 161.001 71.5s118.5 25.5 182.5 25.5c46.667 0 93 -3.33301 139 -10s91.333 -18.667 136 -36
l-166 -1330h-160c-15.333 0 -28.166 2.83301 -38.499 8.5s-18.333 13 -24 22s-9.33398 18.833 -11.001 29.5s-1.83398 21.334 -0.500977 32.001z" />
    <glyph glyph-name="r" unicode="r" horiz-adv-x="707" 
d="M365 780c26 50.667 53.833 94.1689 83.5 130.502s60.5 64.666 92.5 84.999s65 32.333 99 36s68 -1.83301 102 -16.5l-45 -236c-81.333 34 -152.5 25.667 -213.5 -25s-109.833 -150.334 -146.5 -299.001l-55 -455h-242l124 1027h126c26 0 46.167 -6.33301 60.5 -19
s21.5 -33 21.5 -61z" />
    <glyph glyph-name="s" unicode="s" horiz-adv-x="811" 
d="M724 833c-7.33301 -10.667 -14.3281 -18.1631 -20.9951 -22.4961s-15.334 -6.5 -26.001 -6.5c-12 0 -24 3.33301 -36 10l-41.5 22.5c-15.667 8.33301 -33.667 15.833 -54 22.5s-44.5 10 -72.5 10c-52.667 0 -93 -11.833 -121 -35.5s-42 -53.167 -42 -88.5
c0 -27.333 9.83301 -49.333 29.5 -66s44.5 -31.334 74.5 -44.001s62.167 -25.5 96.5 -38.5s66.5 -29.333 96.5 -49s54.833 -45 74.5 -76s29.5 -70.833 29.5 -119.5c0 -49.333 -9.83301 -96.333 -29.5 -141s-47.834 -83.834 -84.501 -117.501
s-80.834 -60.334 -132.501 -80.001s-109.834 -29.5 -174.501 -29.5c-32 0 -63.333 3.16699 -94 9.5s-59.167 15.166 -85.5 26.499s-50.5 24.666 -72.5 39.999s-40.667 32 -56 50l61 94c7.33301 11.333 16 20 26 26s22.333 9 37 9c14 0 26.667 -4.33301 38 -13
s24.5 -18.167 39.5 -28.5s33.333 -19.833 55 -28.5s49.5 -13 83.5 -13c27.333 0 51.5 3.66699 72.5 11s38.833 17.333 53.5 30s25.667 27.334 33 44.001s11 34.334 11 53.001c0 22.667 -5.66699 41.5 -17 56.5s-26.5 28 -45.5 39s-40.5 20.667 -64.5 29l-73.5 26.5
c-25 9.33301 -49.333 20 -73 32s-45 27.167 -64 45.5s-34.167 40.666 -45.5 66.999s-17 58.5 -17 96.5c0 45.333 8.66699 89.5 26 132.5s42.666 81 75.999 114s74.5 59.5 123.5 79.5s105.167 30 168.5 30c65.333 0 123.333 -11.167 174 -33.5s93 -50.833 127 -85.5z" />
    <glyph glyph-name="t" unicode="t" horiz-adv-x="732" 
d="M127 209v16.5039c0 6.33301 0.5 15.666 1.5 27.999s2.66699 28.666 5 48.999s5.5 46.5 9.5 78.5l57 460h-97c-12 0 -21.833 4.33301 -29.5 13s-10.167 21.667 -7.5 39l11 98l156 27l82 280c4.66699 13.333 11.667 23.666 21 30.999s21 11 35 11h132l-40 -323h248
l-21 -176h-249l-55 -447l-8 -65c-2 -16 -3.5 -28.5 -4.5 -37.5s-1.5 -15.333 -1.5 -19v-7.5c0 -25.333 6.16699 -45.333 18.5 -60s29.833 -22 52.5 -22c14 0 26 1.83301 36 5.5s18.667 7.5 26 11.5s14 7.83301 20 11.5s11.667 5.5 17 5.5c7.33301 0 13 -1.83301 17 -5.5
s7.66699 -9.16699 11 -16.5l53 -120c-36.667 -30 -77.167 -52.667 -121.5 -68s-89.5 -23 -135.5 -23c-72.667 0 -130.167 19.667 -172.5 59s-64.5 94.666 -66.5 165.999z" />
    <glyph glyph-name="u" unicode="u" horiz-adv-x="1082" 
d="M1017 1026l-124 -1026h-125c-58.667 0 -88 28.333 -88 85l6 118c-52 -73.333 -108.833 -128 -170.5 -164s-125.5 -54 -191.5 -54c-42.667 0 -81 8.66699 -115 26s-62 42.5 -84 75.5s-37.5 73.833 -46.5 122.5s-9.5 104 -1.5 166l77 651h247l-77 -651
c-8.66699 -67.333 -5.33398 -115.5 9.99902 -144.5s43.333 -43.5 84 -43.5c26.667 0 53.834 7.33301 81.501 22s54.5 35.667 80.5 63s50 60.166 72 98.499s40.333 81.166 55 128.499l63 527h247z" />
    <glyph glyph-name="v" unicode="v" horiz-adv-x="983" 
d="M1028 1026l-505.997 -1026h-207l-257 1026h203c17.333 0 31.166 -4.33301 41.499 -13s16.833 -19.667 19.5 -33l107 -548c5.33301 -33.333 9.66602 -66 12.999 -98s6 -64 8 -96c20 64 43.333 128.667 70 194l245 548c6 13.333 15.167 24.333 27.5 33s26.166 13 41.499 13
h194z" />
    <glyph glyph-name="w" unicode="w" horiz-adv-x="1476" 
d="M1507 1026l-424.002 -1026h-191c-20.667 0 -33.334 14.667 -38.001 44l-98 593c-4 25.333 -7 51 -9 77l-14 -39.5c-4.66699 -13 -9.66699 -26.167 -15 -39.5l-243 -591c-12 -29.333 -30 -44 -54 -44h-183l-174 1026h188c16.667 0 30.334 -4.33301 41.001 -13
s17.334 -19.667 20.001 -33l60 -548c2 -30 3.66699 -58.667 5 -86l4 -83c10 28 20.5 55.667 31.5 83l33.5 86l223 550c5.33301 13.333 14 24.333 26 33s25.667 13 41 13h105c17.333 0 31.333 -4.33301 42 -13s16.667 -19.667 18 -33l85 -550l11.5 -86.5
c3.66699 -27.667 6.83398 -55.5 9.50098 -83.5c7.33301 27.333 15.5 55 24.5 83l28.5 87l199 548c4.66699 13.333 13 24.333 25 33s25.667 13 41 13h181z" />
    <glyph glyph-name="x" unicode="x" horiz-adv-x="975" 
d="M637 554l263.003 -554.001h-224c-16.667 0 -29.834 4.5 -39.501 13.5s-17.167 19.5 -22.5 31.5l-158 361c-3.33301 -8 -6.83301 -15.5 -10.5 -22.5s-7.83398 -13.833 -12.501 -20.5l-228 -318c-8.66699 -11.333 -18.167 -21.666 -28.5 -30.999s-23.5 -14 -39.5 -14h-217
l407 554l-237 472h224c16.667 0 28.667 -2.33301 36 -7s13.666 -12.667 18.999 -24l140 -305c4 8 8.33301 16 13 24s10 16.333 16 25l181 252c14.667 23.333 32.667 35 54 35h224z" />
    <glyph glyph-name="y" unicode="y" horiz-adv-x="983" 
d="M1032 1026l-678 -1310c-9.33301 -17.333 -20.333 -30.166 -33 -38.499s-28.334 -12.5 -47.001 -12.5h-183l228 414l-259 947h207c18 0 31.5 -4.5 40.5 -13.5s15.167 -19.833 18.5 -32.5l126 -532c6.66699 -34 11.667 -68 15 -102l22.5 51.5l23.5 51.5l253 532
c6.66699 13.333 16.334 24.166 29.001 32.499s25.667 12.5 39 12.5h198z" />
    <glyph glyph-name="z" unicode="z" horiz-adv-x="866" 
d="M858 1026l-12.999 -102.002c-1.33301 -17.333 -6 -34.166 -14 -50.499s-16.667 -30.166 -26 -41.499l-512 -642h451l-23 -190h-746l13 103c0.666992 11.333 4.66699 25 12 41s16.666 30.667 27.999 44l517 649h-441l23 189h731z" />
    <glyph glyph-name="braceleft" unicode="{" horiz-adv-x="580" 
d="M638 1545l-12.999 -106.996c-0.666992 -8 -3.16699 -15 -7.5 -21s-9.33301 -11 -15 -15s-11.667 -6.83301 -18 -8.5s-11.5 -2.5 -15.5 -2.5h-7c-44 0 -78.833 -15.833 -104.5 -47.5s-40.834 -76.834 -45.501 -135.501c-3.33301 -34 -5.5 -66.667 -6.5 -98
s-1.5 -61.833 -1.5 -91.5s-0.166992 -58.667 -0.5 -87s-1.83301 -56.833 -4.5 -85.5c-5.33301 -56 -23.166 -104.333 -53.499 -145s-69.5 -68 -117.5 -82c38 -13.333 67.333 -36.5 88 -69.5s31 -70.5 31 -112.5c0 -38.667 -4.33301 -76.5 -13 -113.5
s-18.334 -74 -29.001 -111s-20.334 -74.333 -29.001 -112s-13 -76.834 -13 -117.501c0 -40 9.16699 -72.5 27.5 -97.5s45.5 -37.5 81.5 -37.5h8c4.66699 0 9.83398 -0.833008 15.501 -2.5s10.834 -4.5 15.501 -8.5s8.33398 -9 11.001 -15s3.33398 -13.333 2.00098 -22
l-13 -105h-49c-52.667 0 -98.334 7 -137.001 21s-70.5 33.5 -95.5 58.5s-43.667 54.833 -56 89.5s-18.5 73 -18.5 115c0 43.333 4.83301 84.666 14.5 123.999s20.167 77.666 31.5 114.999s21.833 74.333 31.5 111s14.5 74 14.5 112c0 32 -7.66699 58.333 -23 79
s-39 31 -71 31l17 138c49.333 0 83.666 20.5 102.999 61.5s29 103.833 29 188.5c0 10.667 -0.333008 23 -1 37s-1.16699 28.5 -1.5 43.5s-0.833008 29.667 -1.5 44s-1 27.166 -1 38.499c0 70.667 8 133.5 24 188.5s40.167 101.333 72.5 139s73.166 66.334 122.499 86.001
s107.333 29.5 174 29.5h48z" />
    <glyph glyph-name="bar" unicode="|" horiz-adv-x="539" 
d="M173 1547h191v-1882h-191v1882z" />
    <glyph glyph-name="braceright" unicode="}" horiz-adv-x="580" 
d="M220 1545c52.667 0 98.1709 -6.99902 136.504 -20.999s70 -33.5 95 -58.5s43.667 -55.167 56 -90.5s18.5 -74 18.5 -116c0 -43.333 -4.66699 -84.5 -14 -123.5s-19.666 -77.167 -30.999 -114.5s-21.666 -74.333 -30.999 -111s-14 -73.667 -14 -111
c0 -32 7.16699 -58.333 21.5 -79s38.166 -31 71.499 -31l-17 -138c-48.667 0 -82.834 -20.667 -102.501 -62s-29.5 -104.666 -29.5 -189.999c0 -10 0.166992 -22 0.5 -36s0.833008 -28.333 1.5 -43s1.16699 -29.334 1.5 -44.001s0.5 -27.334 0.5 -38.001
c0 -141.333 -32.167 -250.5 -96.5 -327.5s-162.833 -115.5 -295.5 -115.5h-49l15 105c0.666992 8.66699 3 16 7 22s8.83301 11 14.5 15s11.5 6.83301 17.5 8.5s11.333 2.5 16 2.5h8c44 0 78.667 16 104 48s40.333 77.333 45 136c3.33301 34 5.5 66.5 6.5 97.5
s1.5 61.333 1.5 91s0.333008 58.667 1 87s2.33398 56.5 5.00098 84.5c4.66699 56 22.167 104.333 52.5 145s69.5 68 117.5 82c-38.667 13.333 -68.334 36.833 -89.001 70.5s-31 71.5 -31 113.5c0 38 4.5 75.5 13.5 112.5s18.833 74 29.5 111s20.5 74.5 29.5 112.5
s13.5 77.333 13.5 118c0 40 -9.16699 72.333 -27.5 97s-45.833 37 -82.5 37h-7c-4.66699 0 -9.83398 0.833008 -15.501 2.5s-10.834 4.5 -15.501 8.5s-8.33398 9 -11.001 15s-3.33398 13 -2.00098 21l12 107h49z" />
    <glyph glyph-name="asciitilde" unicode="~" horiz-adv-x="1160" 
d="M743 648c38 0 67.1689 12 87.502 36s30.833 57.667 31.5 101h199c0 -51.333 -6.83301 -97.833 -20.5 -139.5s-33.334 -77.334 -59.001 -107.001s-57.167 -52.5 -94.5 -68.5s-80 -24 -128 -24c-35.333 0 -69.166 4.66699 -101.499 14s-63 19.5 -92 30.5l-82 30.5
c-25.667 9.33301 -48.834 14 -69.501 14c-37.333 0 -66.333 -12 -87 -36s-31 -57.667 -31 -101h-200c0 51.333 6.83301 97.833 20.5 139.5s33.5 77.334 59.5 107.001s57.667 52.5 95 68.5s80 24 128 24c34.667 0 68.167 -4.66699 100.5 -14s63 -19.5 92 -30.5l81.5 -30.5
c25.333 -9.33301 48.666 -14 69.999 -14z" />
    <glyph glyph-name="exclamdown" unicode="&#xa1;" horiz-adv-x="502" 
d="M28 -337l66.999 535c7.33301 60.667 17.333 120 30 178s27.334 120 44.001 186h156c0.666992 -66 0 -128 -2 -186s-7 -117.333 -15 -178l-65 -535h-215zM132.999 891c0 20.667 3.83301 40.334 11.5 59.001s18.167 34.667 31.5 48s29.333 24 48 32s38.667 12 60 12
c20.667 0 40.334 -4 59.001 -12s34.834 -18.667 48.501 -32s24.5 -29.333 32.5 -48s12 -38.334 12 -59.001c0 -21.333 -4 -41.166 -12 -59.499s-18.833 -34.166 -32.5 -47.499s-29.834 -23.833 -48.501 -31.5s-38.334 -11.5 -59.001 -11.5
c-21.333 0 -41.333 3.83301 -60 11.5s-34.667 18.167 -48 31.5s-23.833 29.166 -31.5 47.499s-11.5 38.166 -11.5 59.499z" />
    <glyph glyph-name="cent" unicode="&#xa2;" horiz-adv-x="1160" 
d="M639 857c-50.667 -5.33301 -95 -18.8359 -133 -40.5029s-69.5 -50 -94.5 -85s-43.667 -76.167 -56 -123.5s-18.5 -99.666 -18.5 -156.999c0 -71.333 14.167 -130.166 42.5 -176.499s68.5 -78.166 120.5 -95.499zM997 815.997
c-7.33301 -9.33301 -14.834 -16.334 -22.501 -21.001s-17.5 -7 -29.5 -7c-9.33301 0 -18.666 2.33301 -27.999 7l-32.5 17c-12.333 6.66699 -26.5 13.5 -42.5 20.5s-35 12.833 -57 17.5l-141 -684c36.667 3.33301 67.834 9.83301 93.501 19.5s47.667 19.5 66 29.5l48 27
c13.667 8 26.834 12 39.501 12c20 0 34 -6.66699 42 -20l56 -84c-26 -26.667 -54 -49.667 -84 -69s-61.333 -35.5 -94 -48.5s-66.167 -23.167 -100.5 -30.5s-68.833 -12.333 -103.5 -15l-31 -150c-3.33301 -15.333 -11.5 -29.166 -24.5 -41.499s-28.5 -18.5 -46.5 -18.5h-88
l44 214c-52.667 8 -101 24.167 -145 48.5s-81.667 55.5 -113 93.5s-55.833 82.667 -73.5 134s-26.5 108.666 -26.5 171.999c0 82.667 13 159.834 39 231.501s63.5 134.167 112.5 187.5s109 95.833 180 127.5s151.5 49.167 241.5 52.5l33 160
c3.33301 15.333 11.666 29.333 24.999 42s29 19 47 19h88l-47 -230c52 -9.33301 98.167 -25 138.5 -47s76.166 -49.667 107.499 -83z" />
    <glyph glyph-name="sterling" unicode="&#xa3;" horiz-adv-x="1160" 
d="M895 662c-2 -15.333 -9.83496 -29.167 -23.502 -41.5s-30.5 -18.5 -50.5 -18.5h-381l-25 -206c-5.33301 -46 -16 -85.833 -32 -119.5s-38 -64.834 -66 -93.501c26 6 52.167 10.667 78.5 14s52.5 5 78.5 5h598l-12 -99c-1.33301 -12 -5.16602 -24.167 -11.499 -36.5
s-14.5 -23.333 -24.5 -33s-21.667 -17.667 -35 -24s-27.666 -9.5 -42.999 -9.5h-961l19 150c46.667 10.667 82.834 29.834 108.501 57.501s42.167 69.167 49.5 124.5l33 270h-154l12 96c2 14.667 9.83301 28.167 23.5 40.5s30.167 18.5 49.5 18.5h88l30 241
c8 62.667 25.667 122.167 53 178.5s63.666 105.5 108.999 147.5s98.833 75.333 160.5 100s130.834 37 207.501 37c56.667 0 106.334 -6.5 149.001 -19.5s79.5 -31 110.5 -54s56.833 -50.333 77.5 -82s37.667 -66.167 51 -103.5l-103 -62
c-23.333 -11.333 -45 -16.333 -65 -15s-37.667 11.666 -53 30.999c-11.333 16.667 -22.5 31.334 -33.5 44.001s-23.667 23.5 -38 32.5s-31 15.833 -50 20.5s-42.167 7 -69.5 7c-35.333 0 -68 -6 -98 -18s-56.333 -29.167 -79 -51.5s-41.334 -49.5 -56.001 -81.5
s-24.334 -68.333 -29.001 -109l-30 -243h448l-11 -95v0z" />
    <glyph glyph-name="currency" unicode="&#xa4;" horiz-adv-x="1160" 
d="M398 673c0 -25.333 4.83301 -49.5 14.5 -72.5s23 -43 40 -60s36.833 -30.5 59.5 -40.5s47 -15 73 -15s50.5 5 73.5 15s43 23.5 60 40.5s30.333 37 40 60s14.5 47.167 14.5 72.5c0 26.667 -4.83301 51.5 -14.5 74.5s-23 43 -40 60s-37 30.5 -60 40.5s-47.5 15 -73.5 15
s-50.333 -5 -73 -15s-42.5 -23.5 -59.5 -40.5s-30.333 -37 -40 -60s-14.5 -47.833 -14.5 -74.5zM930 209l-150.999 150c-28 -17.333 -58.333 -30.666 -91 -39.999s-67 -14 -103 -14c-34.667 0 -67.834 4.33301 -99.501 13s-61.5 21.334 -89.5 38.001l-153 -152l-123 124
l151 150c-17.333 28 -30.833 58.5 -40.5 91.5s-14.5 67.5 -14.5 103.5c0 35.333 4.5 68.833 13.5 100.5s21.833 61.5 38.5 89.5l-153 152l125 122l150 -149c28 17.333 58.5 30.666 91.5 39.999s67.5 14 103.5 14c34.667 0 68 -4.5 100 -13.5s62 -21.833 90 -38.5l152 152
l123 -123l-151 -151c17.333 -28 30.833 -58.5 40.5 -91.5s14.5 -67.5 14.5 -103.5c0 -34.667 -4.5 -67.834 -13.5 -99.501s-21.833 -61.5 -38.5 -89.5l152 -152z" />
    <glyph glyph-name="yen" unicode="&#xa5;" horiz-adv-x="1160" 
d="M738 631l280.998 -0.000976562l-16 -132h-322l-11 -96h320l-16 -133h-321l-33 -270h-238l33 270h-324l18 133h322l12 96h-323l16 132h281l-301 814h200c21.333 0 38.5 -5.5 51.5 -16.5s22.167 -25.167 27.5 -42.5l166 -499c16.667 -55.333 27.334 -106.333 32.001 -153
c8 24 17.5 48.333 28.5 73s24.167 51.334 39.5 80.001l285 499c8.66699 15.333 20.834 29 36.501 41s34.5 18 56.5 18h201z" />
    <glyph glyph-name="brokenbar" unicode="&#xa6;" horiz-adv-x="537" 
d="M172 1547h191v-809h-191v809zM172 473h191v-808h-191v808z" />
    <glyph glyph-name="section" unicode="&#xa7;" horiz-adv-x="941" 
d="M309 713c0 -26 8.00293 -48.4961 24.0029 -67.4961s36.667 -36.333 62 -52s53.666 -30.834 84.999 -45.501s62.666 -30.334 93.999 -47.001c28 16 48.167 35.167 60.5 57.5s18.5 47.166 18.5 74.499c0 26.667 -7.66699 49.667 -23 69s-35.333 36.666 -60 51.999
s-52.334 30 -83.001 44s-61 29.333 -91 46c-32 -17.333 -54.5 -36.5 -67.5 -57.5s-19.5 -45.5 -19.5 -73.5zM842.003 1248c-7.33301 -10.667 -14.998 -18.1719 -22.998 -22.5049s-17.333 -6.5 -28 -6.5c-12 0 -24 3.5 -36 10.5s-25.667 14.5 -41 22.5s-33 15.5 -53 22.5
s-44 10.5 -72 10.5c-27.333 0 -51.333 -3.66699 -72 -11s-38.334 -17.166 -53.001 -29.499s-25.667 -26.833 -33 -43.5s-11 -34 -11 -52c0 -19.333 6.5 -36.666 19.5 -51.999s30 -29.833 51 -43.5s44.833 -26.834 71.5 -39.501l82.5 -40c28.333 -14 55.833 -29.5 82.5 -46.5
s50.5 -36.167 71.5 -57.5s38 -45.833 51 -73.5s19.5 -59.167 19.5 -94.5c0 -59.333 -14.333 -113.666 -43 -162.999s-74.667 -88.666 -138 -117.999c22 -21.333 39.667 -46 53 -74s20 -60.667 20 -98c0 -52 -9.5 -100.5 -28.5 -145.5s-46.5 -84.167 -82.5 -117.5
s-80.5 -59.5 -133.5 -78.5s-113.5 -28.5 -181.5 -28.5c-32 0 -63.5 3.16699 -94.5 9.5s-60 15 -87 26s-51.833 24.167 -74.5 39.5s-42 32 -58 50l67 90c7.33301 11.333 16.166 19.833 26.499 25.5s23.166 8.5 38.499 8.5c14.667 0 27.834 -4.33301 39.501 -13
s25.167 -18 40.5 -28s34 -19.333 56 -28s51 -13 87 -13c54 0 96 13.5 126 40.5s45 62.5 45 106.5c0 32.667 -11.167 59.5 -33.5 80.5s-50.5 40.167 -84.5 57.5s-70.5 34.333 -109.5 51s-75.5 36.5 -109.5 59.5s-62.167 51.333 -84.5 85s-33.5 75.834 -33.5 126.501
c0 60.667 15.5 114.5 46.5 161.5s78.167 84.167 141.5 111.5c-22 22.667 -39.833 48.834 -53.5 78.501s-20.5 65.167 -20.5 106.5c0 46.667 8.83301 91 26.5 133s43.5 79 77.5 111s76 57.333 126 76s107 28 171 28c66 0 124.5 -11.5 175.5 -34.5s91.833 -53.167 122.5 -90.5
z" />
    <glyph glyph-name="dieresis" unicode="&#xa8;" 
d="M458 1292c0 -18.667 -3.66699 -36.167 -11 -52.5s-17.5 -30.5 -30.5 -42.5s-28 -21.5 -45 -28.5s-34.833 -10.5 -53.5 -10.5c-18 0 -35.167 3.5 -51.5 10.5s-30.833 16.5 -43.5 28.5s-22.667 26.167 -30 42.5s-11 33.833 -11 52.5c0 19.333 3.66699 37.5 11 54.5
s17.333 31.833 30 44.5s27.167 22.667 43.5 30s33.5 11 51.5 11c18.667 0 36.5 -3.66699 53.5 -11s32 -17.333 45 -30s23.167 -27.5 30.5 -44.5s11 -35.167 11 -54.5zM842 1292c0 -18.667 -3.66699 -36.167 -11 -52.5s-17.166 -30.5 -29.499 -42.5s-27 -21.5 -44 -28.5
s-34.833 -10.5 -53.5 -10.5c-19.333 0 -37.166 3.5 -53.499 10.5s-30.833 16.5 -43.5 28.5s-22.5 26.167 -29.5 42.5s-10.5 33.833 -10.5 52.5c0 19.333 3.5 37.5 10.5 54.5s16.833 31.833 29.5 44.5s27.167 22.667 43.5 30s34.166 11 53.499 11
c18.667 0 36.5 -3.66699 53.5 -11s31.667 -17.333 44 -30s22.166 -27.5 29.499 -44.5s11 -35.167 11 -54.5z" />
    <glyph glyph-name="copyright" unicode="&#xa9;" horiz-adv-x="1649" 
d="M1065 512c6.66699 0 12.999 -1.49902 18.999 -4.49902s11 -7.16699 15 -12.5l82 -87c-36.667 -47.333 -83.5 -83.5 -140.5 -108.5s-123.833 -37.5 -200.5 -37.5c-66.667 0 -127 11.833 -181 35.5s-100.167 56.334 -138.5 98.001s-67.833 90.667 -88.5 147
s-31 117.5 -31 183.5c0 68 11.667 130.333 35 187s55.666 105.5 96.999 146.5s89.833 72.833 145.5 95.5s116.167 34 181.5 34c74.667 0 138.5 -12.333 191.5 -37s97.5 -56.667 133.5 -96l-65 -89c-4 -5.33301 -9.33301 -10.666 -16 -15.999s-15.334 -8 -26.001 -8
c-11.333 0 -22 3.33301 -32 10s-22.167 14 -36.5 22s-32.166 15.333 -53.499 22s-49 10 -83 10c-40 0 -75.667 -6.5 -107 -19.5s-57.833 -31.667 -79.5 -56s-38.167 -53.833 -49.5 -88.5s-17 -73.667 -17 -117c0 -45.333 5.83301 -85.333 17.5 -120
s27.834 -63.834 48.501 -87.501s45.167 -41.667 73.5 -54s59.166 -18.5 92.499 -18.5c32.667 0 59.5 2.66699 80.5 8s38.833 11.666 53.5 18.999s27.834 14.666 39.501 21.999s24.834 13 39.501 17zM99.999 723.001c0 68 8.83301 133.5 26.5 196.5s42.5 121.833 74.5 176.5
s70.5 104.5 115.5 149.5s94.833 83.5 149.5 115.5s113.334 56.833 176.001 74.5s128 26.5 196 26.5s133.5 -8.83301 196.5 -26.5s121.833 -42.5 176.5 -74.5s104.5 -70.5 149.5 -115.5s83.5 -94.833 115.5 -149.5s56.833 -113.5 74.5 -176.5s26.5 -128.5 26.5 -196.5
c0 -67.333 -8.83301 -132.5 -26.5 -195.5s-42.5 -121.667 -74.5 -176s-70.5 -104 -115.5 -149s-94.833 -83.5 -149.5 -115.5s-113.5 -56.833 -176.5 -74.5s-128.5 -26.5 -196.5 -26.5s-133.333 8.83301 -196 26.5s-121.334 42.5 -176.001 74.5s-104.5 70.5 -149.5 115.5
s-83.5 94.667 -115.5 149s-56.833 112.833 -74.5 175.5s-26.5 128 -26.5 196zM234.999 723.001c0 -86.667 15.5029 -167.667 46.5029 -243s73.667 -140.833 128 -196.5s118.166 -99.5 191.499 -131.5s152.333 -48 237 -48s164 16 238 48s138.333 75.833 193 131.5
s97.667 121.167 129 196.5s47 156.333 47 243c0 58 -7.16699 113.667 -21.5 167s-34.5 103.166 -60.5 149.499s-57.333 88.333 -94 126s-77.5 70 -122.5 97s-93.5 47.833 -145.5 62.5s-106.333 22 -163 22s-110.834 -7.33301 -162.501 -22s-99.834 -35.5 -144.501 -62.5
s-85.167 -59.333 -121.5 -97s-67.5 -79.667 -93.5 -126s-46 -96.166 -60 -149.499s-21 -109 -21 -167z" />
    <glyph glyph-name="ordfeminine" unicode="&#xaa;" horiz-adv-x="686" 
d="M473 1093c-36 -1.33301 -65.833 -4.50195 -89.5 -9.50195s-42.667 -11.667 -57 -20s-24.5 -18.166 -30.5 -29.499s-9 -23.666 -9 -36.999c0 -17.333 5.16699 -29.5 15.5 -36.5s24.5 -10.5 42.5 -10.5c22.667 0 43 4.5 61 13.5s37 23.167 57 42.5zM196 1367
c39.333 34 80.8301 58.668 124.497 74.001s89.5 23 137.5 23c33.333 0 63 -6.33301 89 -19s47.667 -30 65 -52s29.833 -47.5 37.5 -76.5s9.5 -59.5 5.5 -91.5l-47 -384h-80c-15.333 0 -26.666 2.33301 -33.999 7s-13.666 14 -18.999 28l-7 37
c-16 -13.333 -31.333 -25 -46 -35s-29.5 -18.333 -44.5 -25s-30.833 -11.667 -47.5 -15s-35 -5 -55 -5c-47.333 0 -84.666 12.333 -111.999 37s-41 60 -41 106c0 25.333 5.5 50.666 16.5 75.999s30.167 48.5 57.5 69.5s64.333 38.5 111 52.5s106 22 178 24l3 27
c0.666992 14 0.333984 27.333 -0.999023 40s-4.5 23.5 -9.5 32.5s-12.167 16.167 -21.5 21.5s-21.333 8 -36 8c-20.667 0 -37.834 -2.5 -51.501 -7.5s-26 -10.333 -37 -16l-31.5 -16c-10 -5 -21.333 -7.5 -34 -7.5s-22.5 3.16699 -29.5 9.5s-12.5 13.5 -16.5 21.5z" />
    <glyph glyph-name="guillemotleft" unicode="&#xab;" horiz-adv-x="835" 
d="M291 578c-12.667 -18.667 -24.6699 -32.332 -36.0029 -40.999c8.66699 -8.66699 17.334 -22.334 26.001 -41.001l94 -239c8.66699 -20 10.334 -38.5 5.00098 -55.5s-18.666 -30.167 -39.999 -39.5l-83 -36l-188 396l4 30l286 395l73 -37
c19.333 -8.66699 29.5 -21.5 30.5 -38.5s-5.16699 -35.167 -18.5 -54.5zM592.997 578.002c-12.667 -18.667 -24.6699 -32.332 -36.0029 -40.999c8.66699 -8.66699 17.334 -22.334 26.001 -41.001l94 -239c8.66699 -20 10.334 -38.5 5.00098 -55.5
s-18.666 -30.167 -39.999 -39.5l-83 -36l-188 396l4 30l286 395l73 -37c19.333 -8.66699 29.5 -21.5 30.5 -38.5s-5.16699 -35.167 -18.5 -54.5z" />
    <glyph glyph-name="logicalnot" unicode="&#xac;" horiz-adv-x="1160" 
d="M979 300h-201l35 283h-681l21 177h883z" />
    </font>
</defs>
</svg>
