<svg xmlns="http://www.w3.org/2000/svg">
<defs>
<font id="Lato-Italic" horiz-adv-x="736" >
  <font-face 
    font-family="Lato"
    font-weight="400"
    font-style="italic"
    font-stretch="normal"
    units-per-em="2000"
    panose-1="2 15 5 2 2 2 4 3 2 3"
    ascent="1610"
    descent="-390"
    x-height="1013"
    cap-height="1432"
    bbox="-1003 -537 2581 2155"
    underline-thickness="89"
    underline-position="-422"
    slope="-7"
    unicode-range="U+0020-U+FEFF"
  />
<missing-glyph horiz-adv-x="1063" 
d="M250 1141c16.667 14.667 34.5 28.333 53.5 41s39.833 23.834 62.5 33.501s47.167 17.334 73.5 23.001s54.833 8.5 85.5 8.5c42 0 80.167 -5.83301 114.5 -17.5s63.666 -28.167 87.999 -49.5s43.333 -47.166 57 -77.499s20.5 -64.166 20.5 -101.499
c0 -36.667 -5 -68.334 -15 -95.001s-22.5 -49.834 -37.5 -69.501s-31.5 -36.667 -49.5 -51l-51 -40.5c-16 -12.667 -29.833 -25.167 -41.5 -37.5s-18.834 -26.166 -21.501 -41.499l-17 -105h-122l-12 117c-2.66699 22.667 0.333008 42.5 9 59.5s20.5 32.667 35.5 47
s31.667 28.166 50 41.499s35.5 27.666 51.5 42.999s29.333 32.666 40 51.999s16 42.333 16 69c0 34 -12.167 61 -36.5 81s-55.5 30 -93.5 30c-27.333 0 -50.333 -3 -69 -9s-34.667 -12.667 -48 -20s-24.666 -14 -33.999 -20s-17.666 -9 -24.999 -9
c-16.667 0 -29 7.33301 -37 22zM396 291.999c0 31.333 10.333 57.666 31 78.999s47 32 79 32c14.667 0 28.667 -2.83301 42 -8.5s24.833 -13.5 34.5 -23.5s17.334 -21.833 23.001 -35.5s8.5 -28.167 8.5 -43.5s-2.83301 -29.666 -8.5 -42.999s-13.334 -25 -23.001 -35
s-21.167 -17.833 -34.5 -23.5s-27.333 -8.5 -42 -8.5c-32 0 -58.333 10.5 -79 31.5s-31 47.167 -31 78.5zM45 1433h974v-1433h-974v1433zM95 53.999h867v1324h-867v-1324z" />
    <glyph glyph-name="uniFB00" unicode="ff" horiz-adv-x="1234" 
d="M986 993l266.997 0.00292969l-16 -125h-260l-102 -835l-46 -207c-7.33301 -24 -18.166 -42.5 -32.499 -55.5s-34.166 -19.5 -59.499 -19.5h-70l135 1117h-405l-102 -835l-46 -207c-7.33301 -24 -18.166 -42.5 -32.499 -55.5s-34.166 -19.5 -59.499 -19.5h-70l136 1115
l-99 13c-13.333 2 -23.833 6.5 -31.5 13.5s-10.834 17.167 -9.50098 30.5l9 70h147l10 83c7.33301 58 21.666 109.5 42.999 154.5s48.166 83 80.499 114s69.5 54.5 111.5 70.5s87 24 135 24c40.667 0 78.334 -6.66699 113.001 -20l-17 -93
c-2 -6.66699 -5.33301 -11.334 -10 -14.001s-10.667 -4.33398 -18 -5.00098s-15.833 -0.833984 -25.5 -0.500977s-20.167 0.5 -31.5 0.5c-28 0 -53.833 -3.66699 -77.5 -11s-44.667 -19.666 -63 -36.999s-33.666 -40.5 -45.999 -69.5s-21.166 -65.167 -26.499 -108.5
l-12 -88h412l13 109c7.33301 58 21.833 109.5 43.5 154.5s48.834 83 81.501 114s70.167 54.5 112.5 70.5s88.166 24 137.499 24c41.333 0 79 -6.66699 113 -20l-17 -92c-2 -6.66699 -5.33301 -11.334 -10 -14.001s-10.667 -4.5 -18 -5.5s-15.833 -1.33301 -25.5 -1
s-20.167 0.5 -31.5 0.5c-28.667 0 -55 -4.16699 -79 -12.5s-45.333 -21.833 -64 -40.5s-34.334 -43 -47.001 -73s-21.667 -66.667 -27 -110z" />
    <glyph glyph-name="uniFB01" unicode="fi" horiz-adv-x="1067" 
d="M405 993l566.999 0.00292969l-121 -993h-175l106 864h-386l-102 -832l-47 -207c-7.33301 -24 -18.166 -42.5 -32.499 -55.5s-34.166 -19.5 -59.499 -19.5h-70l137 1112l-98 12c-14 3.33301 -24.667 8.16602 -32 14.499s-10.333 16.166 -9 29.499l8 75h147l7 56
c7.33301 62 23.333 118.667 48 170s57.167 95.333 97.5 132s88.666 65.167 144.999 85.5s120.166 30.5 191.499 30.5c12 0 24.5 -0.5 37.5 -1.5s26 -2.33301 39 -4s25.333 -3.66699 37 -6s21.834 -5.16602 30.501 -8.49902l-18 -90
c-1.33301 -6.66699 -4.5 -11.334 -9.5 -14.001s-11.5 -4.33398 -19.5 -5.00098s-17.333 -0.666992 -28 0s-23 1 -37 1c-55.333 0 -103.333 -6 -144 -18s-75 -30 -103 -54s-50.167 -54.333 -66.5 -91s-27.5 -80 -33.5 -130z" />
    <glyph glyph-name="uniFB02" unicode="fl" horiz-adv-x="1098" 
d="M397 865l-103.004 -832.998l-47 -207c-7.33301 -24 -18.166 -42.5 -32.499 -55.5s-34.166 -19.5 -59.499 -19.5h-70l137 1112l-98 12c-14 3.33301 -24.667 8.16602 -32 14.499s-10.333 16.166 -9 29.499l9 75h146l7 55c6.66699 56 21 109 43 159s51.167 93.667 87.5 131
s79.833 66.833 130.5 88.5s108.334 32.5 173.001 32.5c48 0 93.5 -2 136.5 -6s85.5 -6.33301 127.5 -7h120l-178 -1446h-173l161 1316c-30 2.66699 -60.667 5.66699 -92 9s-61.666 5 -90.999 5c-78 0 -141.167 -24.5 -189.5 -73.5s-77.833 -118.5 -88.5 -208.5l-6 -55h238
l-15 -128h-232z" />
    <glyph glyph-name="uniFB03" unicode="ffi" horiz-adv-x="1647" 
d="M1537 868l-106.001 -867.997h-172l106 868h-388l-102 -836l-47 -207c-7.33301 -24 -18.166 -42.5 -32.499 -55.5s-34.166 -19.5 -59.499 -19.5h-70l137 1118h-406l-102 -835l-46 -207c-7.33301 -24 -18.166 -42.5 -32.499 -55.5s-34.166 -19.5 -59.499 -19.5h-70
l136 1115l-99 13c-13.333 2 -23.833 6.5 -31.5 13.5s-10.834 17.167 -9.50098 30.5l9 70h147l10 83c7.33301 58 21.666 109.5 42.999 154.5s48.166 83 80.499 114s69.5 54.5 111.5 70.5s87 24 135 24c40.667 0 78.334 -6.66699 113.001 -20l-17 -93
c-2 -6.66699 -5.33301 -11.334 -10 -14.001s-10.667 -4.33398 -18 -5.00098s-15.833 -0.833984 -25.5 -0.500977s-20.167 0.5 -31.5 0.5c-28 0 -53.833 -3.66699 -77.5 -11s-44.667 -19.666 -63 -36.999s-33.666 -40.5 -45.999 -69.5s-21.166 -65.167 -26.499 -108.5
l-12 -88h414l7 56c7.33301 62 23.333 118.667 48 170s57.167 95.333 97.5 132s88.666 65.167 144.999 85.5s120.166 30.5 191.499 30.5c11.333 0 23.666 -0.5 36.999 -1.5s26.5 -2.33301 39.5 -4s25.333 -3.66699 37 -6s21.5 -5.16602 29.5 -8.49902l-17 -90
c-1.33301 -6.66699 -4.5 -11.334 -9.5 -14.001s-11.5 -4.33398 -19.5 -5.00098s-17.333 -0.666992 -28 0s-23 1 -37 1c-110 0 -192.333 -24 -247 -72s-88 -121.667 -100 -221l-7 -53h567l-15 -125h-1z" />
    <glyph glyph-name="uniFB04" unicode="ffl" horiz-adv-x="1677" 
d="M402 992l414.995 0.000976562l7 56c6.66699 56 21 109 43 159s51.333 93.667 88 131s80.334 66.833 131.001 88.5s108.334 32.5 173.001 32.5c51.333 0 100.333 -2.16699 147 -6.5s92.667 -6.5 138 -6.5h98l-177 -1446h-173l160 1316c-30 2.66699 -60.667 5.66699 -92 9
s-61.333 5 -90 5c-78.667 0 -142.167 -24.5 -190.5 -73.5s-77.5 -118.5 -87.5 -208.5l-6 -56h267l-16 -126h-261l-103 -834l-46 -207c-7.33301 -24 -18.166 -42.5 -32.499 -55.5s-34.166 -19.5 -59.499 -19.5h-70l136 1116h-408l-100 -833l-47 -207
c-7.33301 -24 -18.166 -42.5 -32.499 -55.5s-34.166 -19.5 -59.499 -19.5h-70l136 1114l-96 12c-13.333 2.66699 -23.833 7.33398 -31.5 14.001s-10.834 16.667 -9.50098 30l9 71h143l11 84c7.33301 58 21.666 109.5 42.999 154.5s48.166 83 80.499 114
s69.5 54.5 111.5 70.5s87 24 135 24c41.333 0 79 -6.66699 113 -20l-17 -93c-2 -6.66699 -5.33301 -11.334 -10 -14.001s-10.667 -4.33398 -18 -5.00098s-15.833 -0.833984 -25.5 -0.500977s-20.167 0.5 -31.5 0.5c-28 0 -53.833 -3.66699 -77.5 -11
s-44.667 -19.666 -63 -36.999s-33.666 -40.5 -45.999 -69.5s-21.166 -65.167 -26.499 -108.5z" />
    <glyph glyph-name="f_b.liga" unicode="fb" horiz-adv-x="1710" 
d="M977 756c25.333 41.333 52.4971 78.6729 81.4971 112.006s59.5 61.833 91.5 85.5s65.333 42 100 55s70 19.5 106 19.5c86.667 0 154 -31.333 202 -94s72 -154.334 72 -275.001c0 -54.667 -5.66699 -109.334 -17 -164.001s-27.5 -106.834 -48.5 -156.501
s-46.333 -96 -76 -139s-62.667 -80.333 -99 -112s-75.833 -56.5 -118.5 -74.5s-87.334 -27 -134.001 -27c-54 0 -102.667 11.333 -146 34s-79.333 55 -108 97l-14 -65c-5.33301 -17.333 -12 -30.333 -20 -39s-22.333 -13 -43 -13h-94l163 1354c-28 4 -56.667 8.5 -86 13.5
s-57.333 7.5 -84 7.5c-40 0 -76.5 -6.83301 -109.5 -20.5s-61.833 -33.334 -86.5 -59.001s-44.834 -56.667 -60.501 -93s-25.834 -76.833 -30.501 -121.5l-11 -88h247l-15 -128h-242l-103 -833l-46 -207c-7.33301 -24 -18.166 -42.5 -32.499 -55.5
s-34.166 -19.5 -59.499 -19.5h-70l137 1112l-99 12c-13.333 3.33301 -23.666 8.16602 -30.999 14.499s-10.333 16.166 -9 29.499l8 75h147l11 88c6.66699 56.667 21.334 110 44.001 160s52.834 93.667 90.501 131s82.334 66.833 134.001 88.5s110.167 32.5 175.5 32.5
c68.667 0 133.5 -3 194.5 -9s114.167 -9.66699 159.5 -11h16zM911.997 222.007c25.333 -35.333 55.832 -60.499 91.499 -75.499s71.5 -22.5 107.5 -22.5c34.667 0 67.334 7.33301 98.001 22s58.667 34.5 84 59.5s47.833 54.333 67.5 88s36.5 69.667 50.5 108
s24.5 78 31.5 119s10.5 81.5 10.5 121.5c0 79.333 -14.167 139.666 -42.5 180.999s-68.5 62 -120.5 62c-32 0 -64.333 -10 -97 -30s-64.334 -47.833 -95.001 -83.5s-59.167 -78 -85.5 -127s-49.166 -102.5 -68.499 -160.5z" />
    <glyph glyph-name="f_f_b.liga" unicode="ffb" horiz-adv-x="2290" 
d="M1558 756c25.333 41.333 52.4941 78.6719 81.4941 112.005s59.5 61.833 91.5 85.5s65.333 42 100 55s70 19.5 106 19.5c86.667 0 154 -31.333 202 -94s72 -154.334 72 -275.001c0 -54.667 -5.66699 -109.334 -17 -164.001s-27.5 -106.834 -48.5 -156.501
s-46.333 -96 -76 -139s-62.667 -80.333 -99 -112s-75.833 -56.5 -118.5 -74.5s-87.334 -27 -134.001 -27c-54 0 -102.667 11.333 -146 34s-79.333 55 -108 97l-14 -65c-5.33301 -17.333 -12 -30.333 -20 -39s-22.333 -13 -43 -13h-94l163 1353l-86 14.5
c-29.333 5 -57.666 7.5 -84.999 7.5c-40 0 -76.5 -6.83301 -109.5 -20.5s-61.833 -33.334 -86.5 -59.001s-44.834 -56.667 -60.501 -93s-25.834 -76.833 -30.501 -121.5l-11 -89h265l-16 -126h-259l-102 -834l-47 -207c-7.33301 -24 -18.166 -42.5 -32.499 -55.5
s-34.166 -19.5 -59.499 -19.5h-70l137 1116h-406l-101 -833l-47 -207c-7.33301 -24 -18.166 -42.5 -32.499 -55.5s-34.166 -19.5 -59.499 -19.5h-70l136 1113l-100 13c-13.333 2.66699 -23.666 7.33398 -30.999 14.001s-10.333 16.667 -9 30l8 71h147l11 84
c7.33301 58 21.666 109.5 42.999 154.5s48.166 83 80.499 114s69.5 54.5 111.5 70.5s87 24 135 24c41.333 0 79 -6.66699 113 -20l-17 -93c-2 -6.66699 -5.33301 -11.334 -10 -14.001s-10.667 -4.33398 -18 -5.00098s-15.833 -0.833984 -25.5 -0.500977
s-20.167 0.5 -31.5 0.5c-28 0 -53.833 -3.66699 -77.5 -11s-44.5 -19.666 -62.5 -36.999s-33.167 -40.5 -45.5 -69.5s-21.166 -65.167 -26.499 -108.5l-12 -89h413l11 89c6.66699 56.667 21.334 110 44.001 160s52.834 93.667 90.501 131s82.334 66.833 134.001 88.5
s110.167 32.5 175.5 32.5c34 0 67.5 -1 100.5 -3s64.5 -4.16699 94.5 -6.5l85 -6.5c26.667 -2 51.334 -3.33301 74.001 -4h17zM1492.99 222.006c25.333 -35.333 55.833 -60.499 91.5 -75.499s71.5 -22.5 107.5 -22.5c34.667 0 67.334 7.33301 98.001 22s58.667 34.5 84 59.5
s48 54.333 68 88s36.667 69.667 50 108s23.666 78 30.999 119s11 81.5 11 121.5c0 79.333 -14.167 139.666 -42.5 180.999s-68.5 62 -120.5 62c-32 0 -64.333 -10 -97 -30s-64.334 -47.833 -95.001 -83.5s-59.167 -78 -85.5 -127s-49.166 -102.5 -68.499 -160.5z" />
    <glyph glyph-name="f_h.liga" unicode="fh" horiz-adv-x="1707" 
d="M980 789c52.667 78.667 111.165 138.173 175.498 178.506s129.833 60.5 196.5 60.5c43.333 0 81.333 -8.5 114 -25.5s59.167 -41.833 79.5 -74.5s34.166 -72.834 41.499 -120.501s7.33301 -101.834 0 -162.501l-76 -645h-178l76 645c10 80 5.33301 139.333 -14 178
s-55.333 58 -108 58c-30 0 -61 -8.16699 -93 -24.5s-62.833 -39.5 -92.5 -69.5s-57.667 -66.333 -84 -109s-49.166 -90.334 -68.499 -143.001l-65 -535h-177l163 1354l-84 14c-28 4.66699 -55.333 7 -82 7c-40 0 -76.333 -6.83301 -109 -20.5
s-61.334 -33.334 -86.001 -59.001s-44.834 -56.667 -60.501 -93s-26.167 -76.833 -31.5 -121.5l-11 -88h247l-15 -128h-241l-103 -833l-47 -207c-7.33301 -24 -18.166 -42.5 -32.499 -55.5s-34.166 -19.5 -59.499 -19.5h-70l138 1112l-99 12
c-14 3.33301 -24.667 8.16602 -32 14.499s-10.333 16.166 -9 29.499l9 75h147l11 88c6.66699 56.667 21.334 110 44.001 160s52.667 93.667 90 131s81.833 66.833 133.5 88.5s110.167 32.5 175.5 32.5c34 0 67.5 -1 100.5 -3s64.5 -4.16699 94.5 -6.5l85 -6.5
c26.667 -2 51.334 -3.33301 74.001 -4h16z" />
    <glyph glyph-name="f_f_h.liga" unicode="ffh" horiz-adv-x="2288" 
d="M1562 789c52.667 78.667 111.161 138.172 175.494 178.505s129.833 60.5 196.5 60.5c43.333 0 81.333 -8.5 114 -25.5s59.167 -41.833 79.5 -74.5s34.166 -72.834 41.499 -120.501s7.33301 -101.834 0 -162.501l-76 -645h-178l76 645c10 80 5.33301 139.333 -14 178
s-55.333 58 -108 58c-30 0 -61 -8.16699 -93 -24.5s-62.833 -39.5 -92.5 -69.5s-57.667 -66.333 -84 -109s-49.166 -90.334 -68.499 -143.001l-65 -535h-177l163 1354l-84.5 14c-28.333 4.66699 -55.833 7 -82.5 7c-40 0 -76.5 -6.83301 -109.5 -20.5
s-61.833 -33.334 -86.5 -59.001s-44.834 -56.667 -60.501 -93s-25.834 -76.833 -30.501 -121.5l-11 -89h265l-16 -126h-259l-102 -834l-47 -207c-7.33301 -24 -18.166 -42.5 -32.499 -55.5s-34.166 -19.5 -59.499 -19.5h-70l137 1116h-406l-101 -833l-47 -207
c-7.33301 -24 -18.166 -42.5 -32.499 -55.5s-34.166 -19.5 -59.499 -19.5h-70l136 1113l-100 13c-13.333 2.66699 -23.666 7.33398 -30.999 14.001s-10.333 16.667 -9 30l8 71h147l11 84c7.33301 58 21.666 109.5 42.999 154.5s48.166 83 80.499 114s69.5 54.5 111.5 70.5
s87 24 135 24c41.333 0 79 -6.66699 113 -20l-17 -93c-2 -6.66699 -5.33301 -11.334 -10 -14.001s-10.667 -4.33398 -18 -5.00098s-15.833 -0.833984 -25.5 -0.500977s-20.167 0.5 -31.5 0.5c-28 0 -53.833 -3.66699 -77.5 -11s-44.5 -19.666 -62.5 -36.999
s-33.167 -40.5 -45.5 -69.5s-21.166 -65.167 -26.499 -108.5l-12 -89h413l11 89c6.66699 56.667 21.334 110 44.001 160s52.834 93.667 90.501 131s82.334 66.833 134.001 88.5s110.167 32.5 175.5 32.5c34 0 67.5 -1 100.5 -3s64.5 -4.16699 94.5 -6.5l85 -6.5
c26.667 -2 51.334 -3.33301 74.001 -4h17z" />
    <glyph glyph-name="f_igrave.liga" unicode="f&#xec;" horiz-adv-x="1067" 
d="M405 993l566.996 0.000976562l-121 -993h-175l106 864h-387l-101 -831l-44 -207c-7.33301 -24 -18.166 -42.5 -32.499 -55.5s-34.166 -19.5 -59.499 -19.5h-70l136 1110l-100 13c-14 3.33301 -24.667 8.16602 -32 14.499s-10.333 16.166 -9 29.499l8 75h149l15 124
c13.333 110.667 46.333 195.667 99 255s121.667 89 207 89c13.333 0 27 -0.666992 41 -2s26.333 -3.66602 37 -6.99902l-12 -94c-1.33301 -10.667 -6.66602 -17.334 -15.999 -20.001s-21.666 -4 -36.999 -4c-42.667 0 -76.5 -17.667 -101.5 -53
s-42.167 -89.666 -51.5 -162.999zM826.996 1449c20 0 34.668 -3.5 44.001 -10.5s17.333 -18.167 24 -33.5l109 -242h-93c-12.667 0 -22.834 2.16699 -30.501 6.5s-15.167 11.5 -22.5 21.5l-186 258h155z" />
    <glyph glyph-name="f_icircumflex.liga" unicode="f&#xee;" horiz-adv-x="1067" 
d="M405 993l566.996 0.000976562l-121 -993h-175l106 864h-387l-101 -831l-44 -207c-7.33301 -24 -18.166 -42.5 -32.499 -55.5s-34.166 -19.5 -59.499 -19.5h-70l136 1110l-100 13c-14 3.33301 -24.667 8.16602 -32 14.499s-10.333 16.166 -9 29.499l8 75h149l15 124
c13.333 110.667 46.333 195.667 99 255s121.667 89 207 89c13.333 0 27 -0.666992 41 -2s26.333 -3.66602 37 -6.99902l-12 -94c-1.33301 -10.667 -6.66602 -17.334 -15.999 -20.001s-21.666 -4 -36.999 -4c-42.667 0 -76.5 -17.667 -101.5 -53
s-42.167 -89.666 -51.5 -162.999zM1204 1169h-110c-6.66699 0 -13.167 1.33301 -19.5 4s-12.5 7.66699 -18.5 15l-99 132c-2 3.33301 -4.16699 6.5 -6.5 9.5s-4.5 6.16699 -6.5 9.5l-17 -19l-130 -132c-12.667 -12.667 -26.667 -19 -42 -19h-114l235 264h152z" />
    <glyph glyph-name="f_itilde.liga" unicode="f&#x129;" horiz-adv-x="1067" 
d="M405 993l566.996 0.000976562l-121 -993h-175l106 864h-387l-101 -831l-44 -207c-7.33301 -24 -18.166 -42.5 -32.499 -55.5s-34.166 -19.5 -59.499 -19.5h-70l136 1110l-100 13c-14 3.33301 -24.667 8.16602 -32 14.499s-10.333 16.166 -9 29.499l8 75h149l15 124
c13.333 110.667 46.333 195.667 99 255s121.667 89 207 89c13.333 0 27 -0.666992 41 -2s26.333 -3.66602 37 -6.99902l-12 -94c-1.33301 -10.667 -6.66602 -17.334 -15.999 -20.001s-21.666 -4 -36.999 -4c-42.667 0 -76.5 -17.667 -101.5 -53
s-42.167 -89.666 -51.5 -162.999zM1035 1325c44.667 0 71.002 28.666 79.002 85.999h100c-3.33301 -31.333 -10.333 -60.166 -21 -86.499s-24.334 -48.833 -41.001 -67.5s-35.5 -33.167 -56.5 -43.5s-43.833 -15.5 -68.5 -15.5c-21.333 0 -40.833 4.83301 -58.5 14.5
s-34.167 20.167 -49.5 31.5l-43.5 31.5c-13.667 9.66699 -27.5 14.5 -41.5 14.5c-44.667 0 -70.667 -29.333 -78 -88h-102c3.33301 32 10.5 61.167 21.5 87.5s24.833 49 41.5 68s35.667 33.667 57 44s44 15.5 68 15.5c22 0 41.667 -4.83301 59 -14.5
s33.666 -20.167 48.999 -31.5l43.5 -31.5c13.667 -9.66699 27.5 -14.5 41.5 -14.5z" />
    <glyph glyph-name="f_idieresis.liga" unicode="f&#xef;" horiz-adv-x="1067" 
d="M878 1289c0 -14 -2.83301 -27 -8.5 -39s-13.167 -22.5 -22.5 -31.5s-20.5 -16.167 -33.5 -21.5s-26.5 -8 -40.5 -8c-13.333 0 -26.166 2.66699 -38.499 8s-23.166 12.5 -32.499 21.5s-16.666 19.5 -21.999 31.5s-8 25 -8 39c0 14.667 2.66699 28.334 8 41.001
s12.666 23.667 21.999 33s20.166 16.833 32.499 22.5s25.166 8.5 38.499 8.5c14 0 27.5 -2.83301 40.5 -8.5s24.167 -13.167 33.5 -22.5s16.833 -20.333 22.5 -33s8.5 -26.334 8.5 -41.001zM1171 1289c0 -14 -2.66699 -27 -8 -39s-12.833 -22.5 -22.5 -31.5
s-20.667 -16.167 -33 -21.5s-25.5 -8 -39.5 -8s-27.333 2.66699 -40 8s-23.667 12.5 -33 21.5s-16.666 19.5 -21.999 31.5s-8 25 -8 39c0 14.667 2.66699 28.334 8 41.001s12.666 23.667 21.999 33s20.333 16.833 33 22.5s26 8.5 40 8.5s27.167 -2.83301 39.5 -8.5
s23.333 -13.167 33 -22.5s17.167 -20.333 22.5 -33s8 -26.334 8 -41.001zM405 993l566.996 0.000976562l-121 -993h-175l106 864h-387l-101 -831l-44 -207c-7.33301 -24 -18.166 -42.5 -32.499 -55.5s-34.166 -19.5 -59.499 -19.5h-70l136 1110l-100 13
c-14 3.33301 -24.667 8.16602 -32 14.499s-10.333 16.166 -9 29.499l8 75h149l15 124c13.333 110.667 46.333 195.667 99 255s121.667 89 207 89c13.333 0 27 -0.666992 41 -2s26.333 -3.66602 37 -6.99902l-12 -94c-1.33301 -10.667 -6.66602 -17.334 -15.999 -20.001
s-21.666 -4 -36.999 -4c-42.667 0 -76.5 -17.667 -101.5 -53s-42.167 -89.666 -51.5 -162.999z" />
    <glyph glyph-name="f_imacron.liga" unicode="f&#x12b;" horiz-adv-x="1067" 
d="M405 993l566.996 0.000976562l-121 -993h-175l106 864h-387l-101 -831l-44 -207c-7.33301 -24 -18.166 -42.5 -32.499 -55.5s-34.166 -19.5 -59.499 -19.5h-70l136 1110l-100 13c-14 3.33301 -24.667 8.16602 -32 14.499s-10.333 16.166 -9 29.499l8 75h149l15 124
c13.333 110.667 46.333 195.667 99 255s121.667 89 207 89c13.333 0 27 -0.666992 41 -2s26.333 -3.66602 37 -6.99902l-12 -94c-1.33301 -10.667 -6.66602 -17.334 -15.999 -20.001s-21.666 -4 -36.999 -4c-42.667 0 -76.5 -17.667 -101.5 -53
s-42.167 -89.666 -51.5 -162.999zM671.996 1348h528l-13 -117h-529z" />
    <glyph glyph-name="f_ibreve.liga" unicode="f&#x12d;" horiz-adv-x="1067" 
d="M405 993l566.996 0.000976562l-121 -993h-175l106 864h-387l-101 -831l-44 -207c-7.33301 -24 -18.166 -42.5 -32.499 -55.5s-34.166 -19.5 -59.499 -19.5h-70l136 1110l-100 13c-14 3.33301 -24.667 8.16602 -32 14.499s-10.333 16.166 -9 29.499l8 75h149l15 124
c13.333 110.667 46.333 195.667 99 255s121.667 89 207 89c13.333 0 27 -0.666992 41 -2s26.333 -3.66602 37 -6.99902l-12 -94c-1.33301 -10.667 -6.66602 -17.334 -15.999 -20.001s-21.666 -4 -36.999 -4c-42.667 0 -76.5 -17.667 -101.5 -53
s-42.167 -89.666 -51.5 -162.999zM915.996 1164c-46.667 0 -85.334 7.16699 -116.001 21.5s-54.5 33.666 -71.5 57.999s-28 52.833 -33 85.5s-5.5 67.334 -1.5 104.001h117c-2.66699 -22 -3 -42.5 -1 -61.5s7.5 -35.167 16.5 -48.5s21.833 -23.833 38.5 -31.5
s38 -11.5 64 -11.5s48.167 3.83301 66.5 11.5s33.5 18.167 45.5 31.5s21.167 29.5 27.5 48.5s10.833 39.5 13.5 61.5h116c-4 -36.667 -12.167 -71.334 -24.5 -104.001s-29.666 -61.167 -51.999 -85.5s-50.5 -43.666 -84.5 -57.999s-74.333 -21.5 -121 -21.5z" />
    <glyph glyph-name="f_iogonek.liga" unicode="f&#x12f;" horiz-adv-x="1067" 
d="M857 -211c8 0 13.335 -4.3291 16.002 -12.9961l20 -66c-21.333 -15.333 -46.833 -27.833 -76.5 -37.5s-60.5 -14.5 -92.5 -14.5c-52 0 -91.833 11.667 -119.5 35s-41.5 54.333 -41.5 93c0 42 14.167 81.167 42.5 117.5s65.166 68.5 110.499 96.5h-40l106 864h-386
l-102 -832l-47 -207c-7.33301 -24 -18.166 -42.5 -32.499 -55.5s-34.166 -19.5 -59.499 -19.5h-70l137 1112l-98 12c-14 3.33301 -24.667 8.16602 -32 14.499s-10.333 16.166 -9 29.499l8 75h147l7 56c7.33301 62 23.333 118.667 48 170s57.167 95.333 97.5 132
s88.666 65.167 144.999 85.5s120.166 30.5 191.499 30.5c12 0 24.5 -0.5 37.5 -1.5s26 -2.33301 39 -4s25.333 -3.66699 37 -6s21.834 -5.16602 30.501 -8.49902l-18 -90c-1.33301 -6.66699 -4.5 -11.334 -9.5 -14.001s-11.5 -4.33398 -19.5 -5.00098
s-17.333 -0.666992 -28 0s-23 1 -37 1c-55.333 0 -103.333 -6 -144 -18s-75 -30 -103 -54s-50.167 -54.333 -66.5 -91s-27.5 -80 -33.5 -130l-7 -53h567l-121 -993h-22c-14 -8 -28.5 -17.5 -43.5 -28.5s-28.5 -23.5 -40.5 -37.5s-22 -29.333 -30 -46
s-12 -34.334 -12 -53.001c0 -21.333 6.33301 -38.333 19 -51s29.667 -19 51 -19c13.333 0 24.666 1.16699 33.999 3.5s17.166 5 23.499 8s11.5 5.83301 15.5 8.5s7.66699 4 11 4z" />
    <glyph glyph-name="f_dotlessi.liga" unicode="f&#x131;" horiz-adv-x="1067" 
d="M405 993l566.996 0.000976562l-121 -993h-175l106 864h-387l-101 -831l-44 -207c-7.33301 -24 -18.166 -42.5 -32.499 -55.5s-34.166 -19.5 -59.499 -19.5h-70l136 1110l-100 13c-14 3.33301 -24.667 8.16602 -32 14.499s-10.333 16.166 -9 29.499l8 75h149l15 124
c13.333 110.667 46.333 195.667 99 255s121.667 89 207 89c13.333 0 27 -0.666992 41 -2s26.333 -3.66602 37 -6.99902l-12 -94c-1.33301 -10.667 -6.66602 -17.334 -15.999 -20.001s-21.666 -4 -36.999 -4c-42.667 0 -76.5 -17.667 -101.5 -53
s-42.167 -89.666 -51.5 -162.999z" />
    <glyph glyph-name="f_f_igrave.liga" unicode="ff&#xec;" horiz-adv-x="1648" 
d="M1537 868l-106.005 -867.999h-172l106 868h-388l-102 -835l-44 -207c-7.33301 -24 -18.166 -42.5 -32.499 -55.5s-34.166 -19.5 -59.499 -19.5h-70l136 1117h-408l-102 -835l-46 -207c-7.33301 -24 -18.166 -42.5 -32.499 -55.5s-34.166 -19.5 -59.499 -19.5h-70
l136 1115l-99 13c-13.333 2 -23.833 6.5 -31.5 13.5s-10.834 17.167 -9.50098 30.5l9 70h147l10 83c7.33301 58 21.666 109.5 42.999 154.5s48.166 83 80.499 114s69.5 54.5 111.5 70.5s87 24 135 24c40.667 0 78.334 -6.66699 113.001 -20l-17 -93
c-2 -6.66699 -5.33301 -11.334 -10 -14.001s-10.667 -4.33398 -18 -5.00098s-15.833 -0.833984 -25.5 -0.500977s-20.167 0.5 -31.5 0.5c-28 0 -53.833 -3.66699 -77.5 -11s-44.667 -19.666 -63 -36.999s-33.666 -40.5 -45.999 -69.5s-21.166 -65.167 -26.499 -108.5
l-12 -88h416l15 124c13.333 110.667 46.333 195.667 99 255s121.334 89 206.001 89c14 0 28 -0.666992 42 -2s26 -3.66602 36 -6.99902l-11 -94c-1.33301 -10.667 -6.66602 -17.334 -15.999 -20.001s-22 -4 -38 -4c-42.667 0 -76.334 -17.667 -101.001 -53
s-41.667 -89.666 -51 -162.999l-16 -125h567l-15 -125h-1zM1407 1449c20 0 34.668 -3.5 44.001 -10.5s17.333 -18.167 24 -33.5l109 -242h-93c-12.667 0 -22.834 2.16699 -30.501 6.5s-15.167 11.5 -22.5 21.5l-186 258h155z" />
    <glyph glyph-name="f_f_icircumflex.liga" unicode="ff&#xee;" horiz-adv-x="1648" 
d="M1537 868l-106.005 -867.999h-172l106 868h-388l-102 -835l-44 -207c-7.33301 -24 -18.166 -42.5 -32.499 -55.5s-34.166 -19.5 -59.499 -19.5h-70l136 1117h-408l-102 -835l-46 -207c-7.33301 -24 -18.166 -42.5 -32.499 -55.5s-34.166 -19.5 -59.499 -19.5h-70
l136 1115l-99 13c-13.333 2 -23.833 6.5 -31.5 13.5s-10.834 17.167 -9.50098 30.5l9 70h147l10 83c7.33301 58 21.666 109.5 42.999 154.5s48.166 83 80.499 114s69.5 54.5 111.5 70.5s87 24 135 24c40.667 0 78.334 -6.66699 113.001 -20l-17 -93
c-2 -6.66699 -5.33301 -11.334 -10 -14.001s-10.667 -4.33398 -18 -5.00098s-15.833 -0.833984 -25.5 -0.500977s-20.167 0.5 -31.5 0.5c-28 0 -53.833 -3.66699 -77.5 -11s-44.667 -19.666 -63 -36.999s-33.666 -40.5 -45.999 -69.5s-21.166 -65.167 -26.499 -108.5
l-12 -88h416l15 124c13.333 110.667 46.333 195.667 99 255s121.334 89 206.001 89c14 0 28 -0.666992 42 -2s26 -3.66602 36 -6.99902l-11 -94c-1.33301 -10.667 -6.66602 -17.334 -15.999 -20.001s-22 -4 -38 -4c-42.667 0 -76.334 -17.667 -101.001 -53
s-41.667 -89.666 -51 -162.999l-16 -125h567l-15 -125h-1zM1778 1169h-110c-6.66699 0 -13.167 1.33301 -19.5 4s-12.5 7.66699 -18.5 15l-99 132c-2 3.33301 -4.16699 6.5 -6.5 9.5s-4.5 6.16699 -6.5 9.5l-17 -19l-130 -132c-12.667 -12.667 -26.667 -19 -42 -19h-114
l235 264h152z" />
    <glyph glyph-name="f_f_itilde.liga" unicode="ff&#x129;" horiz-adv-x="1648" 
d="M1537 868l-106.005 -867.999h-172l106 868h-388l-102 -835l-44 -207c-7.33301 -24 -18.166 -42.5 -32.499 -55.5s-34.166 -19.5 -59.499 -19.5h-70l136 1117h-408l-102 -835l-46 -207c-7.33301 -24 -18.166 -42.5 -32.499 -55.5s-34.166 -19.5 -59.499 -19.5h-70
l136 1115l-99 13c-13.333 2 -23.833 6.5 -31.5 13.5s-10.834 17.167 -9.50098 30.5l9 70h147l10 83c7.33301 58 21.666 109.5 42.999 154.5s48.166 83 80.499 114s69.5 54.5 111.5 70.5s87 24 135 24c40.667 0 78.334 -6.66699 113.001 -20l-17 -93
c-2 -6.66699 -5.33301 -11.334 -10 -14.001s-10.667 -4.33398 -18 -5.00098s-15.833 -0.833984 -25.5 -0.500977s-20.167 0.5 -31.5 0.5c-28 0 -53.833 -3.66699 -77.5 -11s-44.667 -19.666 -63 -36.999s-33.666 -40.5 -45.999 -69.5s-21.166 -65.167 -26.499 -108.5
l-12 -88h416l15 124c13.333 110.667 46.333 195.667 99 255s121.334 89 206.001 89c14 0 28 -0.666992 42 -2s26 -3.66602 36 -6.99902l-11 -94c-1.33301 -10.667 -6.66602 -17.334 -15.999 -20.001s-22 -4 -38 -4c-42.667 0 -76.334 -17.667 -101.001 -53
s-41.667 -89.666 -51 -162.999l-16 -125h567l-15 -125h-1zM1618 1325c44.667 0 71.002 28.666 79.002 85.999h100c-3.33301 -31.333 -10.333 -60.166 -21 -86.499s-24.334 -48.833 -41.001 -67.5s-35.5 -33.167 -56.5 -43.5s-43.833 -15.5 -68.5 -15.5
c-21.333 0 -40.833 4.83301 -58.5 14.5s-34.167 20.167 -49.5 31.5l-43.5 31.5c-13.667 9.66699 -27.5 14.5 -41.5 14.5c-44.667 0 -70.667 -29.333 -78 -88h-102c3.33301 32 10.5 61.167 21.5 87.5s24.833 49 41.5 68s35.667 33.667 57 44s44 15.5 68 15.5
c22 0 41.667 -4.83301 59 -14.5s33.666 -20.167 48.999 -31.5l43.5 -31.5c13.667 -9.66699 27.5 -14.5 41.5 -14.5z" />
    <glyph glyph-name="f_f_idieresis.liga" unicode="ff&#xef;" horiz-adv-x="1647" 
d="M1491 1289c0 -14 -2.83301 -27 -8.5 -39s-13.167 -22.5 -22.5 -31.5s-20.333 -16.167 -33 -21.5s-26 -8 -40 -8s-27.167 2.66699 -39.5 8s-23.166 12.5 -32.499 21.5s-16.666 19.5 -21.999 31.5s-8 25 -8 39c0 14.667 2.66699 28.334 8 41.001s12.666 23.667 21.999 33
s20.166 16.833 32.499 22.5s25.5 8.5 39.5 8.5s27.333 -2.83301 40 -8.5s23.667 -13.167 33 -22.5s16.833 -20.333 22.5 -33s8.5 -26.334 8.5 -41.001zM1784 1289c0 -14 -2.83301 -27 -8.5 -39s-13.167 -22.5 -22.5 -31.5s-20.333 -16.167 -33 -21.5s-26 -8 -40 -8
s-27.167 2.66699 -39.5 8s-23.166 12.5 -32.499 21.5s-16.666 19.5 -21.999 31.5s-8 25 -8 39c0 14.667 2.66699 28.334 8 41.001s12.666 23.667 21.999 33s20.166 16.833 32.499 22.5s25.5 8.5 39.5 8.5s27.333 -2.83301 40 -8.5s23.667 -13.167 33 -22.5
s16.833 -20.333 22.5 -33s8.5 -26.334 8.5 -41.001zM1537 868l-106.005 -867.999h-172l106 868h-388l-102 -835l-44 -207c-7.33301 -24 -18.166 -42.5 -32.499 -55.5s-34.166 -19.5 -59.499 -19.5h-70l136 1117h-408l-102 -835l-46 -207
c-7.33301 -24 -18.166 -42.5 -32.499 -55.5s-34.166 -19.5 -59.499 -19.5h-70l136 1115l-99 13c-13.333 2 -23.833 6.5 -31.5 13.5s-10.834 17.167 -9.50098 30.5l9 70h147l10 83c7.33301 58 21.666 109.5 42.999 154.5s48.166 83 80.499 114s69.5 54.5 111.5 70.5
s87 24 135 24c40.667 0 78.334 -6.66699 113.001 -20l-17 -93c-2 -6.66699 -5.33301 -11.334 -10 -14.001s-10.667 -4.33398 -18 -5.00098s-15.833 -0.833984 -25.5 -0.500977s-20.167 0.5 -31.5 0.5c-28 0 -53.833 -3.66699 -77.5 -11s-44.667 -19.666 -63 -36.999
s-33.666 -40.5 -45.999 -69.5s-21.166 -65.167 -26.499 -108.5l-12 -88h416l15 124c13.333 110.667 46.333 195.667 99 255s121.334 89 206.001 89c14 0 28 -0.666992 42 -2s26 -3.66602 36 -6.99902l-11 -94c-1.33301 -10.667 -6.66602 -17.334 -15.999 -20.001
s-22 -4 -38 -4c-42.667 0 -76.334 -17.667 -101.001 -53s-41.667 -89.666 -51 -162.999l-16 -125h567l-15 -125h-1z" />
    <glyph glyph-name="f_f_imacron.liga" unicode="ff&#x12b;" horiz-adv-x="1648" 
d="M1537 868l-106.005 -867.999h-172l106 868h-388l-102 -835l-44 -207c-7.33301 -24 -18.166 -42.5 -32.499 -55.5s-34.166 -19.5 -59.499 -19.5h-70l136 1117h-408l-102 -835l-46 -207c-7.33301 -24 -18.166 -42.5 -32.499 -55.5s-34.166 -19.5 -59.499 -19.5h-70
l136 1115l-99 13c-13.333 2 -23.833 6.5 -31.5 13.5s-10.834 17.167 -9.50098 30.5l9 70h147l10 83c7.33301 58 21.666 109.5 42.999 154.5s48.166 83 80.499 114s69.5 54.5 111.5 70.5s87 24 135 24c40.667 0 78.334 -6.66699 113.001 -20l-17 -93
c-2 -6.66699 -5.33301 -11.334 -10 -14.001s-10.667 -4.33398 -18 -5.00098s-15.833 -0.833984 -25.5 -0.500977s-20.167 0.5 -31.5 0.5c-28 0 -53.833 -3.66699 -77.5 -11s-44.667 -19.666 -63 -36.999s-33.666 -40.5 -45.999 -69.5s-21.166 -65.167 -26.499 -108.5
l-12 -88h416l15 124c13.333 110.667 46.333 195.667 99 255s121.334 89 206.001 89c14 0 28 -0.666992 42 -2s26 -3.66602 36 -6.99902l-11 -94c-1.33301 -10.667 -6.66602 -17.334 -15.999 -20.001s-22 -4 -38 -4c-42.667 0 -76.334 -17.667 -101.001 -53
s-41.667 -89.666 -51 -162.999l-16 -125h567l-15 -125h-1zM1243 1348h528l-13 -117h-529z" />
    <glyph glyph-name="f_f_ibreve.liga" unicode="ff&#x12d;" horiz-adv-x="1648" 
d="M1537 868l-106.005 -867.999h-172l106 868h-388l-102 -835l-44 -207c-7.33301 -24 -18.166 -42.5 -32.499 -55.5s-34.166 -19.5 -59.499 -19.5h-70l136 1117h-408l-102 -835l-46 -207c-7.33301 -24 -18.166 -42.5 -32.499 -55.5s-34.166 -19.5 -59.499 -19.5h-70
l136 1115l-99 13c-13.333 2 -23.833 6.5 -31.5 13.5s-10.834 17.167 -9.50098 30.5l9 70h147l10 83c7.33301 58 21.666 109.5 42.999 154.5s48.166 83 80.499 114s69.5 54.5 111.5 70.5s87 24 135 24c40.667 0 78.334 -6.66699 113.001 -20l-17 -93
c-2 -6.66699 -5.33301 -11.334 -10 -14.001s-10.667 -4.33398 -18 -5.00098s-15.833 -0.833984 -25.5 -0.500977s-20.167 0.5 -31.5 0.5c-28 0 -53.833 -3.66699 -77.5 -11s-44.667 -19.666 -63 -36.999s-33.666 -40.5 -45.999 -69.5s-21.166 -65.167 -26.499 -108.5
l-12 -88h416l15 124c13.333 110.667 46.333 195.667 99 255s121.334 89 206.001 89c14 0 28 -0.666992 42 -2s26 -3.66602 36 -6.99902l-11 -94c-1.33301 -10.667 -6.66602 -17.334 -15.999 -20.001s-22 -4 -38 -4c-42.667 0 -76.334 -17.667 -101.001 -53
s-41.667 -89.666 -51 -162.999l-16 -125h567l-15 -125h-1zM1491 1164c-46.667 0 -85.334 7.16699 -116.001 21.5s-54.5 33.666 -71.5 57.999s-28 52.833 -33 85.5s-5.5 67.334 -1.5 104.001h117c-2.66699 -22 -3 -42.5 -1 -61.5s7.5 -35.167 16.5 -48.5
s21.833 -23.833 38.5 -31.5s38 -11.5 64 -11.5s48.167 3.83301 66.5 11.5s33.5 18.167 45.5 31.5s21.167 29.5 27.5 48.5s10.833 39.5 13.5 61.5h116c-4 -36.667 -12.167 -71.334 -24.5 -104.001s-29.666 -61.167 -51.999 -85.5s-50.5 -43.666 -84.5 -57.999
s-74.333 -21.5 -121 -21.5z" />
    <glyph glyph-name="f_f_iogonek.liga" unicode="ff&#x12f;" horiz-adv-x="1648" 
d="M1537 868l-105.998 -867.996h-24c-14 -8 -28.5 -17.5 -43.5 -28.5s-28.5 -23.5 -40.5 -37.5s-22 -29.333 -30 -46s-12 -34.334 -12 -53.001c0 -21.333 6.33301 -38.333 19 -51s29.667 -19 51 -19c13.333 0 24.666 1.16699 33.999 3.5s17.166 5 23.499 8
s11.5 5.83301 15.5 8.5s7.66699 4 11 4c8 0 13.333 -4.33301 16 -13l20 -66c-21.333 -15.333 -46.833 -27.833 -76.5 -37.5s-60.5 -14.5 -92.5 -14.5c-52 0 -91.833 11.667 -119.5 35s-41.5 54.333 -41.5 93c0 42 14.167 81.167 42.5 117.5s65.166 68.5 110.499 96.5h-35
l106 868h-388l-102 -836l-47 -207c-7.33301 -24 -18.166 -42.5 -32.499 -55.5s-34.166 -19.5 -59.499 -19.5h-70l137 1118h-406l-102 -835l-46 -207c-7.33301 -24 -18.166 -42.5 -32.499 -55.5s-34.166 -19.5 -59.499 -19.5h-70l136 1115l-99 13
c-13.333 2 -23.833 6.5 -31.5 13.5s-10.834 17.167 -9.50098 30.5l9 70h147l10 83c7.33301 58 21.666 109.5 42.999 154.5s48.166 83 80.499 114s69.5 54.5 111.5 70.5s87 24 135 24c40.667 0 78.334 -6.66699 113.001 -20l-17 -93
c-2 -6.66699 -5.33301 -11.334 -10 -14.001s-10.667 -4.33398 -18 -5.00098s-15.833 -0.833984 -25.5 -0.500977s-20.167 0.5 -31.5 0.5c-28 0 -53.833 -3.66699 -77.5 -11s-44.667 -19.666 -63 -36.999s-33.666 -40.5 -45.999 -69.5s-21.166 -65.167 -26.499 -108.5
l-12 -88h414l7 56c7.33301 62 23.333 118.667 48 170s57.167 95.333 97.5 132s88.666 65.167 144.999 85.5s120.166 30.5 191.499 30.5c11.333 0 23.666 -0.5 36.999 -1.5s26.5 -2.33301 39.5 -4s25.333 -3.66699 37 -6s21.5 -5.16602 29.5 -8.49902l-17 -90
c-1.33301 -6.66699 -4.5 -11.334 -9.5 -14.001s-11.5 -4.33398 -19.5 -5.00098s-17.333 -0.666992 -28 0s-23 1 -37 1c-110 0 -192.333 -24 -247 -72s-88 -121.667 -100 -221l-7 -53h567l-15 -125h-1z" />
    <glyph glyph-name="f_f_dotlessi.liga" unicode="ff&#x131;" horiz-adv-x="1648" 
d="M1537 868l-106.005 -867.999h-172l106 868h-388l-102 -835l-44 -207c-7.33301 -24 -18.166 -42.5 -32.499 -55.5s-34.166 -19.5 -59.499 -19.5h-70l136 1117h-408l-102 -835l-46 -207c-7.33301 -24 -18.166 -42.5 -32.499 -55.5s-34.166 -19.5 -59.499 -19.5h-70
l136 1115l-99 13c-13.333 2 -23.833 6.5 -31.5 13.5s-10.834 17.167 -9.50098 30.5l9 70h147l10 83c7.33301 58 21.666 109.5 42.999 154.5s48.166 83 80.499 114s69.5 54.5 111.5 70.5s87 24 135 24c40.667 0 78.334 -6.66699 113.001 -20l-17 -93
c-2 -6.66699 -5.33301 -11.334 -10 -14.001s-10.667 -4.33398 -18 -5.00098s-15.833 -0.833984 -25.5 -0.500977s-20.167 0.5 -31.5 0.5c-28 0 -53.833 -3.66699 -77.5 -11s-44.667 -19.666 -63 -36.999s-33.666 -40.5 -45.999 -69.5s-21.166 -65.167 -26.499 -108.5
l-12 -88h416l15 124c13.333 110.667 46.333 195.667 99 255s121.334 89 206.001 89c14 0 28 -0.666992 42 -2s26 -3.66602 36 -6.99902l-11 -94c-1.33301 -10.667 -6.66602 -17.334 -15.999 -20.001s-22 -4 -38 -4c-42.667 0 -76.334 -17.667 -101.001 -53
s-41.667 -89.666 -51 -162.999l-16 -125h567l-15 -125h-1z" />
    <glyph glyph-name="f_j.liga" unicode="fj" horiz-adv-x="1067" 
d="M971 993l-129.001 -1068c-5.33301 -40.667 -15.5 -78.5 -30.5 -113.5s-35.167 -65.5 -60.5 -91.5s-55.5 -46.5 -90.5 -61.5s-74.833 -22.5 -119.5 -22.5c-23.333 0 -43.333 1.66699 -60 5s-33 8.33301 -49 15l18 96c2 6 4.66699 10.5 8 13.5s7.5 4.83301 12.5 5.5
s11.333 0.833984 19 0.500977s17.167 -0.5 28.5 -0.5c46.667 0 81.334 12.333 104.001 37s37.667 63.667 45 117l115 943h-384l-103 -836l-47 -207c-7.33301 -24 -18.166 -42.5 -32.499 -55.5s-34.166 -19.5 -59.499 -19.5h-70l137 1117l-99 12
c-13.333 2 -23.833 6.5 -31.5 13.5s-10.834 17.167 -9.50098 30.5l9 70h147l7 56c7.33301 62 23.333 118.667 48 170s57.167 95.333 97.5 132s88.666 65.167 144.999 85.5s120.166 30.5 191.499 30.5c12 0 24.5 -0.5 37.5 -1.5s26 -2.33301 39 -4s25.333 -3.66699 37 -6
s21.834 -5.16602 30.501 -8.49902l-18 -90c-1.33301 -6.66699 -4.5 -11.334 -9.5 -14.001s-11.5 -4.33398 -19.5 -5.00098s-17.333 -0.666992 -28 0s-23 1 -37 1c-55.333 0 -103.333 -6 -144 -18s-75 -30 -103 -54s-50.167 -54.333 -66.5 -91s-27.5 -80 -33.5 -130l-7 -53
h565z" />
    <glyph glyph-name="f_f_j.liga" unicode="ffj" horiz-adv-x="1649" 
d="M405 993l413.996 0.00195312l7 56c7.33301 62 23.333 118.667 48 170s57.167 95.333 97.5 132s88.666 65.167 144.999 85.5s120.166 30.5 191.499 30.5c11.333 0 23.666 -0.5 36.999 -1.5s26.5 -2.33301 39.5 -4s25.333 -3.66699 37 -6s21.5 -5.16602 29.5 -8.49902
l-17 -90c-1.33301 -6.66699 -4.5 -11.334 -9.5 -14.001s-11.5 -4.33398 -19.5 -5.00098s-17.333 -0.666992 -28 0s-23 1 -37 1c-110 0 -192.333 -24 -247 -72s-88 -121.667 -100 -221l-7 -53h567l-15 -125l-114 -944c-5.33301 -40 -15.5 -77.667 -30.5 -113
s-35.167 -66 -60.5 -92s-55.666 -46.5 -90.999 -61.5s-75.333 -22.5 -120 -22.5c-23.333 0 -43.166 1.66699 -59.499 5s-32.5 8.33301 -48.5 15l18 96c2 6 4.66699 10.5 8 13.5s7.5 4.83301 12.5 5.5s11.333 0.833984 19 0.500977s17.167 -0.5 28.5 -0.5
c46.667 0 81.334 12.333 104.001 37s37.667 63.667 45 117l115 944h-387l-102 -836l-47 -207c-7.33301 -24 -18.166 -42.5 -32.499 -55.5s-34.166 -19.5 -59.499 -19.5h-70l137 1118h-406l-102 -835l-46 -207c-7.33301 -24 -18.166 -42.5 -32.499 -55.5
s-34.166 -19.5 -59.499 -19.5h-70l136 1115l-99 13c-13.333 2 -23.833 6.5 -31.5 13.5s-10.834 17.167 -9.50098 30.5l9 70h147l10 83c7.33301 58 21.666 109.5 42.999 154.5s48.166 83 80.499 114s69.5 54.5 111.5 70.5s87 24 135 24c40.667 0 78.334 -6.66699 113.001 -20
l-17 -93c-2 -6.66699 -5.33301 -11.334 -10 -14.001s-10.667 -4.33398 -18 -5.00098s-15.833 -0.833984 -25.5 -0.500977s-20.167 0.5 -31.5 0.5c-28 0 -53.833 -3.66699 -77.5 -11s-44.667 -19.666 -63 -36.999s-33.666 -40.5 -45.999 -69.5
s-21.166 -65.167 -26.499 -108.5z" />
    <glyph glyph-name="f_k.liga" unicode="fk" horiz-adv-x="1595" 
d="M397 865l-103.003 -832.997l-47 -207c-7.33301 -24 -18.166 -42.5 -32.499 -55.5s-34.166 -19.5 -59.499 -19.5h-70l138 1112l-99 12c-14 3.33301 -24.667 8.16602 -32 14.499s-10.333 16.166 -9 29.499l9 75h147l11 88c6.66699 56.667 21.334 110 44.001 160
s52.667 93.667 90 131s81.833 66.833 133.5 88.5s110.167 32.5 175.5 32.5c34 0 67.5 -1 100.5 -3s64.5 -4.16699 94.5 -6.5l85 -6.5c26.667 -2 51.334 -3.33301 74.001 -4h15l-106 -867h30c14 0 25.333 1.83301 34 5.5s18 11.167 28 22.5l336 343
c9.33301 11.333 19.333 20.166 30 26.499s23.667 9.5 39 9.5h158l-391 -397c-20 -23.333 -40.333 -41 -61 -53c10.667 -8 19.834 -17.167 27.501 -27.5s14.834 -22.166 21.501 -35.499l304 -500h-153c-14.667 0 -26.834 2.5 -36.501 7.5s-17.5 14.167 -23.5 27.5l-258 415
c-8 14 -16.333 23.167 -25 27.5s-22.334 6.5 -41.001 6.5h-34l-59 -484h-176l166 1354c-28 4 -56.167 8.5 -84.5 13.5s-56.166 7.5 -83.499 7.5c-40 0 -76.333 -6.83301 -109 -20.5s-61.334 -33.334 -86.001 -59.001s-44.834 -56.667 -60.501 -93
s-26.167 -76.833 -31.5 -121.5l-11 -88h247l-15 -128h-241z" />
    <glyph glyph-name="f_f_k.liga" unicode="ffk" horiz-adv-x="2179" 
d="M406 992l413.995 0.00195312l11 89c6.66699 56.667 21.334 110 44.001 160s52.834 93.667 90.501 131s82.167 66.833 133.5 88.5s109.666 32.5 174.999 32.5c36 0 71.167 -1 105.5 -3s67.166 -4.33301 98.499 -7s60.833 -5 88.5 -7s52.834 -3 75.501 -3h3l-106 -867h30
c14 0 25.333 1.83301 34 5.5s18 11.167 28 22.5l336 343c9.33301 11.333 19.333 20.166 30 26.499s23.667 9.5 39 9.5h158l-391 -397c-20 -23.333 -40.333 -41 -61 -53c10.667 -8 19.834 -17.167 27.501 -27.5s14.834 -22.166 21.501 -35.499l304 -500h-153
c-14.667 0 -26.834 2.5 -36.501 7.5s-17.5 14.167 -23.5 27.5l-258 415c-8 14 -16.333 23.167 -25 27.5s-22.334 6.5 -41.001 6.5h-34l-59 -484h-176l166 1354c-28 4 -56.5 8.5 -85.5 13.5s-57.167 7.5 -84.5 7.5c-39.333 0 -75.5 -6.83301 -108.5 -20.5
s-61.833 -33.334 -86.5 -59.001s-44.834 -56.667 -60.501 -93s-25.834 -76.833 -30.501 -121.5l-11 -89h265l-16 -126h-259l-103 -834l-47 -207c-7.33301 -24 -18.166 -42.5 -32.499 -55.5s-34.166 -19.5 -59.499 -19.5h-69l137 1116h-407l-101 -833l-46 -207
c-7.33301 -24 -18.166 -42.5 -32.499 -55.5s-34.166 -19.5 -59.499 -19.5h-70l136 1113l-101 13c-13.333 2.66699 -23.666 7.33398 -30.999 14.001s-10.333 16.667 -9 30l9 71h147l11 84c7.33301 58 21.666 109.5 42.999 154.5s48.166 83 80.499 114s69.5 54.5 111.5 70.5
s87 24 135 24c40.667 0 78.334 -6.66699 113.001 -20l-17 -93c-2 -6.66699 -5.33301 -11.334 -10 -14.001s-10.667 -4.33398 -18 -5.00098s-15.833 -0.833984 -25.5 -0.500977s-20.167 0.5 -31.5 0.5c-28 0 -53.833 -3.66699 -77.5 -11s-44.667 -19.666 -63 -36.999
s-33.666 -40.5 -45.999 -69.5s-21.166 -65.167 -26.499 -108.5z" />
    <glyph glyph-name="f_t.liga" unicode="ft" horiz-adv-x="1309" 
d="M406 993l433 0.00292969l76 315c3.33301 10 8.5 18.167 15.5 24.5s15.833 9.5 26.5 9.5h94l-43 -349h266l-14 -125h-268l-61 -502l-8 -66c-2 -16.667 -3.5 -30 -4.5 -40s-1.66699 -17 -2 -21s-0.5 -7 -0.5 -9c0 -34 7.83301 -59.167 23.5 -75.5s37.167 -24.5 64.5 -24.5
c17.333 0 32.666 2.5 45.999 7.5s24.833 10.5 34.5 16.5s17.834 11.5 24.501 16.5s12.667 7.5 18 7.5c10 0 17.333 -5.66699 22 -17l37 -85c-32 -28.667 -68.833 -51.167 -110.5 -67.5s-83.5 -24.5 -125.5 -24.5c-64.667 0 -115.667 17.667 -153 53
s-56.666 86.666 -57.999 153.999c0 4 0.166992 9.16699 0.5 15.5s1 15.5 2 27.5s2.5 27.667 4.5 47s5 44.666 9 75.999l63 511h-420l-102 -835l-47 -207c-7.33301 -24 -18.166 -42.5 -32.499 -55.5s-34.166 -19.5 -59.499 -19.5h-70l135 1116l-98 12
c-13.333 2 -23.833 6.5 -31.5 13.5s-10.834 17.167 -9.50098 30.5l9 70h146l12 98c7.33301 58 21.833 109.5 43.5 154.5s49 83 82 114s70.667 54.5 113 70.5s88.166 24 137.499 24c40.667 0 78.334 -6.66699 113.001 -20l-17 -92c-1.33301 -6.66699 -4.33301 -11.5 -9 -14.5
s-10.834 -4.83301 -18.501 -5.5s-16.334 -0.833984 -26.001 -0.500977s-20.167 0.5 -31.5 0.5c-28.667 0 -55.167 -4.16699 -79.5 -12.5s-45.833 -21.833 -64.5 -40.5s-34.5 -43 -47.5 -73s-22.167 -66.667 -27.5 -110z" />
    <glyph glyph-name="f_f_t.liga" unicode="fft" horiz-adv-x="1890" 
d="M985 992l435.996 0.00390625l76 316c3.33301 10 8.5 18.167 15.5 24.5s15.833 9.5 26.5 9.5h94l-44 -350h268l-16 -126h-267l-62 -500l-8 -66c-2 -16.667 -3.5 -30 -4.5 -40s-1.66699 -17 -2 -21s-0.5 -7 -0.5 -9c0 -34 8 -59.167 24 -75.5s37.667 -24.5 65 -24.5
c17.333 0 32.666 2.5 45.999 7.5s24.833 10.5 34.5 16.5s17.834 11.5 24.501 16.5s12.667 7.5 18 7.5s9.5 -1.33301 12.5 -4s6.16699 -7 9.5 -13l37 -85c-32 -28.667 -68.833 -51.167 -110.5 -67.5s-83.5 -24.5 -125.5 -24.5c-64.667 0 -115.667 17.667 -153 53
s-56.666 86.666 -57.999 153.999c0 4 0.166992 9.16699 0.5 15.5s1 15.5 2 27.5s2.5 27.667 4.5 47s5 44.666 9 75.999l63 509h-424l-101 -833l-47 -207c-7.33301 -24 -18.166 -42.5 -32.499 -55.5s-34.166 -19.5 -59.499 -19.5h-70l134 1115h-404l-101 -833l-47 -207
c-7.33301 -24 -18.166 -42.5 -32.499 -55.5s-34.166 -19.5 -59.499 -19.5h-70l136 1114l-98 12c-13.333 2.66699 -23.833 7.33398 -31.5 14.001s-10.834 16.667 -9.50098 30l9 71h145l11 84c7.33301 58 21.666 109.5 42.999 154.5s48.166 83 80.499 114
s69.5 54.5 111.5 70.5s87 24 135 24c41.333 0 79 -6.66699 113 -20l-17 -93c-2 -6.66699 -5.33301 -11.334 -10 -14.001s-10.667 -4.33398 -18 -5.00098s-15.833 -0.833984 -25.5 -0.500977s-20.167 0.5 -31.5 0.5c-28 0 -53.667 -3.66699 -77 -11
s-44.166 -19.666 -62.499 -36.999s-33.666 -40.5 -45.999 -69.5s-21.166 -65.167 -26.499 -108.5l-12 -89h410l14 110c7.33301 58 21.833 109.5 43.5 154.5s49 83 82 114s70.667 54.5 113 70.5s88.166 24 137.499 24c40.667 0 78.334 -6.66699 113.001 -20l-17 -92
c-2 -6.66699 -5.33301 -11.334 -10 -14.001s-10.667 -4.5 -18 -5.5s-15.833 -1.33301 -25.5 -1s-20.167 0.5 -31.5 0.5c-28.667 0 -55 -4.16699 -79 -12.5s-45.333 -21.833 -64 -40.5s-34.334 -43 -47.001 -73s-21.667 -66.667 -27 -110z" />
    <glyph glyph-name="t_f.liga" unicode="tf" horiz-adv-x="1274" 
d="M1024 992l266.997 0.00195312l-15 -126h-261l-101 -834l-47 -207c-7.33301 -24 -18.166 -42.5 -32.499 -55.5s-34.166 -19.5 -59.499 -19.5h-70l136 1116h-449l-62 -500l-8 -66c-2 -16.667 -3.5 -30 -4.5 -40s-1.5 -17 -1.5 -21v-9c0 -34 7.83301 -59.167 23.5 -75.5
s37.167 -24.5 64.5 -24.5c17.333 0 32.666 2.5 45.999 7.5s24.833 10.5 34.5 16.5s17.834 11.5 24.501 16.5s12.667 7.5 18 7.5s9.5 -1.33301 12.5 -4s6.16699 -7 9.5 -13l37 -85c-32 -28.667 -68.833 -51.167 -110.5 -67.5s-83.5 -24.5 -125.5 -24.5
c-64.667 0 -115.667 17.667 -153 53s-56.666 86.666 -57.999 153.999c0 4 0.166992 9.16699 0.5 15.5s1 15.5 2 27.5s2.5 27.667 4.5 47s5 44.666 9 75.999l63 509h-110c-10 0 -18 3.33301 -24 10s-8.33301 16.334 -7 29.001l8 68l154 20l76 315
c3.33301 10 8.5 18.167 15.5 24.5s15.833 9.5 26.5 9.5h94l-44 -350h449l12 98c7.33301 58 21.833 109.5 43.5 154.5s49 83 82 114s70.667 54.5 113 70.5s88.166 24 137.499 24c40.667 0 78.334 -6.66699 113.001 -20l-17 -92c-1.33301 -6.66699 -4.5 -11.5 -9.5 -14.5
s-11.167 -4.83301 -18.5 -5.5s-15.833 -0.833984 -25.5 -0.500977s-20.167 0.5 -31.5 0.5c-28.667 0 -55.167 -4.16699 -79.5 -12.5s-46 -21.833 -65 -40.5s-34.833 -43 -47.5 -73s-21.667 -66.667 -27 -110z" />
    <glyph glyph-name="t_iogonek.liga" unicode="t&#x12f;" horiz-adv-x="1147" 
d="M1007 1459c16 0 31.334 -3.33008 46.001 -9.99707s27.667 -15.834 39 -27.501s20.5 -25.334 27.5 -41.001s10.5 -32.167 10.5 -49.5s-3.5 -33.5 -10.5 -48.5s-16.333 -28.333 -28 -40s-25 -20.834 -40 -27.501s-30.167 -10 -45.5 -10c-16 0 -31.167 3.33301 -45.5 10
s-27 15.834 -38 27.501s-19.833 25 -26.5 40s-10 31.167 -10 48.5s3.33301 33.666 10 48.999s15.667 28.833 27 40.5s24.166 21 38.499 28s29.5 10.5 45.5 10.5zM1052 992.003l-15.001 -125.999l-106 -866h-15c-14 -8 -28.5 -17.5 -43.5 -28.5s-28.667 -23.5 -41 -37.5
s-22.5 -29.5 -30.5 -46.5s-12 -35.167 -12 -54.5c0 -21.333 6.5 -38.5 19.5 -51.5s30.5 -19.5 52.5 -19.5c14 0 25.667 1.16699 35 3.5s17.333 5 24 8s11.834 5.83301 15.501 8.5s7.16699 4 10.5 4c9.33301 0 15 -4 17 -12l18 -64
c-20.667 -15.333 -45.834 -27.833 -75.501 -37.5s-60.167 -14.5 -91.5 -14.5c-50.667 0 -89.834 11.667 -117.501 35s-41.5 54.333 -41.5 93c0 42 14.333 81.333 43 118s65.334 68.667 110.001 96h-50l107 866h-473l-62 -500l-8 -66c-2 -16.667 -3.5 -30 -4.5 -40
s-1.5 -17 -1.5 -21v-9c0 -34 7.83301 -59.167 23.5 -75.5s37.167 -24.5 64.5 -24.5c17.333 0 32.666 2.5 45.999 7.5s24.833 10.5 34.5 16.5s17.834 11.5 24.501 16.5s12.667 7.5 18 7.5s9.5 -1.33301 12.5 -4s6.16699 -7 9.5 -13l37 -85
c-32 -28.667 -68.833 -51.167 -110.5 -67.5s-83.5 -24.5 -125.5 -24.5c-64.667 0 -115.667 17.667 -153 53s-56.666 86.666 -57.999 153.999c0 4 0.166992 9.16699 0.5 15.5s1 15.5 2 27.5s2.5 27.667 4.5 47s5 44.666 9 75.999l63 509h-110c-10 0 -18 3.33301 -24 10
s-8.33301 16.334 -7 29.001l8 68l154 20l76 315c3.33301 10 8.5 18.167 15.5 24.5s15.833 9.5 26.5 9.5h94l-43 -350h644z" />
    <glyph glyph-name="t_dotlessi.liga" unicode="t&#x131;" horiz-adv-x="1146" 
d="M1036 866l-106.001 -865.999h-173l107 866h-473l-62 -500l-8 -66c-2 -16.667 -3.5 -30 -4.5 -40s-1.66699 -17 -2 -21s-0.5 -7 -0.5 -9c0 -34 8 -59.167 24 -75.5s37.667 -24.5 65 -24.5c17.333 0 32.666 2.5 45.999 7.5s24.833 10.5 34.5 16.5s17.834 11.5 24.501 16.5
s12.667 7.5 18 7.5s9.5 -1.33301 12.5 -4s6.16699 -7 9.5 -13l37 -85c-32 -28.667 -68.833 -51.167 -110.5 -67.5s-83.5 -24.5 -125.5 -24.5c-64.667 0 -115.667 17.667 -153 53s-56.666 86.666 -57.999 153.999c0 4 0.166992 9.16699 0.5 15.5s1 15.5 2 27.5
s2.5 27.667 4.5 47s5 44.666 9 75.999l63 509h-110c-10 0 -18 3.33301 -24 10s-8.33301 16.334 -7 29.001l8 68l154 20l76 315c3.33301 10 8.5 18.167 15.5 24.5s15.833 9.5 26.5 9.5h94l-43 -350h644z" />
    <glyph glyph-name="t_t.liga" unicode="tt" horiz-adv-x="1307" 
d="M138 191c0 4 0.166016 9.16992 0.499023 15.5029s1 15.5 2 27.5s2.5 27.667 4.5 47s5 44.666 9 75.999l63 509h-110c-10 0 -18 3.33301 -24 10s-8.33301 16.334 -7 29.001l8 68l154 20l76 315c3.33301 10 8.5 18.167 15.5 24.5s15.833 9.5 26.5 9.5h94l-44 -350h431
l77 316c3.33301 10 8.5 18.167 15.5 24.5s15.833 9.5 26.5 9.5h93l-43 -350h265l-16 -126h-265l-61 -500l-8 -66c-2 -16.667 -3.5 -30 -4.5 -40s-1.66699 -17 -2 -21s-0.5 -7 -0.5 -9c0 -34 8 -59.167 24 -75.5s37.333 -24.5 64 -24.5c18 0 33.5 2.5 46.5 7.5
s24.5 10.5 34.5 16.5s18.333 11.5 25 16.5s12.334 7.5 17.001 7.5c6 0 10.5 -1.33301 13.5 -4s5.83301 -7 8.5 -13l38 -85c-32.667 -28.667 -69.834 -51.167 -111.501 -67.5s-83.5 -24.5 -125.5 -24.5c-64.667 0 -115.5 17.667 -152.5 53s-56.167 86.666 -57.5 153.999
c0 4 0.166992 9.16699 0.5 15.5s1 15.5 2 27.5s2.5 27.667 4.5 47s5 44.666 9 75.999l62 509h-425l-62 -500l-8 -66c-2 -16.667 -3.5 -30 -4.5 -40s-1.66699 -17 -2 -21s-0.5 -7 -0.5 -9c0 -34 8 -59.167 24 -75.5s37.667 -24.5 65 -24.5c17.333 0 32.666 2.5 45.999 7.5
s24.833 10.5 34.5 16.5s17.834 11.5 24.501 16.5s12.667 7.5 18 7.5s9.5 -1.33301 12.5 -4s6.16699 -7 9.5 -13l37 -85c-32 -28.667 -68.833 -51.167 -110.5 -67.5s-83.5 -24.5 -125.5 -24.5c-64.667 0 -115.667 17.667 -153 53s-56.666 86.666 -57.999 153.999z" />
    <glyph glyph-name="t_t_f.liga" unicode="ttf" horiz-adv-x="1873" 
d="M1467 1090c7.33301 58 21.8311 109.504 43.498 154.504s49 83 82 114s70.667 54.5 113 70.5s88.166 24 137.499 24c40.667 0 78.334 -6.66699 113.001 -20l-17 -92c-1.33301 -6.66699 -4.33301 -11.5 -9 -14.5s-10.834 -4.83301 -18.501 -5.5
s-16.334 -0.833984 -26.001 -0.500977s-20.167 0.5 -31.5 0.5c-28.667 0 -55.167 -4.16699 -79.5 -12.5s-46 -21.833 -65 -40.5s-34.833 -43 -47.5 -73s-21.667 -66.667 -27 -110l-11 -93h266l-15 -126h-260l-102 -834l-47 -207c-7.33301 -24 -18.166 -42.5 -32.499 -55.5
s-34.166 -19.5 -59.499 -19.5h-70l136 1116h-449l-61 -500l-8 -66c-2 -16.667 -3.5 -30 -4.5 -40s-1.66699 -17 -2 -21s-0.5 -7 -0.5 -9c0 -34 7.83301 -59.167 23.5 -75.5s37.167 -24.5 64.5 -24.5c17.333 0 32.666 2.5 45.999 7.5s24.833 10.5 34.5 16.5
s17.834 11.5 24.501 16.5s12.667 7.5 18 7.5c10 0 17.333 -5.66699 22 -17l37 -85c-32 -28.667 -68.833 -51.167 -110.5 -67.5s-83.5 -24.5 -125.5 -24.5c-64.667 0 -115.667 17.667 -153 53s-56.666 86.666 -57.999 153.999c0 4 0.166992 9.16699 0.5 15.5s1 15.5 2 27.5
s2.5 27.667 4.5 47s5 44.666 9 75.999l63 509h-425l-62 -500l-8 -66c-2 -16.667 -3.5 -30 -4.5 -40s-1.5 -17 -1.5 -21v-9c0 -34 7.83301 -59.167 23.5 -75.5s37.167 -24.5 64.5 -24.5c17.333 0 32.666 2.5 45.999 7.5s24.833 10.5 34.5 16.5s17.834 11.5 24.501 16.5
s12.667 7.5 18 7.5s9.5 -1.33301 12.5 -4s6.16699 -7 9.5 -13l37 -85c-32 -28.667 -68.833 -51.167 -110.5 -67.5s-83.5 -24.5 -125.5 -24.5c-64.667 0 -115.667 17.667 -153 53s-56.666 86.666 -57.999 153.999c0 4 0.166992 9.16699 0.5 15.5s1 15.5 2 27.5
s2.5 27.667 4.5 47s5 44.666 9 75.999l63 509h-110c-10 0 -18 3.33301 -24 10s-8.33301 16.334 -7 29.001l8 68l154 20l76 315c3.33301 10 8.5 18.167 15.5 24.5s15.833 9.5 26.5 9.5h94l-43 -350h430l76 316c3.33301 10 8.5 18.167 15.5 24.5s16.167 9.5 27.5 9.5h93
l-43 -350h448z" />
    <glyph glyph-name="t_t_iogonek.liga" unicode="tt&#x12f;" horiz-adv-x="1728" 
d="M1633 992l-15 -125.996l-107 -865l5 -1c-14 -8 -28.5 -17.5 -43.5 -28.5s-28.5 -23.5 -40.5 -37.5s-22 -29.333 -30 -46s-12 -34.334 -12 -53.001c0 -21.333 6.33301 -38.333 19 -51s29.667 -19 51 -19c13.333 0 24.666 1.16699 33.999 3.5s17.166 5 23.499 8
s11.5 5.83301 15.5 8.5s7.66699 4 11 4c8 0 13.333 -4.33301 16 -13l20 -66c-21.333 -15.333 -46.833 -27.833 -76.5 -37.5s-60.5 -14.5 -92.5 -14.5c-52 0 -91.833 11.667 -119.5 35s-41.5 54.333 -41.5 93c0 42 14.167 81.167 42.5 117.5s65.5 68.5 111.5 96.5h-65
l107 866h-455l-61 -500l-8 -66c-2 -16.667 -3.5 -30 -4.5 -40s-1.66699 -17 -2 -21s-0.5 -7 -0.5 -9c0 -34 7.83301 -59.167 23.5 -75.5s37.167 -24.5 64.5 -24.5c17.333 0 32.666 2.5 45.999 7.5s24.833 10.5 34.5 16.5s17.834 11.5 24.501 16.5s12.667 7.5 18 7.5
c10 0 17.333 -5.66699 22 -17l37 -85c-32 -28.667 -68.833 -51.167 -110.5 -67.5s-83.5 -24.5 -125.5 -24.5c-64.667 0 -115.667 17.667 -153 53s-56.666 86.666 -57.999 153.999c0 4 0.166992 9.16699 0.5 15.5s1 15.5 2 27.5s2.5 27.667 4.5 47s5 44.666 9 75.999l63 509
h-425l-62 -500l-8 -66c-2 -16.667 -3.5 -30 -4.5 -40s-1.5 -17 -1.5 -21v-9c0 -34 7.83301 -59.167 23.5 -75.5s37.167 -24.5 64.5 -24.5c17.333 0 32.666 2.5 45.999 7.5s24.833 10.5 34.5 16.5s17.834 11.5 24.501 16.5s12.667 7.5 18 7.5s9.5 -1.33301 12.5 -4
s6.16699 -7 9.5 -13l37 -85c-32 -28.667 -68.833 -51.167 -110.5 -67.5s-83.5 -24.5 -125.5 -24.5c-64.667 0 -115.667 17.667 -153 53s-56.666 86.666 -57.999 153.999c0 4 0.166992 9.16699 0.5 15.5s1 15.5 2 27.5s2.5 27.667 4.5 47s5 44.666 9 75.999l63 509h-110
c-10 0 -18 3.33301 -24 10s-8.33301 16.334 -7 29.001l8 68l154 20l76 315c3.33301 10 8.5 18.167 15.5 24.5s15.833 9.5 26.5 9.5h94l-43 -350h430l76 316c3.33301 10 8.5 18.167 15.5 24.5s16.167 9.5 27.5 9.5h93l-43 -350h626zM1588 1459
c16 0 31.5 -3.33008 46.5 -9.99707s28.167 -15.834 39.5 -27.501s20.5 -25.334 27.5 -41.001s10.5 -32.167 10.5 -49.5s-3.5 -33.5 -10.5 -48.5s-16.333 -28.333 -28 -40s-25 -20.834 -40 -27.501s-30.5 -10 -46.5 -10c-15.333 0 -30.333 3.33301 -45 10
s-27.5 15.834 -38.5 27.501s-19.833 25 -26.5 40s-10 31.167 -10 48.5s3.33301 33.666 10 48.999s15.667 28.833 27 40.5s24.333 21 39 28s29.667 10.5 45 10.5z" />
    <glyph glyph-name="t_t_dotlessi.liga" unicode="tt&#x131;" horiz-adv-x="1727" 
d="M1510 0l-172.002 0.00292969l107 866h-455l-61 -500l-8 -66c-2 -16.667 -3.5 -30 -4.5 -40s-1.66699 -17 -2 -21s-0.5 -7 -0.5 -9c0 -34 7.83301 -59.167 23.5 -75.5s37.167 -24.5 64.5 -24.5c17.333 0 32.666 2.5 45.999 7.5s24.833 10.5 34.5 16.5
s17.834 11.5 24.501 16.5s12.667 7.5 18 7.5c10 0 17.333 -5.66699 22 -17l37 -85c-32 -28.667 -68.833 -51.167 -110.5 -67.5s-83.5 -24.5 -125.5 -24.5c-64.667 0 -115.667 17.667 -153 53s-56.666 86.666 -57.999 153.999c0 4 0.166992 9.16699 0.5 15.5s1 15.5 2 27.5
s2.5 27.667 4.5 47s5 44.666 9 75.999l63 509h-425l-62 -500l-8 -66c-2 -16.667 -3.5 -30 -4.5 -40s-1.66699 -17 -2 -21s-0.5 -7 -0.5 -9c0 -34 8 -59.167 24 -75.5s37.667 -24.5 65 -24.5c17.333 0 32.666 2.5 45.999 7.5s24.833 10.5 34.5 16.5s17.834 11.5 24.501 16.5
s12.667 7.5 18 7.5s9.5 -1.33301 12.5 -4s6.16699 -7 9.5 -13l37 -85c-32 -28.667 -68.833 -51.167 -110.5 -67.5s-83.5 -24.5 -125.5 -24.5c-64.667 0 -115.667 17.667 -153 53s-56.666 86.666 -57.999 153.999c0 4 0.166992 9.16699 0.5 15.5s1 15.5 2 27.5
s2.5 27.667 4.5 47s5 44.666 9 75.999l63 509h-110c-10 0 -18 3.33301 -24 10s-8.33301 16.334 -7 29.001l8 68l154 20l76 315c3.33301 10 8.5 18.167 15.5 24.5s15.833 9.5 26.5 9.5h94l-43 -350h430l76 316c3.33301 10 8.5 18.167 15.5 24.5s15.833 9.5 26.5 9.5h94
l-43 -350h626z" />
    <glyph glyph-name="f_uni01D0.liga" unicode="f&#x1d0;" horiz-adv-x="1065" 
d="M403 993l566.999 -0.00195312l-121 -993h-173l106 864h-390l-101 -831l-44 -207c-7.33301 -24 -18.166 -42.5 -32.499 -55.5s-34.166 -19.5 -59.499 -19.5h-70l136 1112l-97 12c-13.333 2.66699 -23.833 7.33398 -31.5 14.001s-10.834 16.667 -9.50098 30l9 74h145
l16 124c13.333 110.667 46.333 195.667 99 255s121.334 89 206.001 89c13.333 0 27 -0.666992 41 -2s26.333 -3.66602 37 -6.99902l-11 -94c-1.33301 -10.667 -6.83301 -17.334 -16.5 -20.001s-22.167 -4 -37.5 -4c-42.667 0 -76.334 -17.667 -101.001 -53
s-41.667 -89.666 -51 -162.999zM987.999 1169h-159.001l-158 262h119c8 0 15.333 -1.16699 22 -3.5s11.334 -5.83301 14.001 -10.5l83 -129l12 -25l20 25l115 129c3.33301 4.66699 8.83301 8.16699 16.5 10.5s15.5 3.5 23.5 3.5h115z" />
    <glyph glyph-name="f_uni0209.liga" unicode="f&#x209;" horiz-adv-x="1065" 
d="M404 993h413.002v-1h153l-121 -992h-173l106 864h-388l-101 -831l-44 -207c-7.33301 -24 -18.166 -42.5 -32.499 -55.5s-34.166 -19.5 -59.499 -19.5h-70l136 1111l-99 12c-14 3.33301 -24.667 8.16602 -32 14.499s-10.333 16.166 -9 29.499l8 75h148l15 124
c7.33301 62.667 20.666 115.834 39.999 159.501s43.5 79.167 72.5 106.5s62.5 47.166 100.5 59.499s80 18.5 126 18.5c20 0 37.167 -0.833008 51.5 -2.5s26.666 -4.66699 36.999 -9s19.166 -10.166 26.499 -17.499s14 -16.333 20 -27l135 -241h-82c-13.333 0 -24 2 -32 6
s-15.667 10.667 -23 20l-103 144c-35.333 0.666992 -64.666 -2.66602 -87.999 -9.99902s-42.833 -19.5 -58.5 -36.5s-27.834 -39.5 -36.501 -67.5s-15.334 -62 -20.001 -102zM939.002 1448c21.333 0 36.834 -3.5 46.501 -10.5s17.5 -17.833 23.5 -32.5l95 -241h-71
c-13.333 0 -24.333 1.83301 -33 5.5s-16.334 10.5 -23.001 20.5l-152 258h114z" />
    <glyph glyph-name="f_uni020B.liga" unicode="f&#x20b;" horiz-adv-x="1065" 
d="M403 993l566.999 -0.00195312l-121 -993h-173l106 864h-390l-101 -831l-44 -207c-7.33301 -24 -18.166 -42.5 -32.499 -55.5s-34.166 -19.5 -59.499 -19.5h-70l136 1112l-97 12c-13.333 2.66699 -23.833 7.33398 -31.5 14.001s-10.834 16.667 -9.50098 30l9 74h145
l16 124c13.333 110.667 46.333 195.667 99 255s121.334 89 206.001 89c13.333 0 27 -0.666992 41 -2s26.333 -3.66602 37 -6.99902l-11 -94c-1.33301 -10.667 -6.83301 -17.334 -16.5 -20.001s-22.167 -4 -37.5 -4c-42.667 0 -76.334 -17.667 -101.001 -53
s-41.667 -89.666 -51 -162.999zM941.999 1442c47.333 0 86.498 -7.16699 117.498 -21.5s55.167 -33.666 72.5 -57.999s28.5 -52.666 33.5 -84.999s5.16699 -66.5 0.5 -102.5h-121c2.66699 22 3 42.5 1 61.5s-7.33301 35.5 -16 49.5s-21.167 24.833 -37.5 32.5
s-37.166 11.5 -62.499 11.5s-47.166 -3.83301 -65.499 -11.5s-33.5 -18.5 -45.5 -32.5s-21.333 -30.5 -28 -49.5s-11.334 -39.5 -14.001 -61.5h-122c4.66699 36 13.334 70.167 26.001 102.5s30.5 60.666 53.5 84.999s51.5 43.666 85.5 57.999s74.667 21.5 122 21.5z" />
    <glyph glyph-name="f_uni1E2F.liga" unicode="f&#x1e2f;" horiz-adv-x="1067" 
d="M405 993l566.996 0.000976562l-121 -993h-175l106 864h-387l-101 -831l-44 -207c-7.33301 -24 -18.166 -42.5 -32.499 -55.5s-34.166 -19.5 -59.499 -19.5h-70l136 1110l-100 13c-14 3.33301 -24.667 8.16602 -32 14.499s-10.333 16.166 -9 29.499l8 75h149l15 124
c13.333 110.667 46.333 195.667 99 255s121.667 89 207 89c13.333 0 27 -0.666992 41 -2s26.333 -3.66602 37 -6.99902l-12 -94c-1.33301 -10.667 -6.66602 -17.334 -15.999 -20.001s-21.666 -4 -36.999 -4c-42.667 0 -76.5 -17.667 -101.5 -53
s-42.167 -89.666 -51.5 -162.999zM1253 1591l-229 -224c-9.33301 -10 -18.833 -16.833 -28.5 -20.5s-21.167 -5.5 -34.5 -5.5h-102l146 207c10 14.667 20.5 25.5 31.5 32.5s27.167 10.5 48.5 10.5h168zM864.996 1208c0 -13.333 -2.83301 -26 -8.5 -38
s-13.167 -22.5 -22.5 -31.5s-20 -16 -32 -21s-24.667 -7.5 -38 -7.5s-26.166 2.5 -38.499 7.5s-23 12 -32 21s-16.167 19.5 -21.5 31.5s-8 24.667 -8 38c0 14 2.66699 27.167 8 39.5s12.5 23.166 21.5 32.499s19.667 16.666 32 21.999s25.166 8 38.499 8s26 -2.66699 38 -8
s22.667 -12.666 32 -21.999s16.833 -20.166 22.5 -32.499s8.5 -25.5 8.5 -39.5zM1168 1208c0 -13.333 -2.66699 -26 -8 -38s-12.666 -22.5 -21.999 -31.5s-20 -16 -32 -21s-25 -7.5 -39 -7.5c-13.333 0 -26 2.5 -38 7.5s-22.5 12 -31.5 21s-16.167 19.5 -21.5 31.5
s-8 24.667 -8 38c0 14 2.66699 27.167 8 39.5s12.5 23.166 21.5 32.499s19.5 16.666 31.5 21.999s24.667 8 38 8c14 0 27 -2.66699 39 -8s22.667 -12.666 32 -21.999s16.666 -20.166 21.999 -32.499s8 -25.5 8 -39.5z" />
    <glyph glyph-name="f_f_uni01D0.liga" unicode="ff&#x1d0;" horiz-adv-x="1647" 
d="M985 993h567.995l-15 -127h-1l-106 -866h-172l105 866h-389l-102 -833l-43 -207c-7.33301 -24 -18.166 -42.5 -32.499 -55.5s-34.166 -19.5 -59.499 -19.5h-70l136 1115h-408l-101 -833l-46 -207c-7.33301 -24 -18.166 -42.5 -32.499 -55.5s-34.166 -19.5 -59.499 -19.5
h-70l136 1114l-99 12c-13.333 2.66699 -23.833 7.33398 -31.5 14.001s-10.834 16.667 -9.50098 30l9 72h147l10 83c7.33301 58 21.666 109.5 42.999 154.5s48.166 83 80.499 114s69.5 54.5 111.5 70.5s87 24 135 24c40.667 0 78.334 -6.66699 113.001 -20l-17 -93
c-2 -6.66699 -5.33301 -11.334 -10 -14.001s-10.667 -4.33398 -18 -5.00098s-15.833 -0.833984 -25.5 -0.500977s-20.167 0.5 -31.5 0.5c-28 0 -53.833 -3.66699 -77.5 -11s-44.667 -19.666 -63 -36.999s-33.666 -40.5 -45.999 -69.5s-21.166 -65.167 -26.499 -108.5
l-12 -88h415l15 124c13.333 110.667 46.333 195.667 99 255s121.334 89 206.001 89c14 0 28 -0.666992 42 -2s26 -3.66602 36 -6.99902l-11 -94c-1.33301 -10.667 -6.66602 -17.334 -15.999 -20.001s-22 -4 -38 -4c-42.667 0 -76.334 -17.667 -101.001 -53
s-41.667 -89.666 -51 -162.999zM1571 1169h-159.999l-158 262h120c7.33301 0 14.5 -1.16699 21.5 -3.5s11.5 -5.83301 13.5 -10.5l84 -129l12 -25l19 25l116 129c3.33301 4.66699 8.66602 8.16699 15.999 10.5s15 3.5 23 3.5h116z" />
    <glyph glyph-name="f_f_uni0209.liga" unicode="ff&#x209;" horiz-adv-x="1650" 
d="M408 993l414.997 -0.000976562l15 124c8 62.667 21.5 115.834 40.5 159.501s43 79.167 72 106.5s62.5 47.166 100.5 59.499s80 18.5 126 18.5c20 0 37.167 -0.833008 51.5 -2.5s26.666 -4.66699 36.999 -9s19.166 -10.166 26.499 -17.499s14 -16.333 20 -27l136 -241h-83
c-13.333 0 -24 2 -32 6s-15.667 10.667 -23 20l-102 144c-35.333 0.666992 -64.666 -2.66602 -87.999 -9.99902s-42.833 -19.5 -58.5 -36.5s-27.834 -39.5 -36.501 -67.5s-15.667 -62 -21 -102l-16 -125h566v-1h1l-122 -992h-172l105 866h-388l-101 -833l-44 -207
c-7.33301 -24 -18.166 -42.5 -32.499 -55.5s-34.166 -19.5 -59.499 -19.5h-70l136 1115h-408l-100 -833l-47 -207c-7.33301 -24 -18.166 -42.5 -32.499 -55.5s-34.166 -19.5 -59.499 -19.5h-70l136 1113l-104 13c-13.333 2.66699 -23.666 7.33398 -30.999 14.001
s-10.333 16.667 -9 30l9 72h151l10 83c7.33301 58 21.666 109.5 42.999 154.5s48.166 83 80.499 114s69.5 54.5 111.5 70.5s87 24 135 24c41.333 0 79 -6.66699 113 -20l-17 -93c-2 -6.66699 -5.33301 -11.334 -10 -14.001s-10.667 -4.33398 -18 -5.00098
s-15.833 -0.833984 -25.5 -0.500977s-20.167 0.5 -31.5 0.5c-28 0 -53.833 -3.66699 -77.5 -11s-44.667 -19.666 -63 -36.999s-33.666 -40.5 -45.999 -69.5s-21.166 -65.167 -26.499 -108.5zM1524 1448c20.667 0 35.8311 -3.5 45.498 -10.5s17.5 -17.833 23.5 -32.5l96 -241
h-72c-13.333 0 -24.166 1.83301 -32.499 5.5s-16.166 10.5 -23.499 20.5l-151 258h114z" />
    <glyph glyph-name="f_f_uni020B.liga" unicode="ff&#x20b;" horiz-adv-x="1647" 
d="M985 993h567.995l-15 -127h-1l-106 -866h-172l105 866h-389l-102 -833l-43 -207c-7.33301 -24 -18.166 -42.5 -32.499 -55.5s-34.166 -19.5 -59.499 -19.5h-70l136 1115h-408l-101 -833l-46 -207c-7.33301 -24 -18.166 -42.5 -32.499 -55.5s-34.166 -19.5 -59.499 -19.5
h-70l136 1114l-99 12c-13.333 2.66699 -23.833 7.33398 -31.5 14.001s-10.834 16.667 -9.50098 30l9 72h147l10 83c7.33301 58 21.666 109.5 42.999 154.5s48.166 83 80.499 114s69.5 54.5 111.5 70.5s87 24 135 24c40.667 0 78.334 -6.66699 113.001 -20l-17 -93
c-2 -6.66699 -5.33301 -11.334 -10 -14.001s-10.667 -4.33398 -18 -5.00098s-15.833 -0.833984 -25.5 -0.500977s-20.167 0.5 -31.5 0.5c-28 0 -53.833 -3.66699 -77.5 -11s-44.667 -19.666 -63 -36.999s-33.666 -40.5 -45.999 -69.5s-21.166 -65.167 -26.499 -108.5
l-12 -88h415l15 124c13.333 110.667 46.333 195.667 99 255s121.334 89 206.001 89c14 0 28 -0.666992 42 -2s26 -3.66602 36 -6.99902l-11 -94c-1.33301 -10.667 -6.66602 -17.334 -15.999 -20.001s-22 -4 -38 -4c-42.667 0 -76.334 -17.667 -101.001 -53
s-41.667 -89.666 -51 -162.999zM1517 1442c47.333 0 86.332 -7.16699 116.999 -21.5s54.667 -33.666 72 -57.999s28.5 -52.666 33.5 -84.999s5.5 -66.5 1.5 -102.5h-122c2.66699 22 3 42.5 1 61.5s-7.33301 35.5 -16 49.5s-21 24.833 -37 32.5s-36.667 11.5 -62 11.5
s-47.166 -3.83301 -65.499 -11.5s-33.5 -18.5 -45.5 -32.5s-21.333 -30.5 -28 -49.5s-11.334 -39.5 -14.001 -61.5h-122c4.66699 36 13.334 70.167 26.001 102.5s30.5 60.666 53.5 84.999s51.5 43.666 85.5 57.999s74.667 21.5 122 21.5z" />
    <glyph glyph-name="f_f_uni1E2F.liga" unicode="ff&#x1e2f;" horiz-adv-x="1647" 
d="M985 993h567.995l-122 -993h-175l106 866h-387l-101 -833l-44 -207c-7.33301 -24 -18.166 -42.5 -32.499 -55.5s-34.166 -19.5 -59.499 -19.5h-70l136 1115h-407l-101 -833l-47 -207c-7.33301 -24 -18.166 -42.5 -32.499 -55.5s-34.166 -19.5 -59.499 -19.5h-70l136 1113
l-100 13c-13.333 2.66699 -23.666 7.33398 -30.999 14.001s-10.333 16.667 -9 30l9 72h147l10 83c7.33301 58 21.666 109.5 42.999 154.5s48.166 83 80.499 114s69.5 54.5 111.5 70.5s87 24 135 24c41.333 0 79 -6.66699 113 -20l-17 -93
c-2 -6.66699 -5.33301 -11.334 -10 -14.001s-10.667 -4.33398 -18 -5.00098s-15.833 -0.833984 -25.5 -0.500977s-20.167 0.5 -31.5 0.5c-28 0 -53.833 -3.66699 -77.5 -11s-44.5 -19.666 -62.5 -36.999s-33.167 -40.5 -45.5 -69.5s-21.166 -65.167 -26.499 -108.5l-12 -88
h414l15 124c13.333 110.667 46.333 195.667 99 255s121.334 89 206.001 89c14 0 28 -0.666992 42 -2s26 -3.66602 36 -6.99902l-11 -94c-1.33301 -10.667 -6.66602 -17.334 -15.999 -20.001s-22 -4 -38 -4c-42.667 0 -76.334 -17.667 -101.001 -53
s-41.667 -89.666 -51 -162.999zM1833 1591l-229.002 -224c-9.33301 -10 -18.666 -16.833 -27.999 -20.5s-20.666 -5.5 -33.999 -5.5h-103l146 207c10 14.667 20.667 25.5 32 32.5s27.333 10.5 48 10.5h168zM1747.99 1208c0 -13.333 -2.66699 -26 -8 -38
s-12.666 -22.5 -21.999 -31.5s-20 -16 -32 -21s-25 -7.5 -39 -7.5c-13.333 0 -26 2.5 -38 7.5s-22.5 12 -31.5 21s-16.167 19.5 -21.5 31.5s-8 24.667 -8 38c0 14 2.66699 27.167 8 39.5s12.5 23.166 21.5 32.499s19.5 16.666 31.5 21.999s24.667 8 38 8
c14 0 27 -2.66699 39 -8s22.667 -12.666 32 -21.999s16.666 -20.166 21.999 -32.499s8 -25.5 8 -39.5zM1444.99 1208c0 -13.333 -2.66699 -26 -8 -38s-12.666 -22.5 -21.999 -31.5s-20.166 -16 -32.499 -21s-25.166 -7.5 -38.499 -7.5s-26 2.5 -38 7.5s-22.5 12 -31.5 21
s-16.167 19.5 -21.5 31.5s-8 24.667 -8 38c0 14 2.66699 27.167 8 39.5s12.5 23.166 21.5 32.499s19.5 16.666 31.5 21.999s24.667 8 38 8s26.166 -2.66699 38.499 -8s23.166 -12.666 32.499 -21.999s16.666 -20.166 21.999 -32.499s8 -25.5 8 -39.5z" />
    <glyph glyph-name="f_uni0237.liga" unicode="f&#x237;" horiz-adv-x="1067" 
d="M405 993l565.997 -0.00195312l-129 -1068c-5.33301 -40.667 -15.5 -78.5 -30.5 -113.5s-35.167 -65.5 -60.5 -91.5s-55.5 -46.5 -90.5 -61.5s-74.833 -22.5 -119.5 -22.5c-23.333 0 -43.333 1.66699 -60 5s-33 8.33301 -49 15l18 96c2 6 4.66699 10.5 8 13.5
s7.5 4.83301 12.5 5.5s11.333 0.833984 19 0.500977s17.167 -0.5 28.5 -0.5c46.667 0 81.334 12.333 104.001 37s37.667 63.667 45 117l115 943h-386l-102 -835l-44 -207c-7.33301 -24 -18.166 -42.5 -32.499 -55.5s-34.166 -19.5 -59.499 -19.5h-70l136 1115l-100 13
c-13.333 2 -23.833 6.5 -31.5 13.5s-10.834 17.167 -9.50098 30.5l9 70h148l15 124c13.333 110.667 46.333 195.667 99 255s121.667 89 207 89c13.333 0 27 -0.666992 41 -2s26 -3.66602 36 -6.99902l-11 -94c-1.33301 -10.667 -6.66602 -17.334 -15.999 -20.001
s-22 -4 -38 -4c-42 0 -75.5 -17.667 -100.5 -53s-42.167 -89.666 -51.5 -162.999z" />
    <glyph glyph-name="f_f_uni0237.liga" unicode="ff&#x237;" horiz-adv-x="1649" 
d="M986 993h566.993l-15 -125l-114 -944c-5.33301 -40 -15.5 -77.667 -30.5 -113s-35.167 -66 -60.5 -92s-55.666 -46.5 -90.999 -61.5s-75.333 -22.5 -120 -22.5c-23.333 0 -43.166 1.66699 -59.499 5s-32.5 8.33301 -48.5 15l18 96c2 6 4.66699 10.5 8 13.5
s7.5 4.83301 12.5 5.5s11.333 0.833984 19 0.500977s17.167 -0.5 28.5 -0.5c46.667 0 81.334 12.333 104.001 37s37.667 63.667 45 117l115 944h-388l-102 -835l-44 -207c-7.33301 -24 -18.166 -42.5 -32.499 -55.5s-34.166 -19.5 -59.499 -19.5h-70l136 1117h-407
l-102 -835l-46 -207c-7.33301 -24 -18.166 -42.5 -32.499 -55.5s-34.166 -19.5 -59.499 -19.5h-70l136 1115l-99 13c-13.333 2 -23.833 6.5 -31.5 13.5s-10.834 17.167 -9.50098 30.5l9 70h147l10 83c7.33301 58 21.666 109.5 42.999 154.5s48.166 83 80.499 114
s69.5 54.5 111.5 70.5s87 24 135 24c40.667 0 78.334 -6.66699 113.001 -20l-17 -93c-2 -6.66699 -5.33301 -11.334 -10 -14.001s-10.667 -4.33398 -18 -5.00098s-15.833 -0.833984 -25.5 -0.500977s-20.167 0.5 -31.5 0.5c-28 0 -53.833 -3.66699 -77.5 -11
s-44.667 -19.666 -63 -36.999s-33.666 -40.5 -45.999 -69.5s-21.166 -65.167 -26.499 -108.5l-12 -88h415l15 124c13.333 110.667 46.5 195.667 99.5 255s121.833 89 206.5 89c13.333 0 27 -0.666992 41 -2s26.333 -3.66602 37 -6.99902l-11 -94
c-1.33301 -10.667 -6.83301 -17.334 -16.5 -20.001s-22.167 -4 -37.5 -4c-42.667 0 -76.5 -17.667 -101.5 -53s-41.833 -89.666 -50.5 -162.999z" />
    <glyph glyph-name="f_jcircumflex.liga" unicode="f&#x135;" horiz-adv-x="1067" 
d="M405 993l565.997 -0.00195312l-129 -1068c-5.33301 -40.667 -15.5 -78.5 -30.5 -113.5s-35.167 -65.5 -60.5 -91.5s-55.5 -46.5 -90.5 -61.5s-74.833 -22.5 -119.5 -22.5c-23.333 0 -43.333 1.66699 -60 5s-33 8.33301 -49 15l18 96c2 6 4.66699 10.5 8 13.5
s7.5 4.83301 12.5 5.5s11.333 0.833984 19 0.500977s17.167 -0.5 28.5 -0.5c46.667 0 81.334 12.333 104.001 37s37.667 63.667 45 117l115 943h-386l-102 -835l-44 -207c-7.33301 -24 -18.166 -42.5 -32.499 -55.5s-34.166 -19.5 -59.499 -19.5h-70l136 1115l-100 13
c-13.333 2 -23.833 6.5 -31.5 13.5s-10.834 17.167 -9.50098 30.5l9 70h148l15 124c13.333 110.667 46.333 195.667 99 255s121.667 89 207 89c13.333 0 27 -0.666992 41 -2s26 -3.66602 36 -6.99902l-11 -94c-1.33301 -10.667 -6.66602 -17.334 -15.999 -20.001
s-22 -4 -38 -4c-42 0 -75.5 -17.667 -100.5 -53s-42.167 -89.666 -51.5 -162.999zM1198 1169h-110c-6.66699 0 -13.167 1.33301 -19.5 4s-12.5 7.66699 -18.5 15l-99 132c-2 3.33301 -4.16699 6.5 -6.5 9.5s-4.5 6.16699 -6.5 9.5l-17 -19l-130 -132
c-12.667 -12.667 -26.667 -19 -42 -19h-114l235 264h152z" />
    <glyph glyph-name="f_lcaron.liga" unicode="f&#x13e;" horiz-adv-x="1098" 
d="M1307 1473c11.333 0 18.832 -2.5 22.499 -7.5s5.5 -10.833 5.5 -17.5s-1.33301 -15 -4 -25s-7.83398 -24.5 -15.501 -43.5s-18.667 -44.167 -33 -75.5l-57.5 -120c-7.33301 -14.667 -16.166 -24.167 -26.499 -28.5s-23.166 -6.5 -38.499 -6.5h-44l93 324h98zM396.999 865
l-103.004 -832.998l-47 -207c-7.33301 -24 -18.166 -42.5 -32.499 -55.5s-34.166 -19.5 -59.499 -19.5h-70l137 1112l-98 12c-14 3.33301 -24.667 8.16602 -32 14.499s-10.333 16.166 -9 29.499l9 75h146l7 55c6.66699 56 21 109 43 159s51.167 93.667 87.5 131
s79.833 66.833 130.5 88.5s108.334 32.5 173.001 32.5c48 0 93.5 -2 136.5 -6s85.5 -6.33301 127.5 -7h120l-178 -1446h-173l161 1316c-30 2.66699 -60.667 5.66699 -92 9s-61.666 5 -90.999 5c-78 0 -141.167 -24.5 -189.5 -73.5s-77.833 -118.5 -88.5 -208.5l-6 -55h238
l-15 -128h-232z" />
    <glyph glyph-name="f_lcommaaccent.liga" unicode="f&#x13c;" horiz-adv-x="1098" 
d="M397 865l-103.004 -832.998l-47 -207c-7.33301 -24 -18.166 -42.5 -32.499 -55.5s-34.166 -19.5 -59.499 -19.5h-70l137 1112l-98 12c-14 3.33301 -24.667 8.16602 -32 14.499s-10.333 16.166 -9 29.499l9 75h146l7 55c6.66699 56 21 109 43 159s51.167 93.667 87.5 131
s79.833 66.833 130.5 88.5s108.334 32.5 173.001 32.5c48 0 93.5 -2 136.5 -6s85.5 -6.33301 127.5 -7h120l-178 -1446h-173l161 1316c-30 2.66699 -60.667 5.66699 -92 9s-61.666 5 -90.999 5c-78 0 -141.167 -24.5 -189.5 -73.5s-77.833 -118.5 -88.5 -208.5l-6 -55h238
l-15 -128h-232zM834.996 -95.998c12 0 19.835 -2.66699 23.502 -8s5.5 -11.333 5.5 -18c0 -7.33301 -1.33301 -16.666 -4 -27.999s-7.33398 -26 -14.001 -44s-15.834 -40 -27.501 -66l-43.5 -93c-7.33301 -14.667 -16.333 -24.334 -27 -29.001s-24 -7 -40 -7h-62l81 293h108
z" />
    <glyph glyph-name="f_uni021B.liga" unicode="f&#x21b;" horiz-adv-x="1309" 
d="M406 993l433 0.00292969l76 315c3.33301 10 8.5 18.167 15.5 24.5s15.833 9.5 26.5 9.5h94l-43 -349h266l-14 -125h-268l-61 -502l-8 -66c-2 -16.667 -3.5 -30 -4.5 -40s-1.66699 -17 -2 -21s-0.5 -7 -0.5 -9c0 -34 7.83301 -59.167 23.5 -75.5s37.167 -24.5 64.5 -24.5
c17.333 0 32.666 2.5 45.999 7.5s24.833 10.5 34.5 16.5s17.834 11.5 24.501 16.5s12.667 7.5 18 7.5c10 0 17.333 -5.66699 22 -17l37 -85c-32 -28.667 -68.833 -51.167 -110.5 -67.5s-83.5 -24.5 -125.5 -24.5c-64.667 0 -115.667 17.667 -153 53
s-56.666 86.666 -57.999 153.999c0 4 0.166992 9.16699 0.5 15.5s1 15.5 2 27.5s2.5 27.667 4.5 47s5 44.666 9 75.999l63 511h-420l-102 -835l-47 -207c-7.33301 -24 -18.166 -42.5 -32.499 -55.5s-34.166 -19.5 -59.499 -19.5h-70l135 1116l-98 12
c-13.333 2 -23.833 6.5 -31.5 13.5s-10.834 17.167 -9.50098 30.5l9 70h146l12 98c7.33301 58 21.833 109.5 43.5 154.5s49 83 82 114s70.667 54.5 113 70.5s88.166 24 137.499 24c40.667 0 78.334 -6.66699 113.001 -20l-17 -92c-1.33301 -6.66699 -4.33301 -11.5 -9 -14.5
s-10.834 -4.83301 -18.501 -5.5s-16.334 -0.833984 -26.001 -0.500977s-20.167 0.5 -31.5 0.5c-28.667 0 -55.167 -4.16699 -79.5 -12.5s-45.833 -21.833 -64.5 -40.5s-34.5 -43 -47.5 -73s-22.167 -66.667 -27.5 -110zM962 -95.9971c12 0 19.835 -2.66699 23.502 -8
s5.5 -11.333 5.5 -18c0 -7.33301 -1.33301 -16.666 -4 -27.999s-7.33398 -26 -14.001 -44s-15.834 -40 -27.501 -66l-43.5 -93c-7.33301 -14.667 -16.333 -24.334 -27 -29.001s-24 -7 -40 -7h-62l81 293h108z" />
    <glyph glyph-name="f_tcaron.liga" unicode="f&#x165;" horiz-adv-x="1309" 
d="M1317 1473c11.333 0 19.001 -2.5 23.001 -7.5s6 -10.833 6 -17.5s-1.33301 -15 -4 -25s-7.83398 -24.5 -15.501 -43.5s-18.667 -44.167 -33 -75.5l-57.5 -120c-8 -14.667 -17 -24.167 -27 -28.5s-22.667 -6.5 -38 -6.5h-44l93 324h97zM406.001 993l433 0.00292969l76 315
c3.33301 10 8.5 18.167 15.5 24.5s15.833 9.5 26.5 9.5h94l-43 -349h266l-14 -125h-268l-61 -502l-8 -66c-2 -16.667 -3.5 -30 -4.5 -40s-1.66699 -17 -2 -21s-0.5 -7 -0.5 -9c0 -34 7.83301 -59.167 23.5 -75.5s37.167 -24.5 64.5 -24.5c17.333 0 32.666 2.5 45.999 7.5
s24.833 10.5 34.5 16.5s17.834 11.5 24.501 16.5s12.667 7.5 18 7.5c10 0 17.333 -5.66699 22 -17l37 -85c-32 -28.667 -68.833 -51.167 -110.5 -67.5s-83.5 -24.5 -125.5 -24.5c-64.667 0 -115.667 17.667 -153 53s-56.666 86.666 -57.999 153.999
c0 4 0.166992 9.16699 0.5 15.5s1 15.5 2 27.5s2.5 27.667 4.5 47s5 44.666 9 75.999l63 511h-420l-102 -835l-47 -207c-7.33301 -24 -18.166 -42.5 -32.499 -55.5s-34.166 -19.5 -59.499 -19.5h-70l135 1116l-98 12c-13.333 2 -23.833 6.5 -31.5 13.5
s-10.834 17.167 -9.50098 30.5l9 70h146l12 98c7.33301 58 21.833 109.5 43.5 154.5s49 83 82 114s70.667 54.5 113 70.5s88.166 24 137.499 24c40.667 0 78.334 -6.66699 113.001 -20l-17 -92c-1.33301 -6.66699 -4.33301 -11.5 -9 -14.5s-10.834 -4.83301 -18.501 -5.5
s-16.334 -0.833984 -26.001 -0.500977s-20.167 0.5 -31.5 0.5c-28.667 0 -55.167 -4.16699 -79.5 -12.5s-45.833 -21.833 -64.5 -40.5s-34.5 -43 -47.5 -73s-22.167 -66.667 -27.5 -110z" />
    <glyph glyph-name="f_uni1ECB.liga" unicode="f&#x1ecb;" horiz-adv-x="1067" 
d="M405 993l566.999 0.00292969l-121 -993h-175l106 864h-386l-102 -832l-47 -207c-7.33301 -24 -18.166 -42.5 -32.499 -55.5s-34.166 -19.5 -59.499 -19.5h-70l137 1112l-98 12c-14 3.33301 -24.667 8.16602 -32 14.499s-10.333 16.166 -9 29.499l8 75h147l7 56
c7.33301 62 23.333 118.667 48 170s57.167 95.333 97.5 132s88.666 65.167 144.999 85.5s120.166 30.5 191.499 30.5c12 0 24.5 -0.5 37.5 -1.5s26 -2.33301 39 -4s25.333 -3.66699 37 -6s21.834 -5.16602 30.501 -8.49902l-18 -90
c-1.33301 -6.66699 -4.5 -11.334 -9.5 -14.001s-11.5 -4.33398 -19.5 -5.00098s-17.333 -0.666992 -28 0s-23 1 -37 1c-55.333 0 -103.333 -6 -144 -18s-75 -30 -103 -54s-50.167 -54.333 -66.5 -91s-27.5 -80 -33.5 -130zM842.999 -255.997
c0 -16 -3.33398 -30.999 -10.001 -44.999s-15.334 -26.333 -26.001 -37s-23 -19.167 -37 -25.5s-28.333 -9.5 -43 -9.5s-28.667 3.16699 -42 9.5s-25.166 14.833 -35.499 25.5s-18.666 23 -24.999 37s-9.5 29 -9.5 45s3.16699 31.167 9.5 45.5s14.666 27 24.999 38
s22.333 19.667 36 26s27.834 9.5 42.501 9.5s29 -3.16699 43 -9.5s26.333 -14.833 37 -25.5s19.167 -23.334 25.5 -38.001s9.5 -30 9.5 -46z" />
    <glyph glyph-name="f_uni1E2D.liga" unicode="f&#x1e2d;" horiz-adv-x="1067" 
d="M405 993l566.999 0.00292969l-121 -993h-175l106 864h-386l-102 -832l-47 -207c-7.33301 -24 -18.166 -42.5 -32.499 -55.5s-34.166 -19.5 -59.499 -19.5h-70l137 1112l-98 12c-14 3.33301 -24.667 8.16602 -32 14.499s-10.333 16.166 -9 29.499l8 75h147l7 56
c7.33301 62 23.333 118.667 48 170s57.167 95.333 97.5 132s88.666 65.167 144.999 85.5s120.166 30.5 191.499 30.5c12 0 24.5 -0.5 37.5 -1.5s26 -2.33301 39 -4s25.333 -3.66699 37 -6s21.834 -5.16602 30.501 -8.49902l-18 -90
c-1.33301 -6.66699 -4.5 -11.334 -9.5 -14.001s-11.5 -4.33398 -19.5 -5.00098s-17.333 -0.666992 -28 0s-23 1 -37 1c-55.333 0 -103.333 -6 -144 -18s-75 -30 -103 -54s-50.167 -54.333 -66.5 -91s-27.5 -80 -33.5 -130zM869.999 -178.997
c44.667 0 71.002 28.666 79.002 85.999h100c-3.33301 -31.333 -10.333 -60.166 -21 -86.499s-24.334 -48.833 -41.001 -67.5s-35.5 -33.167 -56.5 -43.5s-43.833 -15.5 -68.5 -15.5c-21.333 0 -40.833 4.83301 -58.5 14.5s-34.167 20.167 -49.5 31.5l-43.5 31.5
c-13.667 9.66699 -27.5 14.5 -41.5 14.5c-44.667 0 -70.667 -29.333 -78 -88h-102c3.33301 32 10.5 61.167 21.5 87.5s24.833 49 41.5 68s35.667 33.667 57 44s44 15.5 68 15.5c22 0 41.667 -4.83301 59 -14.5s33.666 -20.167 48.999 -31.5l43.5 -31.5
c13.667 -9.66699 27.5 -14.5 41.5 -14.5z" />
    <glyph glyph-name="f_uni0268.liga" unicode="f&#x268;" horiz-adv-x="1132" 
d="M745 564l36.999 300.003h-386l-102 -832l-47 -207c-7.33301 -24 -18.166 -42.5 -32.499 -55.5s-34.166 -19.5 -59.499 -19.5h-70l137 1112l-98 12c-14 3.33301 -24.667 8.16602 -32 14.499s-10.333 16.166 -9 29.499l8 75h147l7 56c7.33301 62 23.333 118.667 48 170
s57.167 95.333 97.5 132s88.666 65.167 144.999 85.5s120.166 30.5 191.499 30.5c12 0 24.5 -0.5 37.5 -1.5s26 -2.33301 39 -4s25.333 -3.66699 37 -6s21.834 -5.16602 30.501 -8.49902l-18 -90c-1.33301 -6.66699 -4.5 -11.334 -9.5 -14.001
s-11.5 -4.33398 -19.5 -5.00098s-17.333 -0.666992 -28 0s-23 1 -37 1c-55.333 0 -103.333 -6 -144 -18s-75 -30 -103 -54s-50.167 -54.333 -66.5 -91s-27.5 -80 -33.5 -130l-7 -53h567l-52 -429h162l-16 -126h-162l-53 -438h-175l53 438h-114l15 126h115z" />
    <glyph glyph-name="f_iacute.liga" unicode="f&#xed;" horiz-adv-x="1067" 
d="M405 993l566.996 0.000976562l-121 -993h-175l106 864h-387l-101 -831l-44 -207c-7.33301 -24 -18.166 -42.5 -32.499 -55.5s-34.166 -19.5 -59.499 -19.5h-70l136 1110l-100 13c-14 3.33301 -24.667 8.16602 -32 14.499s-10.333 16.166 -9 29.499l8 75h149l15 124
c13.333 110.667 46.333 195.667 99 255s121.667 89 207 89c13.333 0 27 -0.666992 41 -2s26.333 -3.66602 37 -6.99902l-12 -94c-1.33301 -10.667 -6.66602 -17.334 -15.999 -20.001s-21.666 -4 -36.999 -4c-42.667 0 -76.5 -17.667 -101.5 -53
s-42.167 -89.666 -51.5 -162.999zM1192 1449l-243.999 -258c-9.33301 -10 -18.333 -17.167 -27 -21.5s-19.334 -6.5 -32.001 -6.5h-98l163 242c10 15.333 20.5 26.5 31.5 33.5s26.5 10.5 46.5 10.5h160z" />
    <glyph glyph-name="f_uni1EC9.liga" unicode="f&#x1ec9;" horiz-adv-x="1067" 
d="M405 993l566.996 0.000976562l-121 -993h-175l106 864h-387l-101 -831l-44 -207c-7.33301 -24 -18.166 -42.5 -32.499 -55.5s-34.166 -19.5 -59.499 -19.5h-70l136 1110l-100 13c-14 3.33301 -24.667 8.16602 -32 14.499s-10.333 16.166 -9 29.499l8 75h149l15 124
c13.333 110.667 46.333 195.667 99 255s121.667 89 207 89c13.333 0 27 -0.666992 41 -2s26.333 -3.66602 37 -6.99902l-12 -94c-1.33301 -10.667 -6.66602 -17.334 -15.999 -20.001s-21.666 -4 -36.999 -4c-42.667 0 -76.5 -17.667 -101.5 -53
s-42.167 -89.666 -51.5 -162.999zM774.996 1418c19.333 15.333 44.0039 27.498 74.0039 36.498s62 13.5 96 13.5c27.333 0 50.833 -3.16699 70.5 -9.5s35.667 -15.166 48 -26.499s20.833 -24.666 25.5 -39.999s6 -32 4 -50c-3.33301 -32.667 -16.5 -61 -39.5 -85
s-51.167 -42.333 -84.5 -55l-24 -82h-79l15 132c33.333 4.66699 57 13.5 71 26.5s21.667 27.833 23 44.5c1.33301 15.333 -2.33398 28.833 -11.001 40.5s-25.334 17.5 -50.001 17.5c-12 0 -22.833 -1.5 -32.5 -4.5s-18.334 -6.16699 -26.001 -9.5s-14.334 -6.5 -20.001 -9.5
s-10.5 -4.5 -14.5 -4.5c-5.33301 0 -9.5 1.5 -12.5 4.5s-5.83301 7.16699 -8.5 12.5z" />
    <glyph glyph-name="f_f_uni1ECB.liga" unicode="ff&#x1ecb;" horiz-adv-x="1648" 
d="M1537 868l-106.001 -867.997h-172l106 868h-388l-102 -836l-47 -207c-7.33301 -24 -18.166 -42.5 -32.499 -55.5s-34.166 -19.5 -59.499 -19.5h-70l137 1118h-406l-102 -835l-46 -207c-7.33301 -24 -18.166 -42.5 -32.499 -55.5s-34.166 -19.5 -59.499 -19.5h-70
l136 1115l-99 13c-13.333 2 -23.833 6.5 -31.5 13.5s-10.834 17.167 -9.50098 30.5l9 70h147l10 83c7.33301 58 21.666 109.5 42.999 154.5s48.166 83 80.499 114s69.5 54.5 111.5 70.5s87 24 135 24c40.667 0 78.334 -6.66699 113.001 -20l-17 -93
c-2 -6.66699 -5.33301 -11.334 -10 -14.001s-10.667 -4.33398 -18 -5.00098s-15.833 -0.833984 -25.5 -0.500977s-20.167 0.5 -31.5 0.5c-28 0 -53.833 -3.66699 -77.5 -11s-44.667 -19.666 -63 -36.999s-33.666 -40.5 -45.999 -69.5s-21.166 -65.167 -26.499 -108.5
l-12 -88h414l7 56c7.33301 62 23.333 118.667 48 170s57.167 95.333 97.5 132s88.666 65.167 144.999 85.5s120.166 30.5 191.499 30.5c11.333 0 23.666 -0.5 36.999 -1.5s26.5 -2.33301 39.5 -4s25.333 -3.66699 37 -6s21.5 -5.16602 29.5 -8.49902l-17 -90
c-1.33301 -6.66699 -4.5 -11.334 -9.5 -14.001s-11.5 -4.33398 -19.5 -5.00098s-17.333 -0.666992 -28 0s-23 1 -37 1c-110 0 -192.333 -24 -247 -72s-88 -121.667 -100 -221l-7 -53h567l-15 -125h-1zM1425 -255.997c0 -16 -3.33398 -30.999 -10.001 -44.999
s-15.334 -26.333 -26.001 -37s-23 -19.167 -37 -25.5s-28.333 -9.5 -43 -9.5s-28.667 3.16699 -42 9.5s-25.166 14.833 -35.499 25.5s-18.666 23 -24.999 37s-9.5 29 -9.5 45s3.16699 31.167 9.5 45.5s14.666 27 24.999 38s22.333 19.667 36 26s27.834 9.5 42.501 9.5
s29 -3.16699 43 -9.5s26.333 -14.833 37 -25.5s19.167 -23.334 25.5 -38.001s9.5 -30 9.5 -46z" />
    <glyph glyph-name="f_f_uni1E2D.liga" unicode="ff&#x1e2d;" horiz-adv-x="1648" 
d="M1537 868l-106.001 -867.997h-172l106 868h-388l-102 -836l-47 -207c-7.33301 -24 -18.166 -42.5 -32.499 -55.5s-34.166 -19.5 -59.499 -19.5h-70l137 1118h-406l-102 -835l-46 -207c-7.33301 -24 -18.166 -42.5 -32.499 -55.5s-34.166 -19.5 -59.499 -19.5h-70
l136 1115l-99 13c-13.333 2 -23.833 6.5 -31.5 13.5s-10.834 17.167 -9.50098 30.5l9 70h147l10 83c7.33301 58 21.666 109.5 42.999 154.5s48.166 83 80.499 114s69.5 54.5 111.5 70.5s87 24 135 24c40.667 0 78.334 -6.66699 113.001 -20l-17 -93
c-2 -6.66699 -5.33301 -11.334 -10 -14.001s-10.667 -4.33398 -18 -5.00098s-15.833 -0.833984 -25.5 -0.500977s-20.167 0.5 -31.5 0.5c-28 0 -53.833 -3.66699 -77.5 -11s-44.667 -19.666 -63 -36.999s-33.666 -40.5 -45.999 -69.5s-21.166 -65.167 -26.499 -108.5
l-12 -88h414l7 56c7.33301 62 23.333 118.667 48 170s57.167 95.333 97.5 132s88.666 65.167 144.999 85.5s120.166 30.5 191.499 30.5c11.333 0 23.666 -0.5 36.999 -1.5s26.5 -2.33301 39.5 -4s25.333 -3.66699 37 -6s21.5 -5.16602 29.5 -8.49902l-17 -90
c-1.33301 -6.66699 -4.5 -11.334 -9.5 -14.001s-11.5 -4.33398 -19.5 -5.00098s-17.333 -0.666992 -28 0s-23 1 -37 1c-110 0 -192.333 -24 -247 -72s-88 -121.667 -100 -221l-7 -53h567l-15 -125h-1zM1425 -178.997c44.667 0 71.002 28.666 79.002 85.999h100
c-3.33301 -31.333 -10.333 -60.166 -21 -86.499s-24.334 -48.833 -41.001 -67.5s-35.5 -33.167 -56.5 -43.5s-43.833 -15.5 -68.5 -15.5c-21.333 0 -40.833 4.83301 -58.5 14.5s-34.167 20.167 -49.5 31.5l-43.5 31.5c-13.667 9.66699 -27.5 14.5 -41.5 14.5
c-44.667 0 -70.667 -29.333 -78 -88h-102c3.33301 32 10.5 61.167 21.5 87.5s24.833 49 41.5 68s35.667 33.667 57 44s44 15.5 68 15.5c22 0 41.667 -4.83301 59 -14.5s33.666 -20.167 48.999 -31.5l43.5 -31.5c13.667 -9.66699 27.5 -14.5 41.5 -14.5z" />
    <glyph glyph-name="f_f_uni0268.liga" unicode="ff&#x268;" horiz-adv-x="1677" 
d="M1328 564l36.999 304.003h-388l-102 -836l-47 -207c-7.33301 -24 -18.166 -42.5 -32.499 -55.5s-34.166 -19.5 -59.499 -19.5h-70l137 1118h-406l-102 -835l-46 -207c-7.33301 -24 -18.166 -42.5 -32.499 -55.5s-34.166 -19.5 -59.499 -19.5h-70l136 1115l-99 13
c-13.333 2 -23.833 6.5 -31.5 13.5s-10.834 17.167 -9.50098 30.5l9 70h147l10 83c7.33301 58 21.666 109.5 42.999 154.5s48.166 83 80.499 114s69.5 54.5 111.5 70.5s87 24 135 24c40.667 0 78.334 -6.66699 113.001 -20l-17 -93
c-2 -6.66699 -5.33301 -11.334 -10 -14.001s-10.667 -4.33398 -18 -5.00098s-15.833 -0.833984 -25.5 -0.500977s-20.167 0.5 -31.5 0.5c-28 0 -53.833 -3.66699 -77.5 -11s-44.667 -19.666 -63 -36.999s-33.666 -40.5 -45.999 -69.5s-21.166 -65.167 -26.499 -108.5
l-12 -88h414l7 56c7.33301 62 23.333 118.667 48 170s57.167 95.333 97.5 132s88.666 65.167 144.999 85.5s120.166 30.5 191.499 30.5c11.333 0 23.666 -0.5 36.999 -1.5s26.5 -2.33301 39.5 -4s25.333 -3.66699 37 -6s21.5 -5.16602 29.5 -8.49902l-17 -90
c-1.33301 -6.66699 -4.5 -11.334 -9.5 -14.001s-11.5 -4.33398 -19.5 -5.00098s-17.333 -0.666992 -28 0s-23 1 -37 1c-110 0 -192.333 -24 -247 -72s-88 -121.667 -100 -221l-7 -53h567l-15 -125h-1l-37 -304h140l-16 -126h-140l-53 -438h-172l53 438h-139l15 126h140z" />
    <glyph glyph-name="f_f_iacute.liga" unicode="ff&#xed;" horiz-adv-x="1647" 
d="M1537 868l-106.005 -867.999h-172l106 868h-388l-102 -835l-44 -207c-7.33301 -24 -18.166 -42.5 -32.499 -55.5s-34.166 -19.5 -59.499 -19.5h-70l136 1117h-408l-102 -835l-46 -207c-7.33301 -24 -18.166 -42.5 -32.499 -55.5s-34.166 -19.5 -59.499 -19.5h-70
l136 1115l-99 13c-13.333 2 -23.833 6.5 -31.5 13.5s-10.834 17.167 -9.50098 30.5l9 70h147l10 83c7.33301 58 21.666 109.5 42.999 154.5s48.166 83 80.499 114s69.5 54.5 111.5 70.5s87 24 135 24c40.667 0 78.334 -6.66699 113.001 -20l-17 -93
c-2 -6.66699 -5.33301 -11.334 -10 -14.001s-10.667 -4.33398 -18 -5.00098s-15.833 -0.833984 -25.5 -0.500977s-20.167 0.5 -31.5 0.5c-28 0 -53.833 -3.66699 -77.5 -11s-44.667 -19.666 -63 -36.999s-33.666 -40.5 -45.999 -69.5s-21.166 -65.167 -26.499 -108.5
l-12 -88h416l15 124c13.333 110.667 46.333 195.667 99 255s121.334 89 206.001 89c14 0 28 -0.666992 42 -2s26 -3.66602 36 -6.99902l-11 -94c-1.33301 -10.667 -6.66602 -17.334 -15.999 -20.001s-22 -4 -38 -4c-42.667 0 -76.334 -17.667 -101.001 -53
s-41.667 -89.666 -51 -162.999l-16 -125h567l-15 -125h-1zM1784 1449l-243.999 -258c-9.33301 -10 -18.333 -17.167 -27 -21.5s-19.334 -6.5 -32.001 -6.5h-98l163 242c10 15.333 20.5 26.5 31.5 33.5s26.5 10.5 46.5 10.5h160z" />
    <glyph glyph-name="f_f_uni1EC9.liga" unicode="ff&#x1ec9;" horiz-adv-x="1637" 
d="M1537 868l-106.005 -867.999h-172l106 868h-388l-102 -835l-44 -207c-7.33301 -24 -18.166 -42.5 -32.499 -55.5s-34.166 -19.5 -59.499 -19.5h-70l136 1117h-408l-102 -835l-46 -207c-7.33301 -24 -18.166 -42.5 -32.499 -55.5s-34.166 -19.5 -59.499 -19.5h-70
l136 1115l-99 13c-13.333 2 -23.833 6.5 -31.5 13.5s-10.834 17.167 -9.50098 30.5l9 70h147l10 83c7.33301 58 21.666 109.5 42.999 154.5s48.166 83 80.499 114s69.5 54.5 111.5 70.5s87 24 135 24c40.667 0 78.334 -6.66699 113.001 -20l-17 -93
c-2 -6.66699 -5.33301 -11.334 -10 -14.001s-10.667 -4.33398 -18 -5.00098s-15.833 -0.833984 -25.5 -0.500977s-20.167 0.5 -31.5 0.5c-28 0 -53.833 -3.66699 -77.5 -11s-44.667 -19.666 -63 -36.999s-33.666 -40.5 -45.999 -69.5s-21.166 -65.167 -26.499 -108.5
l-12 -88h416l15 124c13.333 110.667 46.333 195.667 99 255s121.334 89 206.001 89c14 0 28 -0.666992 42 -2s26 -3.66602 36 -6.99902l-11 -94c-1.33301 -10.667 -6.66602 -17.334 -15.999 -20.001s-22 -4 -38 -4c-42.667 0 -76.334 -17.667 -101.001 -53
s-41.667 -89.666 -51 -162.999l-16 -125h567l-15 -125h-1zM1358 1418c19.333 15.333 44.0039 27.498 74.0039 36.498s62 13.5 96 13.5c27.333 0 50.833 -3.16699 70.5 -9.5s35.667 -15.166 48 -26.499s20.833 -24.666 25.5 -39.999s6 -32 4 -50
c-3.33301 -32.667 -16.5 -61 -39.5 -85s-51.167 -42.333 -84.5 -55l-24 -82h-79l15 132c33.333 4.66699 57 13.5 71 26.5s21.667 27.833 23 44.5c1.33301 15.333 -2.33398 28.833 -11.001 40.5s-25.334 17.5 -50.001 17.5c-12 0 -22.833 -1.5 -32.5 -4.5
s-18.334 -6.16699 -26.001 -9.5s-14.334 -6.5 -20.001 -9.5s-10.5 -4.5 -14.5 -4.5c-5.33301 0 -9.5 1.5 -12.5 4.5s-5.83301 7.16699 -8.5 12.5z" />
    <glyph glyph-name="f_lacute.liga" unicode="f&#x13a;" horiz-adv-x="1098" 
d="M397 865l-103.004 -832.998l-47 -207c-7.33301 -24 -18.166 -42.5 -32.499 -55.5s-34.166 -19.5 -59.499 -19.5h-70l137 1112l-98 12c-14 3.33301 -24.667 8.16602 -32 14.499s-10.333 16.166 -9 29.499l9 75h146l7 55c6.66699 56 21 109 43 159s51.167 93.667 87.5 131
s79.833 66.833 130.5 88.5s108.334 32.5 173.001 32.5c48 0 93.5 -2 136.5 -6s85.5 -6.33301 127.5 -7h120l-178 -1446h-173l161 1316c-30 2.66699 -60.667 5.66699 -92 9s-61.666 5 -90.999 5c-78 0 -141.167 -24.5 -189.5 -73.5s-77.833 -118.5 -88.5 -208.5l-6 -55h238
l-15 -128h-232zM1412 1852l-331.002 -286c-11.333 -9.33301 -21.166 -15 -29.499 -17s-19.166 -3 -32.499 -3h-116l244 274c12 14.667 23.333 23.667 34 27s26 5 46 5h185z" />
    <glyph glyph-name="t_i.liga" unicode="ti" horiz-adv-x="1146" 
d="M1036 866l-106.001 -865.999h-173l107 866h-473l-62 -500l-8 -66c-2 -16.667 -3.5 -30 -4.5 -40s-1.66699 -17 -2 -21s-0.5 -7 -0.5 -9c0 -34 8 -59.167 24 -75.5s37.667 -24.5 65 -24.5c17.333 0 32.666 2.5 45.999 7.5s24.833 10.5 34.5 16.5s17.834 11.5 24.501 16.5
s12.667 7.5 18 7.5s9.5 -1.33301 12.5 -4s6.16699 -7 9.5 -13l37 -85c-32 -28.667 -68.833 -51.167 -110.5 -67.5s-83.5 -24.5 -125.5 -24.5c-64.667 0 -115.667 17.667 -153 53s-56.666 86.666 -57.999 153.999c0 4 0.166992 9.16699 0.5 15.5s1 15.5 2 27.5
s2.5 27.667 4.5 47s5 44.666 9 75.999l63 509h-110c-10 0 -18 3.33301 -24 10s-8.33301 16.334 -7 29.001l8 68l154 20l76 315c3.33301 10 8.5 18.167 15.5 24.5s15.833 9.5 26.5 9.5h94l-43 -350h644zM1139 1331c0 -17.333 -3.5 -33.4971 -10.5 -48.4971
s-16.333 -28.333 -28 -40s-25 -20.834 -40 -27.501s-30.5 -10 -46.5 -10c-15.333 0 -30.333 3.33301 -45 10s-27.5 15.834 -38.5 27.501s-19.833 25 -26.5 40s-10 31.167 -10 48.5s3.33301 33.666 10 48.999s15.667 28.833 27 40.5s24.333 21 39 28s29.667 10.5 45 10.5
c16 0 31.5 -3.33301 46.5 -10s28.167 -15.834 39.5 -27.501s20.5 -25.334 27.5 -41.001s10.5 -32.167 10.5 -49.5z" />
    <glyph glyph-name="t_igrave.liga" unicode="t&#xec;" horiz-adv-x="1146" 
d="M1036 866l-106.001 -865.999h-173l107 866h-473l-62 -500l-8 -66c-2 -16.667 -3.5 -30 -4.5 -40s-1.66699 -17 -2 -21s-0.5 -7 -0.5 -9c0 -34 8 -59.167 24 -75.5s37.667 -24.5 65 -24.5c17.333 0 32.666 2.5 45.999 7.5s24.833 10.5 34.5 16.5s17.834 11.5 24.501 16.5
s12.667 7.5 18 7.5s9.5 -1.33301 12.5 -4s6.16699 -7 9.5 -13l37 -85c-32 -28.667 -68.833 -51.167 -110.5 -67.5s-83.5 -24.5 -125.5 -24.5c-64.667 0 -115.667 17.667 -153 53s-56.666 86.666 -57.999 153.999c0 4 0.166992 9.16699 0.5 15.5s1 15.5 2 27.5
s2.5 27.667 4.5 47s5 44.666 9 75.999l63 509h-110c-10 0 -18 3.33301 -24 10s-8.33301 16.334 -7 29.001l8 68l154 20l76 315c3.33301 10 8.5 18.167 15.5 24.5s15.833 9.5 26.5 9.5h94l-43 -350h644zM904.999 1449c20 0 34.668 -3.5 44.001 -10.5s17.333 -18.167 24 -33.5
l109 -242h-93c-12.667 0 -22.834 2.16699 -30.501 6.5s-15.167 11.5 -22.5 21.5l-186 258h155z" />
    <glyph glyph-name="t_iacute.liga" unicode="t&#xed;" horiz-adv-x="1146" 
d="M1036 866l-106.001 -865.999h-173l107 866h-473l-62 -500l-8 -66c-2 -16.667 -3.5 -30 -4.5 -40s-1.66699 -17 -2 -21s-0.5 -7 -0.5 -9c0 -34 8 -59.167 24 -75.5s37.667 -24.5 65 -24.5c17.333 0 32.666 2.5 45.999 7.5s24.833 10.5 34.5 16.5s17.834 11.5 24.501 16.5
s12.667 7.5 18 7.5s9.5 -1.33301 12.5 -4s6.16699 -7 9.5 -13l37 -85c-32 -28.667 -68.833 -51.167 -110.5 -67.5s-83.5 -24.5 -125.5 -24.5c-64.667 0 -115.667 17.667 -153 53s-56.666 86.666 -57.999 153.999c0 4 0.166992 9.16699 0.5 15.5s1 15.5 2 27.5
s2.5 27.667 4.5 47s5 44.666 9 75.999l63 509h-110c-10 0 -18 3.33301 -24 10s-8.33301 16.334 -7 29.001l8 68l154 20l76 315c3.33301 10 8.5 18.167 15.5 24.5s15.833 9.5 26.5 9.5h94l-43 -350h644zM1289 1449l-243.999 -258c-9.33301 -10 -18.333 -17.167 -27 -21.5
s-19.334 -6.5 -32.001 -6.5h-98l163 242c10 15.333 20.5 26.5 31.5 33.5s26.5 10.5 46.5 10.5h160z" />
    <glyph glyph-name="t_icircumflex.liga" unicode="t&#xee;" horiz-adv-x="1146" 
d="M1036 866l-106.001 -865.999h-173l107 866h-473l-62 -500l-8 -66c-2 -16.667 -3.5 -30 -4.5 -40s-1.66699 -17 -2 -21s-0.5 -7 -0.5 -9c0 -34 8 -59.167 24 -75.5s37.667 -24.5 65 -24.5c17.333 0 32.666 2.5 45.999 7.5s24.833 10.5 34.5 16.5s17.834 11.5 24.501 16.5
s12.667 7.5 18 7.5s9.5 -1.33301 12.5 -4s6.16699 -7 9.5 -13l37 -85c-32 -28.667 -68.833 -51.167 -110.5 -67.5s-83.5 -24.5 -125.5 -24.5c-64.667 0 -115.667 17.667 -153 53s-56.666 86.666 -57.999 153.999c0 4 0.166992 9.16699 0.5 15.5s1 15.5 2 27.5
s2.5 27.667 4.5 47s5 44.666 9 75.999l63 509h-110c-10 0 -18 3.33301 -24 10s-8.33301 16.334 -7 29.001l8 68l154 20l76 315c3.33301 10 8.5 18.167 15.5 24.5s15.833 9.5 26.5 9.5h94l-43 -350h644zM1281 1169l-109.999 -0.000976562c-6.66699 0 -13.167 1.33301 -19.5 4
s-12.5 7.66699 -18.5 15l-99 132c-2 3.33301 -4.16699 6.5 -6.5 9.5s-4.5 6.16699 -6.5 9.5c-3.33301 -3.33301 -6.33301 -6.66602 -9 -9.99902s-5.33398 -6.33301 -8.00098 -9l-130 -132c-12.667 -12.667 -26.667 -19 -42 -19h-114l235 264h152z" />
    <glyph glyph-name="t_idieresis.liga" unicode="t&#xef;" horiz-adv-x="1146" 
d="M1036 866l-106.001 -865.999h-173l107 866h-473l-62 -500l-8 -66c-2 -16.667 -3.5 -30 -4.5 -40s-1.66699 -17 -2 -21s-0.5 -7 -0.5 -9c0 -34 8 -59.167 24 -75.5s37.667 -24.5 65 -24.5c17.333 0 32.666 2.5 45.999 7.5s24.833 10.5 34.5 16.5s17.834 11.5 24.501 16.5
s12.667 7.5 18 7.5s9.5 -1.33301 12.5 -4s6.16699 -7 9.5 -13l37 -85c-32 -28.667 -68.833 -51.167 -110.5 -67.5s-83.5 -24.5 -125.5 -24.5c-64.667 0 -115.667 17.667 -153 53s-56.666 86.666 -57.999 153.999c0 4 0.166992 9.16699 0.5 15.5s1 15.5 2 27.5
s2.5 27.667 4.5 47s5 44.666 9 75.999l63 509h-110c-10 0 -18 3.33301 -24 10s-8.33301 16.334 -7 29.001l8 68l154 20l76 315c3.33301 10 8.5 18.167 15.5 24.5s15.833 9.5 26.5 9.5h94l-43 -350h644zM992.999 1289c0 -15.333 -3 -29.666 -9 -42.999s-14.333 -25 -25 -35
s-22.834 -18 -36.501 -24s-28.167 -9 -43.5 -9c-14.667 0 -28.667 3 -42 9s-25.166 14 -35.499 24s-18.5 21.667 -24.5 35s-9 27.666 -9 42.999s3 30 9 44s14.167 26.167 24.5 36.5s22.166 18.5 35.499 24.5s27.333 9 42 9c15.333 0 29.833 -3 43.5 -9
s25.834 -14.167 36.501 -24.5s19 -22.5 25 -36.5s9 -28.667 9 -44zM1285 1289c0 -15.333 -3 -29.666 -9 -42.999s-14.167 -25 -24.5 -35s-22.333 -18 -36 -24s-28.167 -9 -43.5 -9s-29.833 3 -43.5 9s-25.5 14 -35.5 24s-18 21.667 -24 35s-9 27.666 -9 42.999s3 30 9 44
s14 26.167 24 36.5s21.833 18.5 35.5 24.5s28.167 9 43.5 9s29.833 -3 43.5 -9s25.667 -14.167 36 -24.5s18.5 -22.5 24.5 -36.5s9 -28.667 9 -44z" />
    <glyph glyph-name="t_imacron.liga" unicode="t&#x12b;" horiz-adv-x="1146" 
d="M1036 866l-106.001 -865.999h-173l107 866h-473l-62 -500l-8 -66c-2 -16.667 -3.5 -30 -4.5 -40s-1.66699 -17 -2 -21s-0.5 -7 -0.5 -9c0 -34 8 -59.167 24 -75.5s37.667 -24.5 65 -24.5c17.333 0 32.666 2.5 45.999 7.5s24.833 10.5 34.5 16.5s17.834 11.5 24.501 16.5
s12.667 7.5 18 7.5s9.5 -1.33301 12.5 -4s6.16699 -7 9.5 -13l37 -85c-32 -28.667 -68.833 -51.167 -110.5 -67.5s-83.5 -24.5 -125.5 -24.5c-64.667 0 -115.667 17.667 -153 53s-56.666 86.666 -57.999 153.999c0 4 0.166992 9.16699 0.5 15.5s1 15.5 2 27.5
s2.5 27.667 4.5 47s5 44.666 9 75.999l63 509h-110c-10 0 -18 3.33301 -24 10s-8.33301 16.334 -7 29.001l8 68l154 20l76 315c3.33301 10 8.5 18.167 15.5 24.5s15.833 9.5 26.5 9.5h94l-43 -350h644zM746.999 1348h528l-13 -117h-529z" />
    <glyph glyph-name="t_itilde.liga" unicode="t&#x129;" horiz-adv-x="1146" 
d="M1036 866l-106.001 -865.999h-173l107 866h-473l-62 -500l-8 -66c-2 -16.667 -3.5 -30 -4.5 -40s-1.66699 -17 -2 -21s-0.5 -7 -0.5 -9c0 -34 8 -59.167 24 -75.5s37.667 -24.5 65 -24.5c17.333 0 32.666 2.5 45.999 7.5s24.833 10.5 34.5 16.5s17.834 11.5 24.501 16.5
s12.667 7.5 18 7.5s9.5 -1.33301 12.5 -4s6.16699 -7 9.5 -13l37 -85c-32 -28.667 -68.833 -51.167 -110.5 -67.5s-83.5 -24.5 -125.5 -24.5c-64.667 0 -115.667 17.667 -153 53s-56.666 86.666 -57.999 153.999c0 4 0.166992 9.16699 0.5 15.5s1 15.5 2 27.5
s2.5 27.667 4.5 47s5 44.666 9 75.999l63 509h-110c-10 0 -18 3.33301 -24 10s-8.33301 16.334 -7 29.001l8 68l154 20l76 315c3.33301 10 8.5 18.167 15.5 24.5s15.833 9.5 26.5 9.5h94l-43 -350h644zM1115 1325c44.667 0 71.002 28.666 79.002 85.999h100
c-3.33301 -31.333 -10.333 -60.166 -21 -86.499s-24.334 -48.833 -41.001 -67.5s-35.5 -33.167 -56.5 -43.5s-43.833 -15.5 -68.5 -15.5c-21.333 0 -40.833 4.83301 -58.5 14.5s-34.167 20.167 -49.5 31.5l-43.5 31.5c-13.667 9.66699 -27.5 14.5 -41.5 14.5
c-44.667 0 -70.667 -29.333 -78 -88h-102c3.33301 32 10.5 61.167 21.5 87.5s24.833 49 41.5 68s35.667 33.667 57 44s44 15.5 68 15.5c22 0 41.667 -4.83301 59 -14.5s33.666 -20.167 48.999 -31.5l43.5 -31.5c13.667 -9.66699 27.5 -14.5 41.5 -14.5z" />
    <glyph glyph-name="t_ibreve.liga" unicode="t&#x12d;" horiz-adv-x="1146" 
d="M1036 866l-106.001 -865.999h-173l107 866h-473l-62 -500l-8 -66c-2 -16.667 -3.5 -30 -4.5 -40s-1.66699 -17 -2 -21s-0.5 -7 -0.5 -9c0 -34 8 -59.167 24 -75.5s37.667 -24.5 65 -24.5c17.333 0 32.666 2.5 45.999 7.5s24.833 10.5 34.5 16.5s17.834 11.5 24.501 16.5
s12.667 7.5 18 7.5s9.5 -1.33301 12.5 -4s6.16699 -7 9.5 -13l37 -85c-32 -28.667 -68.833 -51.167 -110.5 -67.5s-83.5 -24.5 -125.5 -24.5c-64.667 0 -115.667 17.667 -153 53s-56.666 86.666 -57.999 153.999c0 4 0.166992 9.16699 0.5 15.5s1 15.5 2 27.5
s2.5 27.667 4.5 47s5 44.666 9 75.999l63 509h-110c-10 0 -18 3.33301 -24 10s-8.33301 16.334 -7 29.001l8 68l154 20l76 315c3.33301 10 8.5 18.167 15.5 24.5s15.833 9.5 26.5 9.5h94l-43 -350h644zM994.999 1164c-46.667 0 -85.334 7.16699 -116.001 21.5
s-54.5 33.666 -71.5 57.999s-28 52.833 -33 85.5s-5.5 67.334 -1.5 104.001h117c-2.66699 -22 -3 -42.5 -1 -61.5s7.5 -35.167 16.5 -48.5s21.833 -23.833 38.5 -31.5s38 -11.5 64 -11.5s48.167 3.83301 66.5 11.5s33.5 18.167 45.5 31.5s21.167 29.5 27.5 48.5
s10.833 39.5 13.5 61.5h116c-4 -36.667 -12.167 -71.334 -24.5 -104.001s-29.666 -61.167 -51.999 -85.5s-50.5 -43.666 -84.5 -57.999s-74.333 -21.5 -121 -21.5z" />
    <glyph glyph-name="t_uni01D0.liga" unicode="t&#x1d0;" horiz-adv-x="1146" 
d="M1036 866l-106.001 -865.999h-173l107 866h-473l-62 -500l-8 -66c-2 -16.667 -3.5 -30 -4.5 -40s-1.66699 -17 -2 -21s-0.5 -7 -0.5 -9c0 -34 8 -59.167 24 -75.5s37.667 -24.5 65 -24.5c17.333 0 32.666 2.5 45.999 7.5s24.833 10.5 34.5 16.5s17.834 11.5 24.501 16.5
s12.667 7.5 18 7.5s9.5 -1.33301 12.5 -4s6.16699 -7 9.5 -13l37 -85c-32 -28.667 -68.833 -51.167 -110.5 -67.5s-83.5 -24.5 -125.5 -24.5c-64.667 0 -115.667 17.667 -153 53s-56.666 86.666 -57.999 153.999c0 4 0.166992 9.16699 0.5 15.5s1 15.5 2 27.5
s2.5 27.667 4.5 47s5 44.666 9 75.999l63 509h-110c-10 0 -18 3.33301 -24 10s-8.33301 16.334 -7 29.001l8 68l154 20l76 315c3.33301 10 8.5 18.167 15.5 24.5s15.833 9.5 26.5 9.5h94l-43 -350h644zM1296 1433l-234.998 -264h-153l-176 264h114
c7.33301 0 14.166 -1.66699 20.499 -5s11.166 -6.66602 14.499 -9.99902l103 -136c2 -3.33301 4.16699 -6.66602 6.5 -9.99902s4.5 -6.66602 6.5 -9.99902c3.33301 3.33301 6.33301 6.66602 9 9.99902s5.66699 6.66602 9 9.99902l133 136
c4.66699 3.33301 10.5 6.66602 17.5 9.99902s13.833 5 20.5 5h110z" />
    <glyph glyph-name="t_uni1E2D.liga" unicode="t&#x1e2d;" horiz-adv-x="1146" 
d="M1036 866l-106.001 -865.999h-173l107 866h-473l-62 -500l-8 -66c-2 -16.667 -3.5 -30 -4.5 -40s-1.66699 -17 -2 -21s-0.5 -7 -0.5 -9c0 -34 8 -59.167 24 -75.5s37.667 -24.5 65 -24.5c17.333 0 32.666 2.5 45.999 7.5s24.833 10.5 34.5 16.5s17.834 11.5 24.501 16.5
s12.667 7.5 18 7.5s9.5 -1.33301 12.5 -4s6.16699 -7 9.5 -13l37 -85c-32 -28.667 -68.833 -51.167 -110.5 -67.5s-83.5 -24.5 -125.5 -24.5c-64.667 0 -115.667 17.667 -153 53s-56.666 86.666 -57.999 153.999c0 4 0.166992 9.16699 0.5 15.5s1 15.5 2 27.5
s2.5 27.667 4.5 47s5 44.666 9 75.999l63 509h-110c-10 0 -18 3.33301 -24 10s-8.33301 16.334 -7 29.001l8 68l154 20l76 315c3.33301 10 8.5 18.167 15.5 24.5s15.833 9.5 26.5 9.5h94l-43 -350h644zM1127 1331c0 -17.333 -3.5 -33.4971 -10.5 -48.4971
s-16.333 -28.333 -28 -40s-25 -20.834 -40 -27.501s-30.5 -10 -46.5 -10c-15.333 0 -30.333 3.33301 -45 10s-27.5 15.834 -38.5 27.501s-19.833 25 -26.5 40s-10 31.167 -10 48.5s3.33301 33.666 10 48.999s15.667 28.833 27 40.5s24.333 21 39 28s29.667 10.5 45 10.5
c16 0 31.5 -3.33301 46.5 -10s28.167 -15.834 39.5 -27.501s20.5 -25.334 27.5 -41.001s10.5 -32.167 10.5 -49.5zM901.999 -178.996c44.667 0 71.002 28.666 79.002 85.999h100c-3.33301 -31.333 -10.333 -60.166 -21 -86.499s-24.334 -48.833 -41.001 -67.5
s-35.5 -33.167 -56.5 -43.5s-43.833 -15.5 -68.5 -15.5c-21.333 0 -40.833 4.83301 -58.5 14.5s-34.167 20.167 -49.5 31.5l-43.5 31.5c-13.667 9.66699 -27.5 14.5 -41.5 14.5c-44.667 0 -70.667 -29.333 -78 -88h-102c3.33301 32 10.5 61.167 21.5 87.5s24.833 49 41.5 68
s35.667 33.667 57 44s44 15.5 68 15.5c22 0 41.667 -4.83301 59 -14.5s33.666 -20.167 48.999 -31.5l43.5 -31.5c13.667 -9.66699 27.5 -14.5 41.5 -14.5z" />
    <glyph glyph-name="t_uni1E2F.liga" unicode="t&#x1e2f;" horiz-adv-x="1146" 
d="M1036 866l-106.001 -865.999h-173l107 866h-473l-62 -500l-8 -66c-2 -16.667 -3.5 -30 -4.5 -40s-1.66699 -17 -2 -21s-0.5 -7 -0.5 -9c0 -34 8 -59.167 24 -75.5s37.667 -24.5 65 -24.5c17.333 0 32.666 2.5 45.999 7.5s24.833 10.5 34.5 16.5s17.834 11.5 24.501 16.5
s12.667 7.5 18 7.5s9.5 -1.33301 12.5 -4s6.16699 -7 9.5 -13l37 -85c-32 -28.667 -68.833 -51.167 -110.5 -67.5s-83.5 -24.5 -125.5 -24.5c-64.667 0 -115.667 17.667 -153 53s-56.666 86.666 -57.999 153.999c0 4 0.166992 9.16699 0.5 15.5s1 15.5 2 27.5
s2.5 27.667 4.5 47s5 44.666 9 75.999l63 509h-110c-10 0 -18 3.33301 -24 10s-8.33301 16.334 -7 29.001l8 68l154 20l76 315c3.33301 10 8.5 18.167 15.5 24.5s15.833 9.5 26.5 9.5h94l-43 -350h644zM1345 1763l-243.999 -258c-9.33301 -10 -18.333 -17.167 -27 -21.5
s-19.334 -6.5 -32.001 -6.5h-98l163 242c10 15.333 20.5 26.5 31.5 33.5s26.5 10.5 46.5 10.5h160zM943 1289c0 -15.333 -3 -29.666 -9 -42.999s-14.333 -25 -25 -35s-22.834 -18 -36.501 -24s-28.167 -9 -43.5 -9s-29.666 3 -42.999 9s-25.166 14 -35.499 24
s-18.5 21.667 -24.5 35s-9 27.666 -9 42.999s3 30 9 44s14.167 26.167 24.5 36.5s22.166 18.5 35.499 24.5s27.666 9 42.999 9s29.833 -3 43.5 -9s25.834 -14.167 36.501 -24.5s19 -22.5 25 -36.5s9 -28.667 9 -44zM1304 1289c0 -15.333 -3 -29.666 -9 -42.999
s-14.167 -25 -24.5 -35s-22.333 -18 -36 -24s-28.167 -9 -43.5 -9s-29.833 3 -43.5 9s-25.667 14 -36 24s-18.5 21.667 -24.5 35s-9 27.666 -9 42.999s3 30 9 44s14.167 26.167 24.5 36.5s22.333 18.5 36 24.5s28.167 9 43.5 9s29.833 -3 43.5 -9s25.667 -14.167 36 -24.5
s18.5 -22.5 24.5 -36.5s9 -28.667 9 -44z" />
    <glyph glyph-name="t_uni0268.liga" unicode="t&#x268;" horiz-adv-x="1182" 
d="M998 1205c-15.333 0 -30.333 3.33594 -45 10.0029s-27.5 15.834 -38.5 27.501s-19.833 25 -26.5 40s-10 31.167 -10 48.5s3.33301 33.666 10 48.999s15.667 28.833 27 40.5s24.333 21 39 28s29.667 10.5 45 10.5c16 0 31.5 -3.33301 46.5 -10
s28.167 -15.834 39.5 -27.501s20.5 -25.334 27.5 -41.001s10.5 -32.167 10.5 -49.5s-3.5 -33.5 -10.5 -48.5s-16.333 -28.333 -28 -40s-25 -20.834 -40 -27.501s-30.5 -10 -46.5 -10zM1127 438.003l-143.001 0.000976562l-54 -438h-173l54 438h-135l15 126h136l37 302h-473
l-62 -500l-8 -66c-2 -16.667 -3.5 -30 -4.5 -40s-1.66699 -17 -2 -21s-0.5 -7 -0.5 -9c0 -34 8 -59.167 24 -75.5s37.667 -24.5 65 -24.5c17.333 0 32.666 2.5 45.999 7.5s24.833 10.5 34.5 16.5s17.834 11.5 24.501 16.5s12.667 7.5 18 7.5s9.5 -1.33301 12.5 -4
s6.16699 -7 9.5 -13l37 -85c-32 -28.667 -68.833 -51.167 -110.5 -67.5s-83.5 -24.5 -125.5 -24.5c-64.667 0 -115.667 17.667 -153 53s-56.666 86.666 -57.999 153.999c0 4 0.166992 9.16699 0.5 15.5s1 15.5 2 27.5s2.5 27.667 4.5 47s5 44.666 9 75.999l63 509h-110
c-10 0 -18 3.33301 -24 10s-8.33301 16.334 -7 29.001l8 68l154 20l76 315c3.33301 10 8.5 18.167 15.5 24.5s15.833 9.5 26.5 9.5h94l-43 -350h644l-15 -126l-37 -302h144z" />
    <glyph glyph-name="t_uni020B.liga" unicode="t&#x20b;" horiz-adv-x="1146" 
d="M1036 866l-106.001 -865.999h-173l107 866h-473l-62 -500l-8 -66c-2 -16.667 -3.5 -30 -4.5 -40s-1.66699 -17 -2 -21s-0.5 -7 -0.5 -9c0 -34 8 -59.167 24 -75.5s37.667 -24.5 65 -24.5c17.333 0 32.666 2.5 45.999 7.5s24.833 10.5 34.5 16.5s17.834 11.5 24.501 16.5
s12.667 7.5 18 7.5s9.5 -1.33301 12.5 -4s6.16699 -7 9.5 -13l37 -85c-32 -28.667 -68.833 -51.167 -110.5 -67.5s-83.5 -24.5 -125.5 -24.5c-64.667 0 -115.667 17.667 -153 53s-56.666 86.666 -57.999 153.999c0 4 0.166992 9.16699 0.5 15.5s1 15.5 2 27.5
s2.5 27.667 4.5 47s5 44.666 9 75.999l63 509h-110c-10 0 -18 3.33301 -24 10s-8.33301 16.334 -7 29.001l8 68l154 20l76 315c3.33301 10 8.5 18.167 15.5 24.5s15.833 9.5 26.5 9.5h94l-43 -350h644zM1016 1448c46.667 0 85.3301 -7.16699 115.997 -21.5
s54.5 -33.833 71.5 -58.5s28 -53.167 33 -85.5s5.5 -66.833 1.5 -103.5h-116c2.66699 22 2.83398 42.5 0.500977 61.5s-8 35.167 -17 48.5s-21.833 23.833 -38.5 31.5s-38 11.5 -64 11.5s-48.167 -3.83301 -66.5 -11.5s-33.5 -18.167 -45.5 -31.5s-21.167 -29.5 -27.5 -48.5
s-10.833 -39.5 -13.5 -61.5h-116c4 36.667 12.167 71.167 24.5 103.5s29.833 60.833 52.5 85.5s50.834 44.167 84.501 58.5s73.834 21.5 120.501 21.5z" />
    <glyph glyph-name="t_uni0209.liga" unicode="t&#x209;" horiz-adv-x="1146" 
d="M1036 866l-106.001 -865.999h-173l107 866h-473l-62 -500l-8 -66c-2 -16.667 -3.5 -30 -4.5 -40s-1.66699 -17 -2 -21s-0.5 -7 -0.5 -9c0 -34 8 -59.167 24 -75.5s37.667 -24.5 65 -24.5c17.333 0 32.666 2.5 45.999 7.5s24.833 10.5 34.5 16.5s17.834 11.5 24.501 16.5
s12.667 7.5 18 7.5s9.5 -1.33301 12.5 -4s6.16699 -7 9.5 -13l37 -85c-32 -28.667 -68.833 -51.167 -110.5 -67.5s-83.5 -24.5 -125.5 -24.5c-64.667 0 -115.667 17.667 -153 53s-56.666 86.666 -57.999 153.999c0 4 0.166992 9.16699 0.5 15.5s1 15.5 2 27.5
s2.5 27.667 4.5 47s5 44.666 9 75.999l63 509h-110c-10 0 -18 3.33301 -24 10s-8.33301 16.334 -7 29.001l8 68l154 20l76 315c3.33301 10 8.5 18.167 15.5 24.5s15.833 9.5 26.5 9.5h94l-43 -350h644zM1018 1449c20 0 34.833 -3.5 44.5 -10.5s17.5 -18.167 23.5 -33.5
l100 -242h-69c-12.667 0 -23.167 2 -31.5 6s-15.5 11.333 -21.5 22l-154 258h108zM740.999 1449c20.667 0 35.333 -3.66699 44 -11s16.667 -18.333 24 -33l138 -242h-78c-13.333 0 -23.833 2.16699 -31.5 6.5s-15.167 11.5 -22.5 21.5l-194 258h120z" />
    <glyph glyph-name="t_t_i.liga" unicode="tti" horiz-adv-x="1727" 
d="M1510 0l-172.002 0.00292969l107 866h-455l-61 -500l-8 -66c-2 -16.667 -3.5 -30 -4.5 -40s-1.66699 -17 -2 -21s-0.5 -7 -0.5 -9c0 -34 7.83301 -59.167 23.5 -75.5s37.167 -24.5 64.5 -24.5c17.333 0 32.666 2.5 45.999 7.5s24.833 10.5 34.5 16.5
s17.834 11.5 24.501 16.5s12.667 7.5 18 7.5c10 0 17.333 -5.66699 22 -17l37 -85c-32 -28.667 -68.833 -51.167 -110.5 -67.5s-83.5 -24.5 -125.5 -24.5c-64.667 0 -115.667 17.667 -153 53s-56.666 86.666 -57.999 153.999c0 4 0.166992 9.16699 0.5 15.5s1 15.5 2 27.5
s2.5 27.667 4.5 47s5 44.666 9 75.999l63 509h-425l-62 -500l-8 -66c-2 -16.667 -3.5 -30 -4.5 -40s-1.66699 -17 -2 -21s-0.5 -7 -0.5 -9c0 -34 8 -59.167 24 -75.5s37.667 -24.5 65 -24.5c17.333 0 32.666 2.5 45.999 7.5s24.833 10.5 34.5 16.5s17.834 11.5 24.501 16.5
s12.667 7.5 18 7.5s9.5 -1.33301 12.5 -4s6.16699 -7 9.5 -13l37 -85c-32 -28.667 -68.833 -51.167 -110.5 -67.5s-83.5 -24.5 -125.5 -24.5c-64.667 0 -115.667 17.667 -153 53s-56.666 86.666 -57.999 153.999c0 4 0.166992 9.16699 0.5 15.5s1 15.5 2 27.5
s2.5 27.667 4.5 47s5 44.666 9 75.999l63 509h-110c-10 0 -18 3.33301 -24 10s-8.33301 16.334 -7 29.001l8 68l154 20l76 315c3.33301 10 8.5 18.167 15.5 24.5s15.833 9.5 26.5 9.5h94l-43 -350h430l76 316c3.33301 10 8.5 18.167 15.5 24.5s15.833 9.5 26.5 9.5h94
l-43 -350h626zM1710 1331c0 -17.333 -3.5 -33.4971 -10.5 -48.4971s-16.333 -28.333 -28 -40s-25 -20.834 -40 -27.501s-30.5 -10 -46.5 -10c-15.333 0 -30.333 3.33301 -45 10s-27.5 15.834 -38.5 27.501s-19.833 25 -26.5 40s-10 31.167 -10 48.5
s3.33301 33.666 10 48.999s15.667 28.833 27 40.5s24.333 21 39 28s29.667 10.5 45 10.5c16 0 31.5 -3.33301 46.5 -10s28.167 -15.834 39.5 -27.501s20.5 -25.334 27.5 -41.001s10.5 -32.167 10.5 -49.5z" />
    <glyph glyph-name="t_t_igrave.liga" unicode="tt&#xec;" horiz-adv-x="1726" 
d="M1510 0l-172.002 0.00292969l107 866h-455l-61 -500l-8 -66c-2 -16.667 -3.5 -30 -4.5 -40s-1.66699 -17 -2 -21s-0.5 -7 -0.5 -9c0 -34 7.83301 -59.167 23.5 -75.5s37.167 -24.5 64.5 -24.5c17.333 0 32.666 2.5 45.999 7.5s24.833 10.5 34.5 16.5
s17.834 11.5 24.501 16.5s12.667 7.5 18 7.5c10 0 17.333 -5.66699 22 -17l37 -85c-32 -28.667 -68.833 -51.167 -110.5 -67.5s-83.5 -24.5 -125.5 -24.5c-64.667 0 -115.667 17.667 -153 53s-56.666 86.666 -57.999 153.999c0 4 0.166992 9.16699 0.5 15.5s1 15.5 2 27.5
s2.5 27.667 4.5 47s5 44.666 9 75.999l63 509h-425l-62 -500l-8 -66c-2 -16.667 -3.5 -30 -4.5 -40s-1.66699 -17 -2 -21s-0.5 -7 -0.5 -9c0 -34 8 -59.167 24 -75.5s37.667 -24.5 65 -24.5c17.333 0 32.666 2.5 45.999 7.5s24.833 10.5 34.5 16.5s17.834 11.5 24.501 16.5
s12.667 7.5 18 7.5s9.5 -1.33301 12.5 -4s6.16699 -7 9.5 -13l37 -85c-32 -28.667 -68.833 -51.167 -110.5 -67.5s-83.5 -24.5 -125.5 -24.5c-64.667 0 -115.667 17.667 -153 53s-56.666 86.666 -57.999 153.999c0 4 0.166992 9.16699 0.5 15.5s1 15.5 2 27.5
s2.5 27.667 4.5 47s5 44.666 9 75.999l63 509h-110c-10 0 -18 3.33301 -24 10s-8.33301 16.334 -7 29.001l8 68l154 20l76 315c3.33301 10 8.5 18.167 15.5 24.5s15.833 9.5 26.5 9.5h94l-43 -350h430l76 316c3.33301 10 8.5 18.167 15.5 24.5s15.833 9.5 26.5 9.5h94
l-43 -350h626zM1482 1449c20 0 34.668 -3.5 44.001 -10.5s17.333 -18.167 24 -33.5l109 -242h-93c-12.667 0 -22.834 2.16699 -30.501 6.5s-15.167 11.5 -22.5 21.5l-186 258h155z" />
    <glyph glyph-name="t_t_iacute.liga" unicode="tt&#xed;" horiz-adv-x="1726" 
d="M1510 0l-172.002 0.00292969l107 866h-455l-61 -500l-8 -66c-2 -16.667 -3.5 -30 -4.5 -40s-1.66699 -17 -2 -21s-0.5 -7 -0.5 -9c0 -34 7.83301 -59.167 23.5 -75.5s37.167 -24.5 64.5 -24.5c17.333 0 32.666 2.5 45.999 7.5s24.833 10.5 34.5 16.5
s17.834 11.5 24.501 16.5s12.667 7.5 18 7.5c10 0 17.333 -5.66699 22 -17l37 -85c-32 -28.667 -68.833 -51.167 -110.5 -67.5s-83.5 -24.5 -125.5 -24.5c-64.667 0 -115.667 17.667 -153 53s-56.666 86.666 -57.999 153.999c0 4 0.166992 9.16699 0.5 15.5s1 15.5 2 27.5
s2.5 27.667 4.5 47s5 44.666 9 75.999l63 509h-425l-62 -500l-8 -66c-2 -16.667 -3.5 -30 -4.5 -40s-1.66699 -17 -2 -21s-0.5 -7 -0.5 -9c0 -34 8 -59.167 24 -75.5s37.667 -24.5 65 -24.5c17.333 0 32.666 2.5 45.999 7.5s24.833 10.5 34.5 16.5s17.834 11.5 24.501 16.5
s12.667 7.5 18 7.5s9.5 -1.33301 12.5 -4s6.16699 -7 9.5 -13l37 -85c-32 -28.667 -68.833 -51.167 -110.5 -67.5s-83.5 -24.5 -125.5 -24.5c-64.667 0 -115.667 17.667 -153 53s-56.666 86.666 -57.999 153.999c0 4 0.166992 9.16699 0.5 15.5s1 15.5 2 27.5
s2.5 27.667 4.5 47s5 44.666 9 75.999l63 509h-110c-10 0 -18 3.33301 -24 10s-8.33301 16.334 -7 29.001l8 68l154 20l76 315c3.33301 10 8.5 18.167 15.5 24.5s15.833 9.5 26.5 9.5h94l-43 -350h430l76 316c3.33301 10 8.5 18.167 15.5 24.5s15.833 9.5 26.5 9.5h94
l-43 -350h626zM1875 1449l-243.999 -258c-9.33301 -10 -18.333 -17.167 -27 -21.5s-19.334 -6.5 -32.001 -6.5h-98l163 242c10 15.333 20.5 26.5 31.5 33.5s26.5 10.5 46.5 10.5h160z" />
    <glyph glyph-name="t_t_icircumflex.liga" unicode="tt&#xee;" horiz-adv-x="1726" 
d="M1510 0l-172.002 0.00292969l107 866h-455l-61 -500l-8 -66c-2 -16.667 -3.5 -30 -4.5 -40s-1.66699 -17 -2 -21s-0.5 -7 -0.5 -9c0 -34 7.83301 -59.167 23.5 -75.5s37.167 -24.5 64.5 -24.5c17.333 0 32.666 2.5 45.999 7.5s24.833 10.5 34.5 16.5
s17.834 11.5 24.501 16.5s12.667 7.5 18 7.5c10 0 17.333 -5.66699 22 -17l37 -85c-32 -28.667 -68.833 -51.167 -110.5 -67.5s-83.5 -24.5 -125.5 -24.5c-64.667 0 -115.667 17.667 -153 53s-56.666 86.666 -57.999 153.999c0 4 0.166992 9.16699 0.5 15.5s1 15.5 2 27.5
s2.5 27.667 4.5 47s5 44.666 9 75.999l63 509h-425l-62 -500l-8 -66c-2 -16.667 -3.5 -30 -4.5 -40s-1.66699 -17 -2 -21s-0.5 -7 -0.5 -9c0 -34 8 -59.167 24 -75.5s37.667 -24.5 65 -24.5c17.333 0 32.666 2.5 45.999 7.5s24.833 10.5 34.5 16.5s17.834 11.5 24.501 16.5
s12.667 7.5 18 7.5s9.5 -1.33301 12.5 -4s6.16699 -7 9.5 -13l37 -85c-32 -28.667 -68.833 -51.167 -110.5 -67.5s-83.5 -24.5 -125.5 -24.5c-64.667 0 -115.667 17.667 -153 53s-56.666 86.666 -57.999 153.999c0 4 0.166992 9.16699 0.5 15.5s1 15.5 2 27.5
s2.5 27.667 4.5 47s5 44.666 9 75.999l63 509h-110c-10 0 -18 3.33301 -24 10s-8.33301 16.334 -7 29.001l8 68l154 20l76 315c3.33301 10 8.5 18.167 15.5 24.5s15.833 9.5 26.5 9.5h94l-43 -350h430l76 316c3.33301 10 8.5 18.167 15.5 24.5s15.833 9.5 26.5 9.5h94
l-43 -350h626zM1848 1169l-109.999 -0.000976562c-6.66699 0 -13.167 1.33301 -19.5 4s-12.5 7.66699 -18.5 15l-99 132c-2 3.33301 -4.16699 6.5 -6.5 9.5s-4.5 6.16699 -6.5 9.5c-3.33301 -3.33301 -6.33301 -6.66602 -9 -9.99902s-5.33398 -6.33301 -8.00098 -9
l-130 -132c-12.667 -12.667 -26.667 -19 -42 -19h-114l235 264h152z" />
    <glyph glyph-name="t_t_idieresis.liga" unicode="tt&#xef;" horiz-adv-x="1726" 
d="M1510 0l-172.002 0.00292969l107 866h-455l-61 -500l-8 -66c-2 -16.667 -3.5 -30 -4.5 -40s-1.66699 -17 -2 -21s-0.5 -7 -0.5 -9c0 -34 7.83301 -59.167 23.5 -75.5s37.167 -24.5 64.5 -24.5c17.333 0 32.666 2.5 45.999 7.5s24.833 10.5 34.5 16.5
s17.834 11.5 24.501 16.5s12.667 7.5 18 7.5c10 0 17.333 -5.66699 22 -17l37 -85c-32 -28.667 -68.833 -51.167 -110.5 -67.5s-83.5 -24.5 -125.5 -24.5c-64.667 0 -115.667 17.667 -153 53s-56.666 86.666 -57.999 153.999c0 4 0.166992 9.16699 0.5 15.5s1 15.5 2 27.5
s2.5 27.667 4.5 47s5 44.666 9 75.999l63 509h-425l-62 -500l-8 -66c-2 -16.667 -3.5 -30 -4.5 -40s-1.66699 -17 -2 -21s-0.5 -7 -0.5 -9c0 -34 8 -59.167 24 -75.5s37.667 -24.5 65 -24.5c17.333 0 32.666 2.5 45.999 7.5s24.833 10.5 34.5 16.5s17.834 11.5 24.501 16.5
s12.667 7.5 18 7.5s9.5 -1.33301 12.5 -4s6.16699 -7 9.5 -13l37 -85c-32 -28.667 -68.833 -51.167 -110.5 -67.5s-83.5 -24.5 -125.5 -24.5c-64.667 0 -115.667 17.667 -153 53s-56.666 86.666 -57.999 153.999c0 4 0.166992 9.16699 0.5 15.5s1 15.5 2 27.5
s2.5 27.667 4.5 47s5 44.666 9 75.999l63 509h-110c-10 0 -18 3.33301 -24 10s-8.33301 16.334 -7 29.001l8 68l154 20l76 315c3.33301 10 8.5 18.167 15.5 24.5s15.833 9.5 26.5 9.5h94l-43 -350h430l76 316c3.33301 10 8.5 18.167 15.5 24.5s15.833 9.5 26.5 9.5h94
l-43 -350h626zM1565 1289c0 -15.333 -3 -29.666 -9 -42.999s-14.333 -25 -25 -35s-22.834 -18 -36.501 -24s-28.167 -9 -43.5 -9c-14.667 0 -28.667 3 -42 9s-25.166 14 -35.499 24s-18.5 21.667 -24.5 35s-9 27.666 -9 42.999s3 30 9 44s14.167 26.167 24.5 36.5
s22.166 18.5 35.499 24.5s27.333 9 42 9c15.333 0 29.833 -3 43.5 -9s25.834 -14.167 36.501 -24.5s19 -22.5 25 -36.5s9 -28.667 9 -44zM1857 1289c0 -15.333 -3 -29.666 -9 -42.999s-14.167 -25 -24.5 -35s-22.333 -18 -36 -24s-28.167 -9 -43.5 -9s-29.833 3 -43.5 9
s-25.5 14 -35.5 24s-18 21.667 -24 35s-9 27.666 -9 42.999s3 30 9 44s14 26.167 24 36.5s21.833 18.5 35.5 24.5s28.167 9 43.5 9s29.833 -3 43.5 -9s25.667 -14.167 36 -24.5s18.5 -22.5 24.5 -36.5s9 -28.667 9 -44z" />
    <glyph glyph-name="t_t_imacron.liga" unicode="tt&#x12b;" horiz-adv-x="1726" 
d="M1510 0l-172.002 0.00292969l107 866h-455l-61 -500l-8 -66c-2 -16.667 -3.5 -30 -4.5 -40s-1.66699 -17 -2 -21s-0.5 -7 -0.5 -9c0 -34 7.83301 -59.167 23.5 -75.5s37.167 -24.5 64.5 -24.5c17.333 0 32.666 2.5 45.999 7.5s24.833 10.5 34.5 16.5
s17.834 11.5 24.501 16.5s12.667 7.5 18 7.5c10 0 17.333 -5.66699 22 -17l37 -85c-32 -28.667 -68.833 -51.167 -110.5 -67.5s-83.5 -24.5 -125.5 -24.5c-64.667 0 -115.667 17.667 -153 53s-56.666 86.666 -57.999 153.999c0 4 0.166992 9.16699 0.5 15.5s1 15.5 2 27.5
s2.5 27.667 4.5 47s5 44.666 9 75.999l63 509h-425l-62 -500l-8 -66c-2 -16.667 -3.5 -30 -4.5 -40s-1.66699 -17 -2 -21s-0.5 -7 -0.5 -9c0 -34 8 -59.167 24 -75.5s37.667 -24.5 65 -24.5c17.333 0 32.666 2.5 45.999 7.5s24.833 10.5 34.5 16.5s17.834 11.5 24.501 16.5
s12.667 7.5 18 7.5s9.5 -1.33301 12.5 -4s6.16699 -7 9.5 -13l37 -85c-32 -28.667 -68.833 -51.167 -110.5 -67.5s-83.5 -24.5 -125.5 -24.5c-64.667 0 -115.667 17.667 -153 53s-56.666 86.666 -57.999 153.999c0 4 0.166992 9.16699 0.5 15.5s1 15.5 2 27.5
s2.5 27.667 4.5 47s5 44.666 9 75.999l63 509h-110c-10 0 -18 3.33301 -24 10s-8.33301 16.334 -7 29.001l8 68l154 20l76 315c3.33301 10 8.5 18.167 15.5 24.5s15.833 9.5 26.5 9.5h94l-43 -350h430l76 316c3.33301 10 8.5 18.167 15.5 24.5s15.833 9.5 26.5 9.5h94
l-43 -350h626zM1328 1348h528l-13 -117h-529z" />
    <glyph glyph-name="t_t_itilde.liga" unicode="tt&#x129;" horiz-adv-x="1726" 
d="M1510 0l-172.002 0.00292969l107 866h-455l-61 -500l-8 -66c-2 -16.667 -3.5 -30 -4.5 -40s-1.66699 -17 -2 -21s-0.5 -7 -0.5 -9c0 -34 7.83301 -59.167 23.5 -75.5s37.167 -24.5 64.5 -24.5c17.333 0 32.666 2.5 45.999 7.5s24.833 10.5 34.5 16.5
s17.834 11.5 24.501 16.5s12.667 7.5 18 7.5c10 0 17.333 -5.66699 22 -17l37 -85c-32 -28.667 -68.833 -51.167 -110.5 -67.5s-83.5 -24.5 -125.5 -24.5c-64.667 0 -115.667 17.667 -153 53s-56.666 86.666 -57.999 153.999c0 4 0.166992 9.16699 0.5 15.5s1 15.5 2 27.5
s2.5 27.667 4.5 47s5 44.666 9 75.999l63 509h-425l-62 -500l-8 -66c-2 -16.667 -3.5 -30 -4.5 -40s-1.66699 -17 -2 -21s-0.5 -7 -0.5 -9c0 -34 8 -59.167 24 -75.5s37.667 -24.5 65 -24.5c17.333 0 32.666 2.5 45.999 7.5s24.833 10.5 34.5 16.5s17.834 11.5 24.501 16.5
s12.667 7.5 18 7.5s9.5 -1.33301 12.5 -4s6.16699 -7 9.5 -13l37 -85c-32 -28.667 -68.833 -51.167 -110.5 -67.5s-83.5 -24.5 -125.5 -24.5c-64.667 0 -115.667 17.667 -153 53s-56.666 86.666 -57.999 153.999c0 4 0.166992 9.16699 0.5 15.5s1 15.5 2 27.5
s2.5 27.667 4.5 47s5 44.666 9 75.999l63 509h-110c-10 0 -18 3.33301 -24 10s-8.33301 16.334 -7 29.001l8 68l154 20l76 315c3.33301 10 8.5 18.167 15.5 24.5s15.833 9.5 26.5 9.5h94l-43 -350h430l76 316c3.33301 10 8.5 18.167 15.5 24.5s15.833 9.5 26.5 9.5h94
l-43 -350h626zM1686 1325c44.667 0 71.002 28.666 79.002 85.999h100c-3.33301 -31.333 -10.333 -60.166 -21 -86.499s-24.334 -48.833 -41.001 -67.5s-35.5 -33.167 -56.5 -43.5s-43.833 -15.5 -68.5 -15.5c-21.333 0 -40.833 4.83301 -58.5 14.5
s-34.167 20.167 -49.5 31.5l-43.5 31.5c-13.667 9.66699 -27.5 14.5 -41.5 14.5c-44.667 0 -70.667 -29.333 -78 -88h-102c3.33301 32 10.5 61.167 21.5 87.5s24.833 49 41.5 68s35.667 33.667 57 44s44 15.5 68 15.5c22 0 41.667 -4.83301 59 -14.5
s33.666 -20.167 48.999 -31.5l43.5 -31.5c13.667 -9.66699 27.5 -14.5 41.5 -14.5z" />
    <glyph glyph-name="t_t_ibreve.liga" unicode="tt&#x12d;" horiz-adv-x="1727" 
d="M1510 0l-172.002 0.00292969l107 866h-455l-61 -500l-8 -66c-2 -16.667 -3.5 -30 -4.5 -40s-1.66699 -17 -2 -21s-0.5 -7 -0.5 -9c0 -34 7.83301 -59.167 23.5 -75.5s37.167 -24.5 64.5 -24.5c17.333 0 32.666 2.5 45.999 7.5s24.833 10.5 34.5 16.5
s17.834 11.5 24.501 16.5s12.667 7.5 18 7.5c10 0 17.333 -5.66699 22 -17l37 -85c-32 -28.667 -68.833 -51.167 -110.5 -67.5s-83.5 -24.5 -125.5 -24.5c-64.667 0 -115.667 17.667 -153 53s-56.666 86.666 -57.999 153.999c0 4 0.166992 9.16699 0.5 15.5s1 15.5 2 27.5
s2.5 27.667 4.5 47s5 44.666 9 75.999l63 509h-425l-62 -500l-8 -66c-2 -16.667 -3.5 -30 -4.5 -40s-1.66699 -17 -2 -21s-0.5 -7 -0.5 -9c0 -34 8 -59.167 24 -75.5s37.667 -24.5 65 -24.5c17.333 0 32.666 2.5 45.999 7.5s24.833 10.5 34.5 16.5s17.834 11.5 24.501 16.5
s12.667 7.5 18 7.5s9.5 -1.33301 12.5 -4s6.16699 -7 9.5 -13l37 -85c-32 -28.667 -68.833 -51.167 -110.5 -67.5s-83.5 -24.5 -125.5 -24.5c-64.667 0 -115.667 17.667 -153 53s-56.666 86.666 -57.999 153.999c0 4 0.166992 9.16699 0.5 15.5s1 15.5 2 27.5
s2.5 27.667 4.5 47s5 44.666 9 75.999l63 509h-110c-10 0 -18 3.33301 -24 10s-8.33301 16.334 -7 29.001l8 68l154 20l76 315c3.33301 10 8.5 18.167 15.5 24.5s15.833 9.5 26.5 9.5h94l-43 -350h430l76 316c3.33301 10 8.5 18.167 15.5 24.5s15.833 9.5 26.5 9.5h94
l-43 -350h626zM1582 1164c-46.667 0 -85.334 7.16699 -116.001 21.5s-54.5 33.666 -71.5 57.999s-28 52.833 -33 85.5s-5.5 67.334 -1.5 104.001h117c-2.66699 -22 -3 -42.5 -1 -61.5s7.5 -35.167 16.5 -48.5s21.833 -23.833 38.5 -31.5s38 -11.5 64 -11.5
s48.167 3.83301 66.5 11.5s33.5 18.167 45.5 31.5s21.167 29.5 27.5 48.5s10.833 39.5 13.5 61.5h116c-4 -36.667 -12.167 -71.334 -24.5 -104.001s-29.666 -61.167 -51.999 -85.5s-50.5 -43.666 -84.5 -57.999s-74.333 -21.5 -121 -21.5z" />
    <glyph glyph-name="t_t_uni01D0.liga" unicode="tt&#x1d0;" horiz-adv-x="1726" 
d="M1510 0l-172.002 0.00292969l107 866h-455l-61 -500l-8 -66c-2 -16.667 -3.5 -30 -4.5 -40s-1.66699 -17 -2 -21s-0.5 -7 -0.5 -9c0 -34 7.83301 -59.167 23.5 -75.5s37.167 -24.5 64.5 -24.5c17.333 0 32.666 2.5 45.999 7.5s24.833 10.5 34.5 16.5
s17.834 11.5 24.501 16.5s12.667 7.5 18 7.5c10 0 17.333 -5.66699 22 -17l37 -85c-32 -28.667 -68.833 -51.167 -110.5 -67.5s-83.5 -24.5 -125.5 -24.5c-64.667 0 -115.667 17.667 -153 53s-56.666 86.666 -57.999 153.999c0 4 0.166992 9.16699 0.5 15.5s1 15.5 2 27.5
s2.5 27.667 4.5 47s5 44.666 9 75.999l63 509h-425l-62 -500l-8 -66c-2 -16.667 -3.5 -30 -4.5 -40s-1.66699 -17 -2 -21s-0.5 -7 -0.5 -9c0 -34 8 -59.167 24 -75.5s37.667 -24.5 65 -24.5c17.333 0 32.666 2.5 45.999 7.5s24.833 10.5 34.5 16.5s17.834 11.5 24.501 16.5
s12.667 7.5 18 7.5s9.5 -1.33301 12.5 -4s6.16699 -7 9.5 -13l37 -85c-32 -28.667 -68.833 -51.167 -110.5 -67.5s-83.5 -24.5 -125.5 -24.5c-64.667 0 -115.667 17.667 -153 53s-56.666 86.666 -57.999 153.999c0 4 0.166992 9.16699 0.5 15.5s1 15.5 2 27.5
s2.5 27.667 4.5 47s5 44.666 9 75.999l63 509h-110c-10 0 -18 3.33301 -24 10s-8.33301 16.334 -7 29.001l8 68l154 20l76 315c3.33301 10 8.5 18.167 15.5 24.5s15.833 9.5 26.5 9.5h94l-43 -350h430l76 316c3.33301 10 8.5 18.167 15.5 24.5s15.833 9.5 26.5 9.5h94
l-43 -350h626zM1883 1433l-234.998 -264h-153l-176 264h114c7.33301 0 14.166 -1.66699 20.499 -5s11.166 -6.66602 14.499 -9.99902l103 -136c2 -3.33301 4.16699 -6.66602 6.5 -9.99902s4.5 -6.66602 6.5 -9.99902c3.33301 3.33301 6.33301 6.66602 9 9.99902
s5.66699 6.66602 9 9.99902l133 136c4.66699 3.33301 10.5 6.66602 17.5 9.99902s13.833 5 20.5 5h110z" />
    <glyph glyph-name="t_t_uni1E2D.liga" unicode="tt&#x1e2d;" horiz-adv-x="1727" 
d="M1510 0l-172.002 0.00292969l107 866h-455l-61 -500l-8 -66c-2 -16.667 -3.5 -30 -4.5 -40s-1.66699 -17 -2 -21s-0.5 -7 -0.5 -9c0 -34 7.83301 -59.167 23.5 -75.5s37.167 -24.5 64.5 -24.5c17.333 0 32.666 2.5 45.999 7.5s24.833 10.5 34.5 16.5
s17.834 11.5 24.501 16.5s12.667 7.5 18 7.5c10 0 17.333 -5.66699 22 -17l37 -85c-32 -28.667 -68.833 -51.167 -110.5 -67.5s-83.5 -24.5 -125.5 -24.5c-64.667 0 -115.667 17.667 -153 53s-56.666 86.666 -57.999 153.999c0 4 0.166992 9.16699 0.5 15.5s1 15.5 2 27.5
s2.5 27.667 4.5 47s5 44.666 9 75.999l63 509h-425l-62 -500l-8 -66c-2 -16.667 -3.5 -30 -4.5 -40s-1.66699 -17 -2 -21s-0.5 -7 -0.5 -9c0 -34 8 -59.167 24 -75.5s37.667 -24.5 65 -24.5c17.333 0 32.666 2.5 45.999 7.5s24.833 10.5 34.5 16.5s17.834 11.5 24.501 16.5
s12.667 7.5 18 7.5s9.5 -1.33301 12.5 -4s6.16699 -7 9.5 -13l37 -85c-32 -28.667 -68.833 -51.167 -110.5 -67.5s-83.5 -24.5 -125.5 -24.5c-64.667 0 -115.667 17.667 -153 53s-56.666 86.666 -57.999 153.999c0 4 0.166992 9.16699 0.5 15.5s1 15.5 2 27.5
s2.5 27.667 4.5 47s5 44.666 9 75.999l63 509h-110c-10 0 -18 3.33301 -24 10s-8.33301 16.334 -7 29.001l8 68l154 20l76 315c3.33301 10 8.5 18.167 15.5 24.5s15.833 9.5 26.5 9.5h94l-43 -350h430l76 316c3.33301 10 8.5 18.167 15.5 24.5s15.833 9.5 26.5 9.5h94
l-43 -350h626zM1480 -178.997c44.667 0 71.002 28.666 79.002 85.999h100c-3.33301 -31.333 -10.333 -60.166 -21 -86.499s-24.334 -48.833 -41.001 -67.5s-35.5 -33.167 -56.5 -43.5s-43.833 -15.5 -68.5 -15.5c-21.333 0 -40.833 4.83301 -58.5 14.5
s-34.167 20.167 -49.5 31.5l-43.5 31.5c-13.667 9.66699 -27.5 14.5 -41.5 14.5c-44.667 0 -70.667 -29.333 -78 -88h-102c3.33301 32 10.5 61.167 21.5 87.5s24.833 49 41.5 68s35.667 33.667 57 44s44 15.5 68 15.5c22 0 41.667 -4.83301 59 -14.5
s33.666 -20.167 48.999 -31.5l43.5 -31.5c13.667 -9.66699 27.5 -14.5 41.5 -14.5zM1700 1331c0 -17.333 -3.5 -33.4971 -10.5 -48.4971s-16.333 -28.333 -28 -40s-25 -20.834 -40 -27.501s-30.5 -10 -46.5 -10c-15.333 0 -30.333 3.33301 -45 10s-27.5 15.834 -38.5 27.501
s-19.833 25 -26.5 40s-10 31.167 -10 48.5s3.33301 33.666 10 48.999s15.667 28.833 27 40.5s24.333 21 39 28s29.667 10.5 45 10.5c16 0 31.5 -3.33301 46.5 -10s28.167 -15.834 39.5 -27.501s20.5 -25.334 27.5 -41.001s10.5 -32.167 10.5 -49.5z" />
    <glyph glyph-name="t_t_uni1E2F.liga" unicode="tt&#x1e2f;" horiz-adv-x="1726" 
d="M1510 0l-172.002 0.00292969l107 866h-455l-61 -500l-8 -66c-2 -16.667 -3.5 -30 -4.5 -40s-1.66699 -17 -2 -21s-0.5 -7 -0.5 -9c0 -34 7.83301 -59.167 23.5 -75.5s37.167 -24.5 64.5 -24.5c17.333 0 32.666 2.5 45.999 7.5s24.833 10.5 34.5 16.5
s17.834 11.5 24.501 16.5s12.667 7.5 18 7.5c10 0 17.333 -5.66699 22 -17l37 -85c-32 -28.667 -68.833 -51.167 -110.5 -67.5s-83.5 -24.5 -125.5 -24.5c-64.667 0 -115.667 17.667 -153 53s-56.666 86.666 -57.999 153.999c0 4 0.166992 9.16699 0.5 15.5s1 15.5 2 27.5
s2.5 27.667 4.5 47s5 44.666 9 75.999l63 509h-425l-62 -500l-8 -66c-2 -16.667 -3.5 -30 -4.5 -40s-1.66699 -17 -2 -21s-0.5 -7 -0.5 -9c0 -34 8 -59.167 24 -75.5s37.667 -24.5 65 -24.5c17.333 0 32.666 2.5 45.999 7.5s24.833 10.5 34.5 16.5s17.834 11.5 24.501 16.5
s12.667 7.5 18 7.5s9.5 -1.33301 12.5 -4s6.16699 -7 9.5 -13l37 -85c-32 -28.667 -68.833 -51.167 -110.5 -67.5s-83.5 -24.5 -125.5 -24.5c-64.667 0 -115.667 17.667 -153 53s-56.666 86.666 -57.999 153.999c0 4 0.166992 9.16699 0.5 15.5s1 15.5 2 27.5
s2.5 27.667 4.5 47s5 44.666 9 75.999l63 509h-110c-10 0 -18 3.33301 -24 10s-8.33301 16.334 -7 29.001l8 68l154 20l76 315c3.33301 10 8.5 18.167 15.5 24.5s15.833 9.5 26.5 9.5h94l-43 -350h430l76 316c3.33301 10 8.5 18.167 15.5 24.5s15.833 9.5 26.5 9.5h94
l-43 -350h626zM1927 1763l-243.999 -258c-9.33301 -10 -18.333 -17.167 -27 -21.5s-19.334 -6.5 -32.001 -6.5h-98l163 242c10 15.333 20.5 26.5 31.5 33.5s26.5 10.5 46.5 10.5h160zM1526 1289c0 -15.333 -3 -29.666 -9 -42.999s-14.333 -25 -25 -35
s-22.834 -18 -36.501 -24s-28.167 -9 -43.5 -9s-29.666 3 -42.999 9s-25.166 14 -35.499 24s-18.5 21.667 -24.5 35s-9 27.666 -9 42.999s3 30 9 44s14.167 26.167 24.5 36.5s22.166 18.5 35.499 24.5s27.666 9 42.999 9s29.833 -3 43.5 -9s25.834 -14.167 36.501 -24.5
s19 -22.5 25 -36.5s9 -28.667 9 -44zM1887 1289c0 -15.333 -3 -29.666 -9 -42.999s-14.167 -25 -24.5 -35s-22.333 -18 -36 -24s-28.167 -9 -43.5 -9s-29.833 3 -43.5 9s-25.667 14 -36 24s-18.5 21.667 -24.5 35s-9 27.666 -9 42.999s3 30 9 44s14.167 26.167 24.5 36.5
s22.333 18.5 36 24.5s28.167 9 43.5 9s29.833 -3 43.5 -9s25.667 -14.167 36 -24.5s18.5 -22.5 24.5 -36.5s9 -28.667 9 -44z" />
    <glyph glyph-name="t_t_uni0268.liga" unicode="tt&#x268;" horiz-adv-x="1767" 
d="M1579 1205c-15.333 0 -30.333 3.33594 -45 10.0029s-27.5 15.834 -38.5 27.501s-19.833 25 -26.5 40s-10 31.167 -10 48.5s3.33301 33.666 10 48.999s15.667 28.833 27 40.5s24.333 21 39 28s29.667 10.5 45 10.5c16 0 31.5 -3.33301 46.5 -10
s28.167 -15.834 39.5 -27.501s20.5 -25.334 27.5 -41.001s10.5 -32.167 10.5 -49.5s-3.5 -33.5 -10.5 -48.5s-16.333 -28.333 -28 -40s-25 -20.834 -40 -27.501s-30.5 -10 -46.5 -10zM1710 438.003l-146.002 0.00292969l-54 -438h-172l54 438h-133l15 126h134l37 302h-455
l-61 -500l-8 -66c-2 -16.667 -3.5 -30 -4.5 -40s-1.66699 -17 -2 -21s-0.5 -7 -0.5 -9c0 -34 7.83301 -59.167 23.5 -75.5s37.167 -24.5 64.5 -24.5c17.333 0 32.666 2.5 45.999 7.5s24.833 10.5 34.5 16.5s17.834 11.5 24.501 16.5s12.667 7.5 18 7.5
c10 0 17.333 -5.66699 22 -17l37 -85c-32 -28.667 -68.833 -51.167 -110.5 -67.5s-83.5 -24.5 -125.5 -24.5c-64.667 0 -115.667 17.667 -153 53s-56.666 86.666 -57.999 153.999c0 4 0.166992 9.16699 0.5 15.5s1 15.5 2 27.5s2.5 27.667 4.5 47s5 44.666 9 75.999l63 509
h-425l-62 -500l-8 -66c-2 -16.667 -3.5 -30 -4.5 -40s-1.66699 -17 -2 -21s-0.5 -7 -0.5 -9c0 -34 8 -59.167 24 -75.5s37.667 -24.5 65 -24.5c17.333 0 32.666 2.5 45.999 7.5s24.833 10.5 34.5 16.5s17.834 11.5 24.501 16.5s12.667 7.5 18 7.5s9.5 -1.33301 12.5 -4
s6.16699 -7 9.5 -13l37 -85c-32 -28.667 -68.833 -51.167 -110.5 -67.5s-83.5 -24.5 -125.5 -24.5c-64.667 0 -115.667 17.667 -153 53s-56.666 86.666 -57.999 153.999c0 4 0.166992 9.16699 0.5 15.5s1 15.5 2 27.5s2.5 27.667 4.5 47s5 44.666 9 75.999l63 509h-110
c-10 0 -18 3.33301 -24 10s-8.33301 16.334 -7 29.001l8 68l154 20l76 315c3.33301 10 8.5 18.167 15.5 24.5s15.833 9.5 26.5 9.5h94l-43 -350h430l76 316c3.33301 10 8.5 18.167 15.5 24.5s15.833 9.5 26.5 9.5h94l-43 -350h626l-53 -428h147z" />
    <glyph glyph-name="t_t_uni020B.liga" unicode="tt&#x20b;" horiz-adv-x="1726" 
d="M1510 0l-172.002 0.00292969l107 866h-455l-61 -500l-8 -66c-2 -16.667 -3.5 -30 -4.5 -40s-1.66699 -17 -2 -21s-0.5 -7 -0.5 -9c0 -34 7.83301 -59.167 23.5 -75.5s37.167 -24.5 64.5 -24.5c17.333 0 32.666 2.5 45.999 7.5s24.833 10.5 34.5 16.5
s17.834 11.5 24.501 16.5s12.667 7.5 18 7.5c10 0 17.333 -5.66699 22 -17l37 -85c-32 -28.667 -68.833 -51.167 -110.5 -67.5s-83.5 -24.5 -125.5 -24.5c-64.667 0 -115.667 17.667 -153 53s-56.666 86.666 -57.999 153.999c0 4 0.166992 9.16699 0.5 15.5s1 15.5 2 27.5
s2.5 27.667 4.5 47s5 44.666 9 75.999l63 509h-425l-62 -500l-8 -66c-2 -16.667 -3.5 -30 -4.5 -40s-1.66699 -17 -2 -21s-0.5 -7 -0.5 -9c0 -34 8 -59.167 24 -75.5s37.667 -24.5 65 -24.5c17.333 0 32.666 2.5 45.999 7.5s24.833 10.5 34.5 16.5s17.834 11.5 24.501 16.5
s12.667 7.5 18 7.5s9.5 -1.33301 12.5 -4s6.16699 -7 9.5 -13l37 -85c-32 -28.667 -68.833 -51.167 -110.5 -67.5s-83.5 -24.5 -125.5 -24.5c-64.667 0 -115.667 17.667 -153 53s-56.666 86.666 -57.999 153.999c0 4 0.166992 9.16699 0.5 15.5s1 15.5 2 27.5
s2.5 27.667 4.5 47s5 44.666 9 75.999l63 509h-110c-10 0 -18 3.33301 -24 10s-8.33301 16.334 -7 29.001l8 68l154 20l76 315c3.33301 10 8.5 18.167 15.5 24.5s15.833 9.5 26.5 9.5h94l-43 -350h430l76 316c3.33301 10 8.5 18.167 15.5 24.5s15.833 9.5 26.5 9.5h94
l-43 -350h626zM1603 1448c46.667 0 85.3301 -7.16699 115.997 -21.5s54.5 -33.833 71.5 -58.5s28 -53.167 33 -85.5s5.5 -66.833 1.5 -103.5h-116c2.66699 22 2.83398 42.5 0.500977 61.5s-8 35.167 -17 48.5s-21.833 23.833 -38.5 31.5s-38 11.5 -64 11.5
s-48.167 -3.83301 -66.5 -11.5s-33.5 -18.167 -45.5 -31.5s-21.167 -29.5 -27.5 -48.5s-10.833 -39.5 -13.5 -61.5h-116c4 36.667 12.167 71.167 24.5 103.5s29.833 60.833 52.5 85.5s50.834 44.167 84.501 58.5s73.834 21.5 120.501 21.5z" />
    <glyph glyph-name="t_t_uni0209.liga" unicode="tt&#x209;" horiz-adv-x="1727" 
d="M1510 0l-172.002 0.00292969l107 866h-455l-61 -500l-8 -66c-2 -16.667 -3.5 -30 -4.5 -40s-1.66699 -17 -2 -21s-0.5 -7 -0.5 -9c0 -34 7.83301 -59.167 23.5 -75.5s37.167 -24.5 64.5 -24.5c17.333 0 32.666 2.5 45.999 7.5s24.833 10.5 34.5 16.5
s17.834 11.5 24.501 16.5s12.667 7.5 18 7.5c10 0 17.333 -5.66699 22 -17l37 -85c-32 -28.667 -68.833 -51.167 -110.5 -67.5s-83.5 -24.5 -125.5 -24.5c-64.667 0 -115.667 17.667 -153 53s-56.666 86.666 -57.999 153.999c0 4 0.166992 9.16699 0.5 15.5s1 15.5 2 27.5
s2.5 27.667 4.5 47s5 44.666 9 75.999l63 509h-425l-62 -500l-8 -66c-2 -16.667 -3.5 -30 -4.5 -40s-1.66699 -17 -2 -21s-0.5 -7 -0.5 -9c0 -34 8 -59.167 24 -75.5s37.667 -24.5 65 -24.5c17.333 0 32.666 2.5 45.999 7.5s24.833 10.5 34.5 16.5s17.834 11.5 24.501 16.5
s12.667 7.5 18 7.5s9.5 -1.33301 12.5 -4s6.16699 -7 9.5 -13l37 -85c-32 -28.667 -68.833 -51.167 -110.5 -67.5s-83.5 -24.5 -125.5 -24.5c-64.667 0 -115.667 17.667 -153 53s-56.666 86.666 -57.999 153.999c0 4 0.166992 9.16699 0.5 15.5s1 15.5 2 27.5
s2.5 27.667 4.5 47s5 44.666 9 75.999l63 509h-110c-10 0 -18 3.33301 -24 10s-8.33301 16.334 -7 29.001l8 68l154 20l76 315c3.33301 10 8.5 18.167 15.5 24.5s15.833 9.5 26.5 9.5h94l-43 -350h430l76 316c3.33301 10 8.5 18.167 15.5 24.5s15.833 9.5 26.5 9.5h94
l-43 -350h626zM1594 1449c20 0 34.833 -3.5 44.5 -10.5s17.5 -18.167 23.5 -33.5l100 -242h-69c-12.667 0 -23.167 2 -31.5 6s-15.5 11.333 -21.5 22l-154 258h108zM1317 1449c20.667 0 35.333 -3.66699 44 -11s16.667 -18.333 24 -33l138 -242h-78
c-13.333 0 -23.833 2.16699 -31.5 6.5s-15.167 11.5 -22.5 21.5l-194 258h120z" />
    <glyph glyph-name=".notdef" horiz-adv-x="1063" 
d="M250 1141c16.667 14.667 34.5 28.333 53.5 41s39.833 23.834 62.5 33.501s47.167 17.334 73.5 23.001s54.833 8.5 85.5 8.5c42 0 80.167 -5.83301 114.5 -17.5s63.666 -28.167 87.999 -49.5s43.333 -47.166 57 -77.499s20.5 -64.166 20.5 -101.499
c0 -36.667 -5 -68.334 -15 -95.001s-22.5 -49.834 -37.5 -69.501s-31.5 -36.667 -49.5 -51l-51 -40.5c-16 -12.667 -29.833 -25.167 -41.5 -37.5s-18.834 -26.166 -21.501 -41.499l-17 -105h-122l-12 117c-2.66699 22.667 0.333008 42.5 9 59.5s20.5 32.667 35.5 47
s31.667 28.166 50 41.499s35.5 27.666 51.5 42.999s29.333 32.666 40 51.999s16 42.333 16 69c0 34 -12.167 61 -36.5 81s-55.5 30 -93.5 30c-27.333 0 -50.333 -3 -69 -9s-34.667 -12.667 -48 -20s-24.666 -14 -33.999 -20s-17.666 -9 -24.999 -9
c-16.667 0 -29 7.33301 -37 22zM396 291.999c0 31.333 10.333 57.666 31 78.999s47 32 79 32c14.667 0 28.667 -2.83301 42 -8.5s24.833 -13.5 34.5 -23.5s17.334 -21.833 23.001 -35.5s8.5 -28.167 8.5 -43.5s-2.83301 -29.666 -8.5 -42.999s-13.334 -25 -23.001 -35
s-21.167 -17.833 -34.5 -23.5s-27.333 -8.5 -42 -8.5c-32 0 -58.333 10.5 -79 31.5s-31 47.167 -31 78.5zM45 1433h974v-1433h-974v1433zM95 53.999h867v1324h-867v-1324z" />
    <glyph glyph-name="glyph1" horiz-adv-x="0" 
 />
    <glyph glyph-name="glyph1" horiz-adv-x="0" 
 />
    <glyph glyph-name="space" unicode=" " horiz-adv-x="468" 
 />
    <glyph glyph-name="space" unicode="&#xa0;" horiz-adv-x="468" 
 />
    <glyph glyph-name="exclam" unicode="!" horiz-adv-x="505" 
d="M430 1433l-69.998 -574.001c-4 -30 -8.33301 -59.167 -13 -87.5s-9.83398 -56.833 -15.501 -85.5s-11.834 -58.334 -18.501 -89.001l-22 -98h-116c0.666992 34.667 1.5 67.334 2.5 98.001s2.33301 60.334 4 89.001s3.66699 57.167 6 85.5s5.5 57.5 9.5 87.5l70 574h163z
M75.002 109.999c0 17.333 3.16699 33.666 9.5 48.999s15 28.666 26 39.999s24 20.333 39 27s31.5 10 49.5 10c17.333 0 33.5 -3.33301 48.5 -10s28.167 -15.667 39.5 -27s20.333 -24.666 27 -39.999s10 -31.666 10 -48.999c0 -18 -3.33301 -34.5 -10 -49.5
s-15.667 -28.167 -27 -39.5s-24.5 -20.166 -39.5 -26.499s-31.167 -9.5 -48.5 -9.5c-18 0 -34.5 3.16699 -49.5 9.5s-28 15.166 -39 26.499s-19.667 24.5 -26 39.5s-9.5 31.5 -9.5 49.5z" />
    <glyph glyph-name="quotedbl" unicode="&#x22;" horiz-adv-x="695" 
d="M369 1431l-36 -289l-34 -155c-5.33301 -20.667 -13 -36.667 -23 -48s-25 -17 -45 -17c-17.333 0 -29.833 5.66699 -37.5 17s-12.167 27.333 -13.5 48l3 155l37 289h149zM675 1431l-36 -289l-34 -155c-5.33301 -20.667 -13 -36.667 -23 -48s-25 -17 -45 -17
c-17.333 0 -29.833 5.66699 -37.5 17s-12.167 27.333 -13.5 48l3 155l37 289h149z" />
    <glyph glyph-name="numbersign" unicode="#" horiz-adv-x="1160" 
d="M767 882h-251l-107 -331h251zM1156 1007l-21.9971 -70.998c-5.33301 -18.667 -14.333 -32.334 -27 -41.001s-31.334 -13 -56.001 -13h-142l-107 -331h182c18 0 30.667 -5.33301 38 -16s7.66602 -29.334 0.999023 -56.001l-16 -55h-239l-136 -424h-79
c-17.333 0 -30.333 7.16699 -39 21.5s-9.33398 32.166 -2.00098 53.499l114 349h-251l-115 -358c-7.33301 -24 -19 -41 -35 -51s-33.667 -15 -53 -15h-77l138 424h-148c-18 0 -30.667 5.5 -38 16.5s-7.33301 29.5 0 55.5l15 55h205l107 331h-233l20 71
c5.33301 18.667 14.5 32.334 27.5 41.001s32.167 13 57.5 13h161l118 363c6.66699 19.333 17.5 34.333 32.5 45s32.167 16 51.5 16h78l-138 -424h250l138 424h77c18 0 31.833 -5.83301 41.5 -17.5s11.167 -27.167 4.5 -46.5l-118 -360h214z" />
    <glyph glyph-name="dollar" unicode="$" horiz-adv-x="1160" 
d="M663 1298c-48 -4 -89.832 -13.501 -125.499 -28.501s-65.334 -33.667 -89.001 -56s-41.167 -47.833 -52.5 -76.5s-17 -58.667 -17 -90c0 -28 5.16699 -52.5 15.5 -73.5s24.333 -39.667 42 -56s38.5 -30.666 62.5 -42.999s49.667 -23.833 77 -34.5zM551.001 130.999
c49.333 4.66699 93.165 15.3311 131.498 31.998s70.833 38.334 97.5 65.001s46.834 57.334 60.501 92.001s20.5 72 20.5 112c0 29.333 -5.66699 54.833 -17 76.5s-26.666 40.5 -45.999 56.5s-42 29.833 -68 41.5s-53.667 22.5 -83 32.5zM800 1441
c68 -8 125.831 -25.667 173.498 -53s88.5 -60.333 122.5 -99l-48 -64c-14.667 -19.333 -30.667 -29 -48 -29c-9.33301 0 -20.166 4.33301 -32.499 13s-27.5 18.667 -45.5 30s-39.333 22.5 -64 33.5s-53.334 18.833 -86.001 23.5l-93 -491c42.667 -14 85 -29.167 127 -45.5
s79.5 -36.833 112.5 -61.5s59.833 -55 80.5 -91s31 -80.333 31 -133c0 -63.333 -11.667 -123.5 -35 -180.5s-57 -107.667 -101 -152s-97.333 -80.333 -160 -108s-133 -43.834 -211 -48.501l-34 -178c-1.33301 -12 -7.33301 -22.667 -18 -32s-22.667 -14 -36 -14h-64l43 226
c-79.333 7.33301 -150.166 27.333 -212.499 60s-114.5 74 -156.5 124l61 78c6 7.33301 13.333 13.333 22 18s17.667 7 27 7c12 0 25.333 -6.33301 40 -19s32.667 -27.167 54 -43.5s47.5 -32.333 78.5 -48s69.167 -26.167 114.5 -31.5l102 540
c-41.333 12.667 -81.666 27.167 -120.999 43.5s-74.666 37 -105.999 62s-56.5 56 -75.5 93s-28.5 82.833 -28.5 137.5c0 55.333 11 108.833 33 160.5s53.667 97.5 95 137.5s91.666 72.5 150.999 97.5s126 39.167 200 42.5l27 144c2 12.667 8 23.834 18 33.501
s22 14.5 36 14.5h64z" />
    <glyph glyph-name="percent" unicode="%" horiz-adv-x="1488" 
d="M735 1144c0 -66 -9.66699 -124.673 -29 -176.006s-45 -94.666 -77 -129.999s-68.667 -62.166 -110 -80.499s-83.666 -27.5 -126.999 -27.5c-37.333 0 -71.5 6.83301 -102.5 20.5s-57.667 33.334 -80 59.001s-39.666 57 -51.999 94s-18.5 78.833 -18.5 125.5
c0 66 9 124.833 27 176.5s42.5 95.334 73.5 131.001s67.333 62.834 109 81.501s85.834 28 132.501 28c37.333 0 71.666 -6.83301 102.999 -20.5s58.166 -33.5 80.499 -59.5s39.666 -57.667 51.999 -95s18.5 -79.666 18.5 -126.999zM601 1142.99
c0 33.333 -3.49707 62 -10.4971 86s-16.5 43.667 -28.5 59s-26.167 26.666 -42.5 33.999s-33.833 11 -52.5 11c-26.667 0 -51.834 -5.66699 -75.501 -17s-44.334 -29.333 -62.001 -54s-31.667 -56.167 -42 -94.5s-15.5 -84.5 -15.5 -138.5c0 -32.667 3.33301 -60.5 10 -83.5
s16 -42 28 -57s26.167 -26 42.5 -33s34.166 -10.5 53.499 -10.5c26 0 50.833 5.5 74.5 16.5s44.5 28.333 62.5 52s32.167 54.334 42.5 92.001s15.5 83.5 15.5 137.5zM1232 1402.99c7.33301 7.33301 15.667 13.833 25 19.5s21.666 8.5 36.999 8.5h125l-1141 -1403
c-6.66699 -8 -14.667 -14.667 -24 -20s-20.666 -8 -33.999 -8h-126zM1376 396.994c0 -66 -9.83203 -124.837 -29.499 -176.504s-45.5 -95 -77.5 -130s-68.5 -61.667 -109.5 -80s-83.167 -27.5 -126.5 -27.5c-37.333 0 -71.5 6.83301 -102.5 20.5s-57.667 33.334 -80 59.001
s-39.666 56.834 -51.999 93.501s-18.5 78.334 -18.5 125.001c0 66 9 124.833 27 176.5s42.5 95.5 73.5 131.5s67.167 63.333 108.5 82s85.333 28 132 28c37.333 0 71.666 -6.83301 102.999 -20.5s58.166 -33.5 80.499 -59.5s39.833 -57.667 52.5 -95s19 -79.666 19 -126.999
zM1241 395.99c0 33.333 -3.33398 61.833 -10.001 85.5s-16 43.167 -28 58.5s-26.167 26.5 -42.5 33.5s-34.166 10.5 -53.499 10.5c-26.667 0 -51.834 -5.66699 -75.501 -17s-44.167 -29.333 -61.5 -54s-31.166 -56 -41.499 -94s-15.5 -84 -15.5 -138
c0 -32.667 3.33301 -60.667 10 -84s16 -42.5 28 -57.5s26.167 -26 42.5 -33s34.166 -10.5 53.499 -10.5c26 0 50.833 5.5 74.5 16.5s44.334 28.5 62.001 52.5s31.667 55 42 93s15.5 84 15.5 138z" />
    <glyph glyph-name="ampersand" unicode="&#x26;" horiz-adv-x="1314" 
d="M463 704c-76.667 -41.333 -134.166 -91.833 -172.499 -151.5s-57.5 -124.834 -57.5 -195.501c0 -37.333 5.83301 -70.5 17.5 -99.5s27.667 -53.5 48 -73.5s44.5 -35.167 72.5 -45.5s58.333 -15.5 91 -15.5c63.333 0 123.166 14.333 179.499 43
s107.5 66.334 153.5 113.001zM1231 0l-148 -0.00195312c-14 0 -26.167 0.833008 -36.5 2.5s-19.5 4.5 -27.5 8.5s-15.5 9.33301 -22.5 16s-14.5 14.667 -22.5 24l-95 122c-63.333 -58 -133.166 -104 -209.499 -138s-157.833 -51 -244.5 -51
c-54.667 0 -104.667 8.16699 -150 24.5s-84.333 39.666 -117 69.999s-58 67.166 -76 110.499s-27 92 -27 146c0 52.667 8.83301 102.5 26.5 149.5s42 90 73 129s67.333 73.833 109 104.5s86.5 56.334 134.5 77.001c-26 44 -45.167 87.333 -57.5 130s-18.5 85 -18.5 127
c0 54.667 9.5 106.167 28.5 154.5s46 90.166 81 125.499s77.167 63.333 126.5 84s104 31 164 31c48.667 0 92.5 -7.83301 131.5 -23.5s71.833 -37.167 98.5 -64.5s46.834 -59.5 60.501 -96.5s20.167 -76.833 19.5 -119.5l-101 -19
c-15.333 -3.33301 -26.833 -2.66602 -34.5 2.00098s-13.5 14.334 -17.5 29.001c-3.33301 18.667 -9 37.334 -17 56.001s-19 35.5 -33 50.5s-31 27.333 -51 37s-43.667 14.5 -71 14.5c-34 0 -64.667 -6.33301 -92 -19s-50.833 -30.167 -70.5 -52.5
s-34.834 -48.666 -45.501 -78.999s-16 -62.833 -16 -97.5c0 -75.333 32.333 -155.333 97 -240l322 -408c27.333 44 50.166 89.5 68.499 136.5s31.833 93.833 40.5 140.5c2.66699 12 7 21.667 13 29s15.333 11 28 11h119c-10 -76.667 -30.333 -152 -61 -226
s-69.667 -143 -117 -207z" />
    <glyph glyph-name="quotesingle" unicode="'" horiz-adv-x="389" 
d="M369 1431l-36 -289l-34 -155c-5.33301 -20.667 -13 -36.667 -23 -48s-25 -17 -45 -17c-17.333 0 -29.833 5.66699 -37.5 17s-12.167 27.333 -13.5 48l3 155l37 289h149z" />
    <glyph glyph-name="parenleft" unicode="(" horiz-adv-x="517" 
d="M237 441c0 -49.333 2.33496 -100.498 7.00195 -153.498s11.5 -106.167 20.5 -159.5s20.5 -105.666 34.5 -156.999s30 -99.333 48 -144c7.33301 -20 7.83301 -35.333 1.5 -46s-14.833 -19.334 -25.5 -26.001l-81 -46c-28 57.333 -51.833 116.5 -71.5 177.5
s-35.834 122.167 -48.501 183.5s-22 122 -28 182s-9 117.667 -9 173c0 93.333 5.33301 184.166 16 272.499s30.167 177.5 58.5 267.5s67.166 182.833 116.499 278.5s113 197.5 191 305.5l71 -47c8.66699 -6.66699 15 -15.334 19 -26.001s-0.333008 -25.667 -13 -45
c-49.333 -76 -93 -151.833 -131 -227.5s-70 -153.5 -96 -233.5s-45.833 -163.5 -59.5 -250.5s-20.5 -179.833 -20.5 -278.5z" />
    <glyph glyph-name="parenright" unicode=")" horiz-adv-x="516" 
d="M286 817c0 48.667 -2.33203 99.667 -6.99902 153s-11.834 106.666 -21.501 159.999s-21.334 105.666 -35.001 156.999s-29.5 99.333 -47.5 144c-7.33301 19.333 -8 34.333 -2 45s14.333 19.334 25 26.001l83 47c27.333 -58 50.833 -117.333 70.5 -178
s35.667 -121.667 48 -183s21.5 -122 27.5 -182s9 -118 9 -174c0 -93.333 -5.33301 -184.166 -16 -272.499s-30 -177.5 -58 -267.5s-66.667 -182.667 -116 -278s-113 -197 -191 -305l-71 46c-4.66699 3.33301 -8.66699 7 -12 11s-5.66602 8.83301 -6.99902 14.5
s-1 12.334 1 20.001s6.33301 16.5 13 26.5c48.667 76 92 152.667 130 230s70.167 156.833 96.5 238.5s46.333 165.667 60 252s20.5 176.166 20.5 269.499z" />
    <glyph glyph-name="asterisk" unicode="*" horiz-adv-x="790" 
d="M588 1209c-12 -6.66699 -23.6709 -11.999 -35.0039 -15.999s-22.666 -6.66699 -33.999 -8c11.333 -1.33301 22.166 -3.83301 32.499 -7.5s20.5 -9.16699 30.5 -16.5l145 -102l-50 -72l-145 100c-10 6.66699 -19 13.334 -27 20.001s-14.667 14.667 -20 24
c6.66699 -19.333 8.33398 -41.666 5.00098 -66.999l-25 -199h-85l25 198c3.33301 26 10 48.333 20 67c-7.33301 -8.66699 -15.666 -16.334 -24.999 -23.001s-19.666 -13.334 -30.999 -20.001l-169 -100l-32 73l168 101c12.667 7.33301 24.834 12.833 36.501 16.5
s24.167 6.16699 37.5 7.5c-24.667 2 -47.334 10 -68.001 24l-145 102l51 73l145 -101c10 -6.66699 19 -13.834 27 -21.501s14.667 -16.5 20 -26.5c-6.66699 22.667 -8.66699 46.334 -6 71.001l25 199h85l-25 -198c-1.33301 -13.333 -3.66602 -25.5 -6.99902 -36.5
s-8.33301 -22.167 -15 -33.5c8 9.33301 17 17.666 27 24.999s20.667 14.333 32 21l169 100l32 -73z" />
    <glyph glyph-name="plus" unicode="+" horiz-adv-x="1160" 
d="M1059 606h-409l-53 -431h-141l53 431h-407l16 130h407l53 429h140l-52 -429h409z" />
    <glyph glyph-name="comma" unicode="," horiz-adv-x="449" 
d="M65 -242c-8.66699 8 -12.999 17.333 -12.999 28c0 8 5.33301 18.333 16 31l37 45.5c14 17.667 27.667 38 41 61s22.333 48.833 27 77.5c-2.66699 -0.666992 -7 -1 -13 -1c-34.667 0 -62.834 11.5 -84.501 34.5s-32.5 52.5 -32.5 88.5c0 31.333 10.833 58 32.5 80
s50.5 33 86.5 33c20 0 37.667 -3.66699 53 -11s28.166 -17.5 38.499 -30.5s18.166 -28 23.499 -45s8 -35.5 8 -55.5c0 -30 -4.16699 -61.167 -12.5 -93.5s-20.666 -64.333 -36.999 -96s-36.166 -62.5 -59.499 -92.5s-50 -57.667 -80 -83z" />
    <glyph glyph-name="hyphen" unicode="-" horiz-adv-x="702" 
d="M130 672h457l-18 -146h-457z" />
    <glyph glyph-name="hyphen" unicode="&#x2010;" horiz-adv-x="702" 
d="M130 672h457l-18 -146h-457z" />
    <glyph glyph-name="hyphen" unicode="&#xad;" horiz-adv-x="702" 
d="M130 672h457l-18 -146h-457z" />
    <glyph glyph-name="period" unicode="." horiz-adv-x="468" 
d="M52 110c0 17.333 3.16699 33.666 9.5 48.999s15 28.666 26 39.999s24.167 20.333 39.5 27s31.666 10 48.999 10s33.666 -3.33301 48.999 -10s28.666 -15.667 39.999 -27s20.333 -24.666 27 -39.999s10 -31.666 10 -48.999c0 -18 -3.33301 -34.5 -10 -49.5
s-15.667 -28.167 -27 -39.5s-24.666 -20.166 -39.999 -26.499s-31.666 -9.5 -48.999 -9.5s-33.666 3.16699 -48.999 9.5s-28.5 15.166 -39.5 26.499s-19.667 24.5 -26 39.5s-9.5 31.5 -9.5 49.5z" />
    <glyph glyph-name="slash" unicode="/" horiz-adv-x="836" 
d="M153 -25c-10.667 -21.333 -25.667 -37.666 -45 -48.999s-38 -17 -56 -17h-73l725 1479c10 19.333 23.333 34.666 40 45.999s35.667 17 57 17h73z" />
    <glyph glyph-name="zero" unicode="0" horiz-adv-x="1160" 
d="M1084 873c0 -150 -15.666 -280.668 -46.999 -392.001s-73.5 -203.833 -126.5 -277.5s-114.833 -128.5 -185.5 -164.5s-145 -54 -223 -54c-58.667 0 -112.5 12 -161.5 36s-91.333 59.833 -127 107.5s-63.334 107.334 -83.001 179.001s-29.5 155.5 -29.5 251.5
c0 150 15.5 280.667 46.5 392s73 203.833 126 277.5s114.667 128.667 185 165s144.833 54.5 223.5 54.5c58 0 111.667 -12 161 -36s91.833 -59.833 127.5 -107.5s63.5 -107.5 83.5 -179.5s30 -156 30 -252zM907.001 881.999c0 75.333 -6.33398 139.663 -19.001 192.996
s-30 96.833 -52 130.5s-47.833 58.334 -77.5 74.001s-61.167 23.5 -94.5 23.5c-48.667 0 -96.167 -13.5 -142.5 -40.5s-87.5 -70.333 -123.5 -130s-65 -137.334 -87 -233.001s-33 -212.5 -33 -350.5c0 -75.333 6.33301 -139.666 19 -192.999s29.834 -96.666 51.501 -129.999
s47.167 -57.666 76.5 -72.999s60.666 -23 93.999 -23c48.667 0 96.334 13.167 143.001 39.5s88.167 69.333 124.5 129s65.5 137.334 87.5 233.001s33 212.5 33 350.5z" />
    <glyph glyph-name="one" unicode="1" horiz-adv-x="1160" 
d="M932 131l-16.999 -131.001h-711l17 131h281l122 991c1.33301 13.333 3.16602 27 5.49902 41l7.5 43l-256 -220c-9.33301 -6.66699 -18.333 -11 -27 -13s-16.5 -2.16699 -23.5 -0.5s-13.167 4.33398 -18.5 8.00098s-9.33301 7.5 -12 11.5l-44 75l438 369h141l-160 -1305
h257z" />
    <glyph glyph-name="two" unicode="2" horiz-adv-x="1160" 
d="M902 163c18.667 0 32.835 -5.49609 42.502 -16.4961s13.167 -25.167 10.5 -42.5l-12 -104h-884l7 59c1.33301 12 5.33301 24.667 12 38s16.334 25.333 29.001 36l476 463c44.667 44 85 85.5 121 124.5s66.333 78 91 117s43.667 78.667 57 119s20 84.166 20 131.499
c0 35.333 -5.16699 66.166 -15.5 92.499s-24.5 48.333 -42.5 66s-39.333 31 -64 40s-51.667 13.5 -81 13.5c-32.667 0 -63.334 -5.33301 -92.001 -16s-54.834 -25.667 -78.501 -45s-44.5 -42.333 -62.5 -69s-32 -56 -42 -88c-10 -22.667 -22 -37.834 -36 -45.501
s-32.667 -9.5 -56 -5.5l-88 15c16.667 65.333 40.5 123 71.5 173s67.5 92 109.5 126s88.5 59.667 139.5 77s105.167 26 162.5 26c52 0 99.5 -7.83301 142.5 -23.5s80.167 -38.334 111.5 -68.001s55.666 -65.667 72.999 -108s26 -90.5 26 -144.5
c0 -61.333 -9.16699 -117.333 -27.5 -168s-43 -98.5 -74 -143.5s-67 -88.667 -108 -131l-130.5 -130.5l-401 -393c28 7.33301 56 13.333 84 18s54.667 7 80 7h429z" />
    <glyph glyph-name="three" unicode="3" horiz-adv-x="1160" 
d="M217 1046c16.667 65.333 40.5 123.003 71.5 173.003s67.5 92 109.5 126s88.5 59.667 139.5 77s105.167 26 162.5 26c52 0 99.167 -7.66699 141.5 -23s78.5 -37 108.5 -65s53.167 -61.667 69.5 -101s24.5 -83.333 24.5 -132c0 -53.333 -6.5 -100.5 -19.5 -141.5
s-31.5 -76.833 -55.5 -107.5s-53 -56.334 -87 -77.001s-72 -37 -114 -49c74.667 -22.667 130.667 -59.167 168 -109.5s56 -111.833 56 -184.5s-13.667 -138.167 -41 -196.5s-63.833 -108 -109.5 -149s-98.5 -72.667 -158.5 -95s-122.667 -33.5 -188 -33.5
c-69.333 0 -127.666 9.5 -174.999 28.5s-86.333 45.333 -117 79s-54.667 73.167 -72 118.5s-30.333 94.333 -39 147l78 31c21.333 8.66699 40.833 11 58.5 7s29.5 -14.667 35.5 -32c6.66699 -18 14.334 -40.167 23.001 -66.5s21.667 -51.833 39 -76.5
s40.666 -45.667 69.999 -63s67.666 -26 114.999 -26c48.667 0 92.167 9.5 130.5 28.5s70.666 43.833 96.999 74.5s46.5 65.334 60.5 104.001s21 78 21 118c0 30.667 -5 59.167 -15 85.5s-26.667 49.166 -50 68.499s-54.666 34.5 -93.999 45.5s-88.333 16.5 -147 16.5l15 124
c117.333 2.66699 204 30.167 260 82.5s84 124.166 84 215.499c0 34 -5 64 -15 90s-23.833 47.5 -41.5 64.5s-38.834 29.833 -63.501 38.5s-51.667 13 -81 13c-32.667 0 -63.5 -5.33301 -92.5 -16s-55.333 -25.667 -79 -45s-44.334 -42.333 -62.001 -69s-31.5 -56 -41.5 -88
c-11.333 -22.667 -23.666 -37.834 -36.999 -45.501s-31.666 -9.5 -54.999 -5.5z" />
    <glyph glyph-name="four" unicode="4" horiz-adv-x="1160" 
d="M706 515l74.001 602c1.33301 15.333 3.66602 31.5 6.99902 48.5l11 53.5l-561 -704h469zM1052 515l-12.001 -98.999c-1.33301 -10.667 -5.66602 -19.5 -12.999 -26.5s-17 -10.5 -29 -10.5h-158l-47 -379h-150l46 379h-582c-13.333 0 -24 3.66699 -32 11
s-12.667 16.666 -14 27.999l-7 88l754 927h161l-113 -918h196z" />
    <glyph glyph-name="five" unicode="5" horiz-adv-x="1160" 
d="M1052 1432l-9.99707 -75.0039c-2.66699 -24 -12.667 -44 -30 -60s-44.333 -24 -81 -24h-406l-108 -382c35.333 8.66699 68.666 14.834 99.999 18.501s61.333 5.5 90 5.5c62 0 116.5 -9.5 163.5 -28.5s86 -45.333 117 -79s54.333 -73.167 70 -118.5
s23.5 -94.333 23.5 -147c0 -84.667 -14.5 -161.334 -43.5 -230.001s-68.333 -127.334 -118 -176.001s-107.334 -86.167 -173.001 -112.5s-135.167 -39.5 -208.5 -39.5c-39.333 0 -76.333 4.16699 -111 12.5s-66.667 19.333 -96 33s-56.166 29.5 -80.499 47.5
s-45.5 36.667 -63.5 56l61 74c14 16 30.333 24 49 24c12.667 0 26.167 -5.16699 40.5 -15.5s31.666 -21.666 51.999 -33.999s44.666 -23.666 72.999 -33.999s62.833 -15.5 103.5 -15.5c51.333 0 98 9.66699 140 29s77.833 46.333 107.5 81s52.5 75.834 68.5 123.501
s24 99.834 24 156.501c0 37.333 -5.16699 71.333 -15.5 102s-26 56.834 -47 78.501s-47.333 38.5 -79 50.5s-68.5 18 -110.5 18c-32.667 0 -67 -3 -103 -9s-73.667 -15.333 -113 -28l-104 31l189 667h629z" />
    <glyph glyph-name="six" unicode="6" horiz-adv-x="1067" 
d="M519 127c47.333 0 91 9.00293 131 27.0029s74.5 42.833 103.5 74.5s51.667 69.167 68 112.5s24.5 90.666 24.5 141.999c0 40 -5.66699 76.167 -17 108.5s-27.333 59.666 -48 81.999s-45.834 39.666 -75.501 51.999s-62.834 18.5 -99.501 18.5
c-47.333 0 -90.666 -9.5 -129.999 -28.5s-73.166 -44.5 -101.499 -76.5s-50.5 -69.333 -66.5 -112s-24 -88 -24 -136c0 -38 5.16699 -73.167 15.5 -105.5s25.333 -60.333 45 -84s44.167 -42 73.5 -55s63 -19.5 101 -19.5zM523 894.003l-36.001 -44.001l-34 -41
c32.667 21.333 68 37.833 106 49.5s78 17.5 120 17.5c48 0 92.833 -8.33301 134.5 -25s77.834 -40.667 108.501 -72s54.834 -69.666 72.501 -114.999s26.5 -97 26.5 -155c0 -74 -13.167 -143 -39.5 -207s-62.5 -119.5 -108.5 -166.5s-100.5 -84 -163.5 -111
s-131.167 -40.5 -204.5 -40.5c-60 0 -113.833 9.83301 -161.5 29.5s-88 47.667 -121 84s-58.333 80 -76 131s-26.5 107.833 -26.5 170.5c0 42 4.33301 83 13 123s22 80.333 40 121s40.667 82.167 68 124.5s59.666 86.5 96.999 132.5l393 490c10 12 23.667 22 41 30
s36 12 56 12h153z" />
    <glyph glyph-name="seven" unicode="7" horiz-adv-x="1160" 
d="M1138 1432l-9 -77.001c-3.33301 -21.333 -8.33301 -39.166 -15 -53.499s-12.667 -26.5 -18 -36.5l-689 -1204c-10 -17.333 -23 -31.833 -39 -43.5s-36.667 -17.5 -62 -17.5h-123l694 1189c20.667 32.667 42.667 60.667 66 84h-682c-11.333 0 -20.5 4.33301 -27.5 13
s-9.83301 18.667 -8.5 30l14 116h899z" />
    <glyph glyph-name="eight" unicode="8" horiz-adv-x="1160" 
d="M519 121c47.333 0 89.999 7.83301 127.999 23.5s70.333 37.667 97 66s47.167 62.333 61.5 102s21.5 83.5 21.5 131.5c0 41.333 -6.5 76.5 -19.5 105.5s-30.5 52.833 -52.5 71.5s-47.5 32.167 -76.5 40.5s-59.5 12.5 -91.5 12.5c-37.333 0 -74.166 -5.5 -110.499 -16.5
s-69 -29 -98 -54s-52.5 -58 -70.5 -99s-27 -91.167 -27 -150.5c0 -34 5.33301 -65.333 16 -94s26 -53.167 46 -73.5s44.833 -36.333 74.5 -48s63.5 -17.5 101.5 -17.5zM666.999 1315c-43.333 0 -81.668 -7.66895 -115.001 -23.002s-61.166 -36 -83.499 -62
s-39.333 -56.5 -51 -91.5s-17.5 -72.5 -17.5 -112.5c0 -28 3.66699 -54.833 11 -80.5s19.166 -48.334 35.499 -68.001s37.5 -35.5 63.5 -47.5s57.333 -18 94 -18c44.667 0 83.834 7.83301 117.501 23.5s61.667 36.834 84 63.501s39 57.834 50 93.501s16.5 73.167 16.5 112.5
c0 28.667 -4.33301 55.834 -13 81.501s-21.5 48 -38.5 67s-38.333 34 -64 45s-55.5 16.5 -89.5 16.5zM783.997 745.998c71.333 -23.333 125.833 -60.3311 163.5 -110.998s56.5 -114.667 56.5 -192c0 -70.667 -12.667 -134.334 -38 -191.001
s-60.166 -104.834 -104.499 -144.501s-97.166 -70.167 -158.499 -91.5s-128 -32 -200 -32c-60.667 0 -115.667 8.5 -165 25.5s-91.333 41 -126 72s-61.5 68.5 -80.5 112.5s-28.5 93 -28.5 147c0 107.333 26.167 195.333 78.5 264s128.166 116.667 227.499 144
c-58.667 25.333 -102.834 61.833 -132.501 109.5s-44.5 103.834 -44.5 168.501c0 58.667 11.333 113.667 34 165s54 96 94 134s87.5 67.833 142.5 89.5s115.167 32.5 180.5 32.5c55.333 0 105 -8.66699 149 -26s81.5 -41 112.5 -71s54.833 -65.167 71.5 -105.5
s25 -83.833 25 -130.5c0 -88.667 -21.833 -164.834 -65.5 -228.501s-107.5 -110.5 -191.5 -140.5z" />
    <glyph glyph-name="nine" unicode="9" horiz-adv-x="1160" 
d="M358 963c0 -75.333 19.5 -134.333 58.5 -177s93.833 -64 164.5 -64c46.667 0 89 9 127 27s70.333 42.167 97 72.5s47.167 65.5 61.5 105.5s21.5 81.667 21.5 125c0 38 -5.33301 72.5 -16 103.5s-26 57.667 -46 80s-43.833 39.5 -71.5 51.5s-58.5 18 -92.5 18
c-44 0 -84.667 -8.33301 -122 -25s-69.5 -40 -96.5 -70s-48 -66 -63 -108s-22.5 -88.333 -22.5 -139zM680 573l42.9961 53.5029l39 50.5c-37.333 -28 -77.666 -49.5 -120.999 -64.5s-88.333 -22.5 -135 -22.5c-44.667 0 -86.5 8 -125.5 24s-73.167 39.167 -102.5 69.5
s-52.5 67.333 -69.5 111s-25.5 93.167 -25.5 148.5c0 70.667 12.833 136.667 38.5 198s60.834 114.666 105.501 159.999s97.334 81.166 158.001 107.499s126 39.5 196 39.5c58 0 110 -9.83301 156 -29.5s84.833 -47 116.5 -82s56 -76.667 73 -125s25.5 -101.5 25.5 -159.5
c0 -49.333 -4.83301 -95 -14.5 -137s-23.5 -82.833 -41.5 -122.5s-40.167 -79.334 -66.5 -119.001s-56.166 -81.5 -89.499 -125.5l-381 -508c-9.33301 -11.333 -22.333 -20.833 -39 -28.5s-35 -11.5 -55 -11.5h-158z" />
    <glyph glyph-name="colon" unicode=":" horiz-adv-x="497" 
d="M67 110c0 17.333 3.16699 33.666 9.5 48.999s15 28.666 26 39.999s24.167 20.333 39.5 27s31.666 10 48.999 10s33.666 -3.33301 48.999 -10s28.666 -15.667 39.999 -27s20.333 -24.666 27 -39.999s10 -31.666 10 -48.999c0 -18 -3.33301 -34.5 -10 -49.5
s-15.667 -28.167 -27 -39.5s-24.666 -20.166 -39.999 -26.499s-31.666 -9.5 -48.999 -9.5s-33.666 3.16699 -48.999 9.5s-28.5 15.166 -39.5 26.499s-19.667 24.5 -26 39.5s-9.5 31.5 -9.5 49.5zM151 860c0 17.333 3.16699 33.666 9.5 48.999s15 28.666 26 39.999
s24.167 20.333 39.5 27s31.666 10 48.999 10s33.666 -3.33301 48.999 -10s28.666 -15.667 39.999 -27s20.333 -24.666 27 -39.999s10 -31.666 10 -48.999c0 -18 -3.33301 -34.5 -10 -49.5s-15.667 -28.167 -27 -39.5s-24.666 -20.166 -39.999 -26.499
s-31.666 -9.5 -48.999 -9.5s-33.666 3.16699 -48.999 9.5s-28.5 15.166 -39.5 26.499s-19.667 24.5 -26 39.5s-9.5 31.5 -9.5 49.5z" />
    <glyph glyph-name="semicolon" unicode=";" horiz-adv-x="519" 
d="M103 -242c-8.66699 8 -12.999 17.333 -12.999 28c0 8 5.33301 18.333 16 31l37 45.5c14 17.667 27.667 38 41 61s22.333 48.833 27 77.5c-2.66699 -0.666992 -7 -1 -13 -1c-34.667 0 -62.834 11.5 -84.501 34.5s-32.5 52.5 -32.5 88.5c0 31.333 10.833 58 32.5 80
s50.5 33 86.5 33c20 0 37.667 -3.66699 53 -11s28.166 -17.5 38.499 -30.5s18.166 -28 23.499 -45s8 -35.5 8 -55.5c0 -30 -4.16699 -61.167 -12.5 -93.5s-20.666 -64.333 -36.999 -96s-36.166 -62.5 -59.499 -92.5s-50 -57.667 -80 -83zM161.001 860
c0 17.333 3.16699 33.666 9.5 48.999s15 28.666 26 39.999s24.167 20.333 39.5 27s31.666 10 48.999 10s33.666 -3.33301 48.999 -10s28.666 -15.667 39.999 -27s20.333 -24.666 27 -39.999s10 -31.666 10 -48.999c0 -18 -3.33301 -34.5 -10 -49.5
s-15.667 -28.167 -27 -39.5s-24.666 -20.166 -39.999 -26.499s-31.666 -9.5 -48.999 -9.5s-33.666 3.16699 -48.999 9.5s-28.5 15.166 -39.5 26.499s-19.667 24.5 -26 39.5s-9.5 31.5 -9.5 49.5z" />
    <glyph glyph-name="less" unicode="&#x3c;" horiz-adv-x="1160" 
d="M998 1111l-15.001 -127c-1.33301 -11.333 -5.33301 -21.166 -12 -29.499s-16.667 -15.833 -30 -22.5l-478 -228c-14 -6.66699 -28.833 -12.667 -44.5 -18s-32.167 -9.66602 -49.5 -12.999c16.667 -4 32.167 -8.5 46.5 -13.5s27.833 -11.167 40.5 -18.5l421 -227
c12 -6.66699 20.333 -14.334 25 -23.001s6.33398 -18.334 5.00098 -29.001l-17 -128l-723 402l6 55h1l2 19z" />
    <glyph glyph-name="equal" unicode="=" horiz-adv-x="1160" 
d="M144 573h857l-16 -131h-857zM186 906h856l-15 -131h-857z" />
    <glyph glyph-name="greater" unicode="&#x3e;" horiz-adv-x="1160" 
d="M1001 654l-1.99805 -18l-823 -402l16 128c1.33301 10.667 5.16602 20.334 11.499 29.001s16.5 16.334 30.5 23.001l477 227c14 7.33301 28.667 13.5 44 18.5s31.666 9.5 48.999 13.5c-33.333 7.33301 -62 17.666 -86 30.999l-421 228
c-12 6.66699 -20.167 14.167 -24.5 22.5s-5.83301 18.166 -4.5 29.499l15 127l725 -401z" />
    <glyph glyph-name="question" unicode="?" horiz-adv-x="837" 
d="M158 1303c22 19.333 45.499 37.6689 70.499 55.002s52 32.666 81 45.999s60.167 23.833 93.5 31.5s68.666 11.5 105.999 11.5c46.667 0 88.834 -7 126.501 -21s69.667 -33.333 96 -58s46.5 -53.834 60.5 -87.501s21 -70.167 21 -109.5
c0 -56 -7.83301 -103.667 -23.5 -143s-35.5 -73.5 -59.5 -102.5s-50.333 -54 -79 -75l-82.5 -61c-26.333 -19.667 -49.666 -40.167 -69.999 -61.5s-34.166 -46.333 -41.499 -75l-37 -154h-119l11 166c1.33301 32 10.833 60.167 28.5 84.5s39 47.333 64 69
s52 42.834 81 63.501s56 43.167 81 67.5s45.667 51.666 62 81.999s24.5 65.833 24.5 106.5c0 52 -15.833 93 -47.5 123s-74.5 45 -128.5 45c-37.333 0 -69.666 -5 -96.999 -15s-50.833 -21 -70.5 -33s-36 -23 -49 -33s-23.833 -15 -32.5 -15s-15.334 1.66699 -20.001 5
s-9.33398 9 -14.001 17zM212.999 110.003c0 17.333 3.16699 33.666 9.5 48.999s15 28.666 26 39.999s24.167 20.333 39.5 27s31.666 10 48.999 10s33.666 -3.33301 48.999 -10s28.666 -15.667 39.999 -27s20.333 -24.666 27 -39.999s10 -31.666 10 -48.999
c0 -18 -3.33301 -34.5 -10 -49.5s-15.667 -28.167 -27 -39.5s-24.666 -20.166 -39.999 -26.499s-31.666 -9.5 -48.999 -9.5s-33.666 3.16699 -48.999 9.5s-28.5 15.166 -39.5 26.499s-19.667 24.5 -26 39.5s-9.5 31.5 -9.5 49.5z" />
    <glyph glyph-name="at" unicode="@" horiz-adv-x="1537" 
d="M993 824c-23.333 6 -48.668 9.00098 -76.001 9.00098c-48.667 0 -94.667 -11.833 -138 -35.5s-81.166 -54.5 -113.499 -92.5s-58 -80.833 -77 -128.5s-28.5 -95.834 -28.5 -144.501c0 -38 8.33301 -69 25 -93s42 -36 76 -36c18 0 37 3.33301 57 10s39.667 18.5 59 35.5
s38.333 40 57 69s35.667 65.833 51 110.5zM1020 543.001c-18 -51.333 -28.835 -93.168 -32.502 -125.501s-2.16699 -57.5 4.5 -75.5s17.334 -30.167 32.001 -36.5s31.334 -9.5 50.001 -9.5c34.667 0 68.167 11.667 100.5 35s61 56.166 86 98.499s45.167 92.833 60.5 151.5
s23 123 23 193c0 77.333 -11.333 145.333 -34 204s-54.334 107.667 -95.001 147s-89.167 69 -145.5 89s-118.166 30 -185.499 30c-90 0 -175.5 -19.5 -256.5 -58.5s-152 -93.5 -213 -163.5s-109.5 -153 -145.5 -249s-54 -201 -54 -315c0 -94 13.333 -177.333 40 -250
s63.834 -133.5 111.501 -182.5s104.5 -86.167 170.5 -111.5s138.333 -38 217 -38c94 0 177 10.5 249 31.5s132.667 47.167 182 78.5c10.667 6 20.167 9.5 28.5 10.5s15.333 0.333008 21 -2s10.167 -6.16602 13.5 -11.499s6 -11 8 -17l13 -51
c-71.333 -48 -150.5 -85.667 -237.5 -113s-183.833 -41 -290.5 -41c-97.333 0 -186 15.833 -266 47.5s-148.667 77.334 -206 137.001s-101.833 132 -133.5 217s-47.5 180.833 -47.5 287.5c0 84.667 10 165.834 30 243.501s47.833 150 83.5 217s78.5 128 128.5 183
s105 102 165 141s124 69.167 192 90.5s138.333 32 211 32c78 0 151.5 -13.167 220.5 -39.5s129.333 -64.5 181 -114.5s92.5 -111 122.5 -183s45 -154 45 -246c0 -84.667 -11.5 -162.834 -34.5 -234.501s-54.167 -133.667 -93.5 -186s-85 -93.333 -137 -123
s-107 -44.5 -165 -44.5c-46.667 0 -83.667 12.5 -111 37.5s-42.333 62.833 -45 113.5c-42 -52.667 -85.333 -90.667 -130 -114s-91 -35 -139 -35c-32 0 -59.833 5.83301 -83.5 17.5s-43.334 27.5 -59.001 47.5s-27.167 43.667 -34.5 71s-11 57 -11 89
c0 40 5.33301 81 16 123s26.5 82.5 47.5 121.5s46.667 75.833 77 110.5s65.166 65 104.499 91s83 46.5 131 61.5s100 22.5 156 22.5c42 0 78.333 -3.33301 109 -10s59.334 -16.667 86.001 -30z" />
    <glyph glyph-name="A" unicode="A" horiz-adv-x="1262" 
d="M867 531l-131 593l-12 62.5c-4.66699 23.667 -8.66699 49.167 -12 76.5c-10 -28 -20 -53.667 -30 -77l-27 -63l-277 -592h489zM1178 0l-144.001 0.000976562c-16.667 0 -29.667 4.16699 -39 12.5s-16 19.166 -20 32.499l-78 350h-583l-164 -350
c-6 -12 -15.167 -22.5 -27.5 -31.5s-26.166 -13.5 -41.499 -13.5h-146l702 1433h190z" />
    <glyph glyph-name="B" unicode="B" horiz-adv-x="1204" 
d="M584 148c53.333 0 100.001 7 140.001 21s73.167 34 99.5 60s46.166 57.333 59.499 94s20 78 20 124c0 63.333 -21.167 113.833 -63.5 151.5s-106.833 56.5 -193.5 56.5h-281l-62 -507h281zM443.001 1286l-61 -499h231c54 0 101.167 7.16699 141.5 21.5s74 34.333 101 60
s47.167 56.5 60.5 92.5s20 75.667 20 119c0 68.667 -20.667 120.167 -62 154.5s-105.333 51.5 -192 51.5h-239zM699.001 1433c74 0 137.831 -7.49902 191.498 -22.499s97.834 -36.333 132.501 -64s60.334 -61.334 77.001 -101.001s25 -83.834 25 -132.501
c0 -42 -6.16699 -82.5 -18.5 -121.5s-30.666 -74.833 -54.999 -107.5s-55 -61.667 -92 -87s-80.167 -45.666 -129.5 -60.999c86 -19.333 150.5 -53 193.5 -101s64.5 -109.667 64.5 -185c0 -66 -11.833 -126.5 -35.5 -181.5s-57.834 -102.5 -102.501 -142.5
s-99.167 -71 -163.5 -93s-136.833 -33 -217.5 -33h-471l176 1433h425z" />
    <glyph glyph-name="C" unicode="C" horiz-adv-x="1249" 
d="M677 145c44 0 83.0039 3.66797 117.004 11.001s64 16.333 90 27s48.167 22.5 66.5 35.5s34.333 24.833 48 35.5l34.5 27c9.33301 7.33301 17.666 11 24.999 11c6 0 11 -1.16699 15 -3.5s7.33301 -5.16602 10 -8.49902l65 -81
c-62.667 -68 -134.834 -120.833 -216.501 -158.5s-176.834 -56.5 -285.501 -56.5c-86 0 -162.833 15.333 -230.5 46s-125 73.5 -172 128.5s-83 120.5 -108 196.5s-37.5 159.667 -37.5 251c0 124.667 19.333 238.667 58 342s91.834 192.166 159.501 266.499
s147.167 132 238.5 173s189.666 61.5 294.999 61.5c50.667 0 96.667 -4.33301 138 -13s79 -21.334 113 -38.001s64.833 -36.667 92.5 -60s53.5 -49.333 77.5 -78l-64 -78c-5.33301 -6.66699 -11.333 -12.167 -18 -16.5s-15 -6.5 -25 -6.5c-12 0 -24.667 6.66699 -38 20
s-31.5 27.833 -54.5 43.5s-52.667 30.167 -89 43.5s-83.5 20 -141.5 20c-78 0 -150.5 -15.5 -217.5 -46.5s-125.167 -75.333 -174.5 -133s-88.166 -127.5 -116.499 -209.5s-42.5 -174 -42.5 -276c0 -74 9.66699 -140.333 29 -199s46.166 -108.5 80.499 -149.5
s75.166 -72.5 122.499 -94.5s99.333 -33 156 -33z" />
    <glyph glyph-name="D" unicode="D" horiz-adv-x="1415" 
d="M1342 817c0 -122 -18.833 -233.166 -56.5 -333.499s-89.834 -186.333 -156.501 -258s-145.834 -127.167 -237.501 -166.5s-191.5 -59 -299.5 -59h-494l176 1433h495c88 0 167.333 -15 238 -45s130.834 -72.167 180.501 -126.5s87.834 -119.333 114.501 -195
s40 -158.834 40 -249.501zM1149 813.001c0 72 -9 137 -27 195s-44.167 107.167 -78.5 147.5s-76.166 71.333 -125.499 93s-105 32.5 -167 32.5h-307l-140 -1130h307c79.333 0 152 15.167 218 45.5s122.667 74 170 131s84.166 126.333 110.499 208s39.5 174.167 39.5 277.5z
" />
    <glyph glyph-name="E" unicode="E" horiz-adv-x="1076" 
d="M443 1280l-59 -483h507l-19 -147h-506l-61 -498h629l-19 -152h-817l176 1433h816l-19 -153h-628z" />
    <glyph glyph-name="F" unicode="F" horiz-adv-x="1060" 
d="M443 1280l-62 -510h536l-20 -152h-535l-76 -618h-188l176 1433h816l-19 -153h-628z" />
    <glyph glyph-name="G" unicode="G" horiz-adv-x="1361" 
d="M848 686l411 0.00195312l-68 -547c-36 -26 -73.167 -48.667 -111.5 -68s-78.666 -35.5 -120.999 -48.5s-87.166 -22.667 -134.499 -29s-98.333 -9.5 -153 -9.5c-86.667 0 -165.334 15.5 -236.001 46.5s-131 74.333 -181 130s-88.5 122.167 -115.5 199.5
s-40.5 162 -40.5 254c0 123.333 19.167 236.166 57.5 338.499s91.333 190.333 159 264s148 130.834 241 171.501s194.5 61 304.5 61c56 0 106.5 -4.66699 151.5 -14s86 -22.333 123 -39s70.333 -36.334 100 -59.001s56.834 -47.334 81.501 -74.001l-60 -78
c-10 -14 -21.833 -22.667 -35.5 -26s-27.834 -0.333008 -42.501 9c-14.667 8.66699 -30.834 19.834 -48.501 33.501s-39.167 26.667 -64.5 39s-55.666 23 -90.999 32s-78 13.5 -128 13.5c-82 0 -157.167 -15.667 -225.5 -47s-127 -76 -176 -134s-87 -128 -114 -210
s-40.5 -173.333 -40.5 -274c0 -75.333 9.83301 -143 29.5 -203s47.5 -111 83.5 -153s79.333 -74.167 130 -96.5s107 -33.5 169 -33.5c34.667 0 67 2 97 6s58.333 9.5 85 16.5s52 15.667 76 26s48 22.166 72 35.499l40 324h-200c-12 0 -21.333 3.5 -28 10.5
s-9.33398 15.5 -8.00098 25.5z" />
    <glyph glyph-name="H" unicode="H" horiz-adv-x="1420" 
d="M1350 1433l-177 -1433h-188l80 654h-699l-80 -654h-188l176 1433h188l-79 -643h699l79 643h189z" />
    <glyph glyph-name="I" unicode="I" horiz-adv-x="533" 
d="M286 0h-188l175 1433h188z" />
    <glyph glyph-name="J" unicode="J" horiz-adv-x="801" 
d="M625 475c-10 -79.333 -27.499 -149.5 -52.499 -210.5s-57.333 -112.333 -97 -154s-86 -73.167 -139 -94.5s-112.5 -32 -178.5 -32c-36 0 -69.5 2.33301 -100.5 7s-62.167 11.667 -93.5 21l13 109c2 10 6 18.667 12 26s15.667 11 29 11
c7.33301 0 15.166 -0.833008 23.499 -2.5l29 -6c11 -2.33301 23.667 -4.33301 38 -6s31.166 -2.5 50.499 -2.5c34.667 0 67.334 5.66699 98.001 17s58.167 30 82.5 56s45 60 62 102s29.167 93.667 36.5 155l118 962h187z" />
    <glyph glyph-name="K" unicode="K" horiz-adv-x="1236" 
d="M382 802l66 0.000976562c23.333 0 42.5 3.16699 57.5 9.5s29.5 17.166 43.5 32.499l496 544c14 18 28.667 30 44 36s33 9 53 9h159l-572 -620c-26.667 -30.667 -52.667 -51.667 -78 -63c16 -6.66699 30.167 -15.5 42.5 -26.5s23.5 -25.833 33.5 -44.5l432 -679h-161
c-24.667 0 -42 3.5 -52 10.5s-18.667 16.833 -26 29.5l-376 572c-10 16.667 -21.667 28.5 -35 35.5s-34.333 10.5 -63 10.5h-81l-81 -658h-186l175 1433h187z" />
    <glyph glyph-name="L" unicode="L" horiz-adv-x="951" 
d="M870 158l-19 -158h-753l176 1433h187l-157 -1275h566z" />
    <glyph glyph-name="M" unicode="M" horiz-adv-x="1725" 
d="M1655 1433l-177 -1433h-163l130 1059c2 13.333 4.5 28 7.5 44s6.5 32.667 10.5 50l-559 -901c-17.333 -28.667 -41.333 -43 -72 -43h-27c-14.667 0 -27.5 3.66699 -38.5 11s-18.833 18 -23.5 32l-346 901l-2 -47.5c-0.666992 -15.667 -1.66699 -30.167 -3 -43.5
l-129 -1062h-165l176 1433h138c16.667 0 28.667 -2.16699 36 -6.5s15.666 -12.833 24.999 -25.5l347 -901c4.66699 -13.333 8.66699 -26.666 12 -39.999l10 -41l20 41c6.66699 13.333 14 26.666 22 39.999l564 901c11.333 13.333 21.333 22 30 26s21.334 6 38.001 6h139z
" />
    <glyph glyph-name="N" unicode="N" horiz-adv-x="1420" 
d="M1350 1433l-177.001 -1433h-93c-15.333 0 -27.666 2.83301 -36.999 8.5s-18.333 14.5 -27 26.5l-618 1096c-1.33301 -13.333 -2.33301 -25.833 -3 -37.5s-1.66699 -22.834 -3 -33.501l-129 -1060h-165l176 1433h97c16.667 0 28.667 -2 36 -6s15 -12.667 23 -26l619 -1095
c1.33301 15.333 2.5 30 3.5 44s2.16699 27 3.5 39l129 1044h165z" />
    <glyph glyph-name="O" unicode="O" horiz-adv-x="1491" 
d="M1420 818c0 -122 -18.8311 -234.001 -56.498 -336.001s-90 -189.833 -157 -263.5s-146.333 -131 -238 -172s-191.5 -61.5 -299.5 -61.5c-88 0 -167.167 15.667 -237.5 47s-130.333 74.833 -180 130.5s-87.667 121.834 -114 198.501s-39.5 160.667 -39.5 252
c0 122 19 234.167 57 336.5s90.667 190.5 158 264.5s146.833 131.667 238.5 173s191.167 62 298.5 62c88 0 167.167 -15.833 237.5 -47.5s130.166 -75.5 179.499 -131.5s87.166 -122.5 113.499 -199.5s39.5 -161.167 39.5 -252.5zM1228 813.999
c0 72.667 -9.33008 138.502 -27.9971 197.502s-45.167 109.167 -79.5 150.5s-76.333 73.333 -126 96s-105.5 34 -167.5 34c-78.667 0 -150.834 -15.833 -216.501 -47.5s-122.334 -76.834 -170.001 -135.501s-84.667 -129.5 -111 -212.5s-39.5 -175.833 -39.5 -278.5
c0 -72.667 9.16699 -138.334 27.5 -197.001s44.833 -108.667 79.5 -150s76.667 -73.166 126 -95.499s105 -33.5 167 -33.5c79.333 0 152 15.667 218 47s122.667 76.166 170 134.499s84.166 129 110.499 212s39.5 175.833 39.5 278.5z" />
    <glyph glyph-name="P" unicode="P" horiz-adv-x="1124" 
d="M576 686c56.667 0 106.67 8.66406 150.003 25.9971s79.666 41.5 108.999 72.5s51.666 68 66.999 111s23 89.833 23 140.5c0 38.667 -5.66699 73.334 -17 104.001s-28.333 56.834 -51 78.501s-51.334 38.334 -86.001 50.001s-75 17.5 -121 17.5h-208l-74 -600h208z
M668.003 1433c76 0 142 -9 198 -27s102.167 -43.667 138.5 -77s63.5 -73.333 81.5 -120s27 -98.667 27 -156c0 -75.333 -12.333 -144.5 -37 -207.5s-60.5 -117.167 -107.5 -162.5s-105 -80.833 -174 -106.5s-147.833 -38.5 -236.5 -38.5h-208l-66 -538h-186l175 1433h395z
" />
    <glyph glyph-name="Q" unicode="Q" horiz-adv-x="1491" 
d="M290 618c0 -72.667 9.16992 -138.332 27.5029 -196.999s44.833 -108.667 79.5 -150s76.667 -73.166 126 -95.499s105 -33.5 167 -33.5c79.333 0 152 15.667 218 47s122.667 76.166 170 134.499s84.166 129 110.499 212s39.5 175.833 39.5 278.5
c0 72.667 -9.33301 138.5 -28 197.5s-45.167 109.167 -79.5 150.5s-76.333 73.333 -126 96s-105.5 34 -167.5 34c-78.667 0 -150.834 -15.833 -216.501 -47.5s-122.334 -76.834 -170.001 -135.501s-84.667 -129.5 -111 -212.5s-39.5 -175.833 -39.5 -278.5zM897.003 20.002
c-72 -23.333 -147.997 -35.001 -227.997 -35.001c-88 0 -167.167 15.667 -237.5 47s-130.333 74.833 -180 130.5s-87.667 121.834 -114 198.501s-39.5 160.667 -39.5 252c0 122 19 234.167 57 336.5s90.667 190.5 158 264.5s146.833 131.667 238.5 173s191.167 62 298.5 62
c88 0 167.167 -15.833 237.5 -47.5s130.166 -75.5 179.499 -131.5s87.166 -122.5 113.499 -199.5s39.5 -161.167 39.5 -252.5c0 -80.667 -8.5 -157 -25.5 -229s-41 -138.833 -72 -200.5s-68.833 -117.167 -113.5 -166.5s-94.334 -91.333 -149.001 -126l290 -393h-151
c-23.333 0 -43.5 3.33301 -60.5 10s-32.167 18 -45.5 34z" />
    <glyph glyph-name="R" unicode="R" horiz-adv-x="1167" 
d="M558 737c56.667 0 106.667 8 150 24s79.833 38.5 109.5 67.5s52 63.333 67 103s22.5 83.167 22.5 130.5c0 72.667 -22.833 128.167 -68.5 166.5s-114.167 57.5 -205.5 57.5h-190l-68 -549h183zM650 1433c76 0 141.833 -8.00098 197.5 -24.001s101.667 -38.833 138 -68.5
s63.333 -65.667 81 -108s26.5 -89.5 26.5 -141.5c0 -58 -8.66699 -112 -26 -162s-42.333 -94.667 -75 -134s-72 -72.833 -118 -100.5s-98 -48.167 -156 -61.5c21.333 -14.667 39 -35 53 -61l309 -572h-166c-34 0 -57.333 13.333 -70 40l-270 516
c-8.66699 16.667 -18.667 28.334 -30 35.001s-29.333 10 -54 10h-132l-74 -601h-186l175 1433h377z" />
    <glyph glyph-name="S" unicode="S" horiz-adv-x="1016" 
d="M927 1211c-7.33301 -9.33301 -14.335 -16.499 -21.002 -21.499s-14.667 -7.5 -24 -7.5c-11.333 0 -23.333 5.83301 -36 17.5s-28.834 24.334 -48.501 38.001s-43.5 26.334 -71.5 38.001s-63 17.5 -105 17.5c-42.667 0 -80.667 -6.66699 -114 -20s-61.5 -31.5 -84.5 -54.5
s-40.5 -49.833 -52.5 -80.5s-18 -63.667 -18 -99c0 -34.667 8 -63.834 24 -87.501s37 -44 63 -61s55.833 -32 89.5 -45l102.5 -40c34.667 -13.667 68.834 -28.834 102.501 -45.501s63.5 -37.334 89.5 -62.001s47 -54.334 63 -89.001s24 -76.667 24 -126
c0 -68 -11.667 -132.167 -35 -192.5s-56.833 -113.166 -100.5 -158.499s-96.5 -81.333 -158.5 -108s-131.667 -40 -209 -40c-85.333 0 -161.5 16.833 -228.5 50.5s-122.167 79.167 -165.5 136.5l66 89c5.33301 7.33301 12 13.333 20 18s16.667 7 26 7
c12.667 0 26.334 -7.5 41.001 -22.5s33.334 -31.667 56.001 -50s50.667 -35 84 -50s75 -22.5 125 -22.5c46 0 87.5 7.33301 124.5 22s68.333 35 94 61s45.5 57.167 59.5 93.5s21 76.5 21 120.5c0 36.667 -8 67.167 -24 91.5s-37 44.833 -63 61.5s-55.667 31.167 -89 43.5
l-102 37.5c-34.667 12.667 -68.667 27 -102 43s-63 36.333 -89 61s-47 55 -63 91s-24 80.333 -24 133c0 58.667 10.667 115 32 169s52 101.667 92 143s88.833 74.333 146.5 99s122.5 37 194.5 37c73.333 0 139.333 -14 198 -42s107 -66.333 145 -115z" />
    <glyph glyph-name="T" unicode="T" horiz-adv-x="1092" 
d="M1144 1276h-422l-158 -1276h-186l156 1276h-424l18 157h1035z" />
    <glyph glyph-name="U" unicode="U" horiz-adv-x="1370" 
d="M628 147c54 0 103.332 10.335 147.999 31.002s84 49.167 118 85.5s61.833 79.833 83.5 130.5s36.167 106 43.5 166l107 873h187l-107 -873c-10 -82 -31.667 -158.167 -65 -228.5s-76 -131.333 -128 -183s-112.333 -92.167 -181 -121.5s-144 -44 -226 -44
c-81.333 0 -152.833 14.667 -214.5 44s-112.167 69.833 -151.5 121.5s-66.833 112.667 -82.5 183s-18.5 146.5 -8.5 228.5l106 873h187l-107 -872c-7.33301 -60 -6.33301 -115.333 3 -166s26.333 -94.334 51 -131.001s56.834 -65.334 96.501 -86.001s86.5 -31 140.5 -31z
" />
    <glyph glyph-name="V" unicode="V" horiz-adv-x="1259" 
d="M1352 1433l-712 -1433h-169l-362 1433h150c16.667 0 29.834 -4.33301 39.501 -13s15.5 -19.334 17.5 -32.001l240 -1024c5.33301 -21.333 10.333 -44.833 15 -70.5s8.66699 -52.5 12 -80.5c9.33301 28 19 54.833 29 80.5s20.667 49.167 32 70.5l489 1024
c5.33301 11.333 14.166 21.666 26.499 30.999s26.5 14 42.5 14h150z" />
    <glyph glyph-name="W" unicode="W" horiz-adv-x="1910" 
d="M1982 1433l-588 -1433h-169l-194 1103l-4.5 35c-1.66699 12.667 -3.16699 25.667 -4.5 39l-14 -39l-13 -35l-466 -1103h-168l-236 1433h147c16.667 0 30 -4.16699 40 -12.5s15.667 -19.166 17 -32.499l155 -1014c1.33301 -17.333 2.66602 -36.166 3.99902 -56.499
l4 -62.5l21.5 63c7 20 14.167 38.667 21.5 56l428 1014c5.33301 11.333 14 21.666 26 30.999s26 14 42 14h43c16.667 0 29.834 -4.16699 39.501 -12.5s16.167 -19.166 19.5 -32.499l179 -1014c3.33301 -17.333 6 -35.666 8 -54.999l6 -61l18 61
c6 19.333 12 37.666 18 54.999l403 1014c3.33301 11.333 11.833 21.666 25.5 30.999s28.5 14 44.5 14h147z" />
    <glyph glyph-name="X" unicode="X" horiz-adv-x="1218" 
d="M760 773l377.999 -773.003h-168c-13.333 0 -23.666 3.83301 -30.999 11.5s-13 15.834 -17 24.501l-292 626c-4.66699 -11.333 -10.667 -21.666 -18 -30.999l-432 -595c-8.66699 -13.333 -18.167 -22.666 -28.5 -27.999s-21.5 -8 -33.5 -8h-186l569 765l-336 668h169
c13.333 0 23 -2.33301 29 -7s11.667 -11.667 17 -21l256 -540l10 18l11 19l364 502c7.33301 10 14.5 17.333 21.5 22s15.5 7 25.5 7h193z" />
    <glyph glyph-name="Y" unicode="Y" horiz-adv-x="1164" 
d="M672 573l-71 -573h-187l71 571l-378 862h165c16.667 0 29.667 -4 39 -12s16.333 -18.667 21 -32l237 -574c12.667 -38 22.667 -74 30 -108c8 17.333 16.833 34.833 26.5 52.5l31.5 55.5l380 574c7.33301 11.333 16.5 21.5 27.5 30.5s24.5 13.5 40.5 13.5h155z" />
    <glyph glyph-name="Z" unicode="Z" horiz-adv-x="1111" 
d="M1145 1373c-1.33301 -9.33301 -4.16699 -17.666 -8.5 -24.999l-14.5 -24l-875 -1172h737l-20 -152h-990l8 59c1.33301 9.33301 4 17.666 8 24.999s8.66699 15 14 23l877 1173h-714l19 153h967z" />
    <glyph glyph-name="bracketleft" unicode="[" horiz-adv-x="580" 
d="M626 1465c-1.33301 -13.333 -7.16895 -24.333 -17.502 -33s-22.166 -13 -35.499 -13h-151l-197 -1592h153c13.333 0 23.833 -4.5 31.5 -13.5s10.834 -20.167 9.50098 -33.5l-8 -67h-343l223 1819h342z" />
    <glyph glyph-name="backslash" unicode="\" horiz-adv-x="829" 
d="M165 1451h73.0029c21.333 0 39.166 -5.66699 53.499 -17s24.166 -26.666 29.499 -45.999l360 -1479h-71c-18.667 0 -36.334 5.66699 -53.001 17s-27.667 27.666 -33 48.999z" />
    <glyph glyph-name="bracketright" unicode="]" horiz-adv-x="581" 
d="M293 -287h-343l8 67c1.33301 13.333 7 24.5 17 33.5s22 13.5 36 13.5h152l196 1592h-152c-14.667 0 -25.667 4.33301 -33 13s-10.333 19.667 -9 33l8 67h344z" />
    <glyph glyph-name="asciicircum" unicode="^" horiz-adv-x="1160" 
d="M1047 787l-130 0.000976562c-11.333 0 -21 3.33301 -29 10s-14.667 14.667 -20 24l-196 352c-8.66699 15.333 -16 30.166 -22 44.499l-17 42.5c-8 -27.333 -20.333 -56.333 -37 -87l-193 -352c-5.33301 -9.33301 -12 -17.333 -20 -24s-18.667 -10 -32 -10h-136l359 646
h114z" />
    <glyph glyph-name="underscore" unicode="_" horiz-adv-x="888" 
d="M713 -168l-15 -116h-725l14 116h726z" />
    <glyph glyph-name="grave" unicode="`" 
d="M439 1449c20 0 34.668 -3.5 44.001 -10.5s17.333 -18.167 24 -33.5l109 -242h-93c-12.667 0 -22.834 2.16699 -30.501 6.5s-15.167 11.5 -22.5 21.5l-186 258h155z" />
    <glyph glyph-name="a" unicode="a" horiz-adv-x="1022" 
d="M753 889c-14.667 3.33301 -29.165 5.50098 -43.498 6.50098s-28.5 1.5 -42.5 1.5c-40 0 -78.667 -6.5 -116 -19.5s-72.333 -31.167 -105 -54.5s-62.334 -51.166 -89.001 -83.499s-49.5 -67.833 -68.5 -106.5s-33.833 -79.834 -44.5 -123.501s-16 -88.5 -16 -134.5
c0 -160.667 51.333 -241 154 -241c32.667 0 64.667 10.167 96 30.5s61.166 48.666 89.499 84.999s54.5 79.333 78.5 129s45.333 104.167 64 163.5zM685.002 267.001c-24 -42.667 -49.8369 -81.332 -77.5039 -115.999s-57 -64.167 -88 -88.5s-63.667 -43.166 -98 -56.499
s-69.833 -20 -106.5 -20c-40 0 -76.333 7.83301 -109 23.5s-60.5 38.667 -83.5 69s-40.833 67.666 -53.5 111.999s-19 95.166 -19 152.499c0 60 7.5 118.5 22.5 175.5s36.333 110.833 64 161.5s60.834 97.167 99.501 139.5s81.834 79 129.501 110s98.834 55 153.501 72
s112 25.5 172 25.5c43.333 0 85.5 -3.5 126.5 -10.5s81.5 -19.167 121.5 -36.5l-121 -980h-92c-23.333 0 -39.166 6 -47.499 18s-12.5 26.667 -12.5 44z" />
    <glyph glyph-name="b" unicode="b" horiz-adv-x="1057" 
d="M259 222c25.333 -35.333 55.832 -60.499 91.499 -75.499s71.5 -22.5 107.5 -22.5c34.667 0 67.334 7.33301 98.001 22s58.667 34.5 84 59.5s47.833 54.333 67.5 88s36.5 69.667 50.5 108s24.5 78 31.5 119s10.5 81.5 10.5 121.5c0 79.333 -14.167 139.666 -42.5 180.999
s-68.5 62 -120.5 62c-32 0 -64.333 -10 -97 -30s-64.334 -47.833 -95.001 -83.5s-59.167 -78 -85.5 -127s-49.166 -102.5 -68.499 -160.5zM323.999 756.001c25.333 41.333 52.501 78.6699 81.501 112.003s59.5 61.833 91.5 85.5s65.333 42 100 55s70 19.5 106 19.5
c86.667 0 154 -31.333 202 -94s72 -154.334 72 -275.001c0 -54.667 -5.66699 -109.334 -17 -164.001s-27.5 -106.834 -48.5 -156.501s-46.333 -96 -76 -139s-62.667 -80.333 -99 -112s-75.833 -56.5 -118.5 -74.5s-87.334 -27 -134.001 -27c-54 0 -102.667 11.333 -146 34
s-79.333 55 -108 97l-14 -65c-5.33301 -17.333 -12 -30.333 -20 -39s-22.333 -13 -43 -13h-94l178 1473h174z" />
    <glyph glyph-name="c" unicode="c" horiz-adv-x="909" 
d="M818 182c-34.667 -38 -67.6621 -69.666 -98.9951 -94.999s-62.666 -45.5 -93.999 -60.5s-63.833 -25.5 -97.5 -31.5s-69.834 -9 -108.501 -9c-58.667 0 -110.5 10 -155.5 30s-82.667 48.167 -113 84.5s-53.333 80 -69 131s-23.5 107.167 -23.5 168.5
c0 82 12.833 160.667 38.5 236s61.5 142 107.5 200s100.833 104.333 164.5 139s133.167 52 208.5 52c67.333 0 123.666 -11.833 168.999 -35.5s85 -58.167 119 -103.5l-56 -67c-4.66699 -5.33301 -9.83398 -9.66602 -15.501 -12.999s-12.167 -5 -19.5 -5
c-9.33301 0 -18.5 4.16699 -27.5 12.5s-20.833 17.666 -35.5 27.999s-32.834 19.666 -54.501 27.999s-49.5 12.5 -83.5 12.5c-46 0 -89.333 -12.5 -130 -37.5s-76.334 -59.167 -107.001 -102.5s-54.834 -94.666 -72.501 -153.999s-26.5 -123 -26.5 -191
c0 -41.333 4.66699 -78.833 14 -112.5s23.333 -62.334 42 -86.001s41.5 -42 68.5 -55s58.5 -19.5 94.5 -19.5c44.667 0 82.167 6.66699 112.5 20s55.833 27.833 76.5 43.5s38.167 30.167 52.5 43.5s28.5 20 42.5 20c12.667 0 24 -5.66699 34 -17l44 -54v0z" />
    <glyph glyph-name="d" unicode="d" horiz-adv-x="1058" 
d="M774 792c-25.333 36 -55.8301 61.165 -91.4971 75.498s-71.834 21.5 -108.501 21.5c-52.667 0 -100 -15.667 -142 -47s-77.833 -71.833 -107.5 -121.5s-52.5 -105.167 -68.5 -166.5s-24 -121.666 -24 -180.999c0 -79.333 14.167 -139.833 42.5 -181.5
s68.833 -62.5 121.5 -62.5c32 0 64.333 10 97 30s64.167 47.833 94.5 83.5s58.666 77.834 84.999 126.501s49.166 102 68.499 160zM1032 1473l-181 -1473h-93c-23.333 0 -39 6 -47 18s-12 26.667 -12 44l19 213c-25.333 -44 -53 -83.667 -83 -119
s-61.5 -65.666 -94.5 -90.999s-67.333 -44.833 -103 -58.5s-71.834 -20.5 -108.501 -20.5c-86.667 0 -154 31.5 -202 94.5s-72 154.5 -72 274.5c0 54.667 5.66699 109.334 17 164.001s27.5 107 48.5 157s46.333 96.5 76 139.5s62.834 80.167 99.501 111.5
s76.167 56 118.5 74s86.833 27 133.5 27c50 0 95.5 -9.83301 136.5 -29.5s75.833 -47.5 104.5 -83.5l69 558h174z" />
    <glyph glyph-name="e" unicode="e" horiz-adv-x="957" 
d="M574 899c-42 0 -80.667 -8.66797 -116 -26.001s-66.666 -41.166 -93.999 -71.499s-50.666 -66 -69.999 -107s-34.333 -85.167 -45 -132.5c102.667 12.667 185 27.167 247 43.5s109.667 34 143 53s55.333 39.5 66 61.5s16 45 16 69c0 12 -2.66699 24.5 -8 37.5
s-13.833 24.833 -25.5 35.5s-26.834 19.5 -45.501 26.5s-41.334 10.5 -68.001 10.5zM856 186.999c-34 -35.333 -67.332 -65.5039 -99.999 -90.5039s-65.834 -45.833 -99.501 -62.5s-69 -28.834 -106 -36.501s-76.833 -11.5 -119.5 -11.5c-58 0 -110 9.66699 -156 29
s-85 46.833 -117 82.5s-56.667 78.834 -74 129.501s-26 107.334 -26 170.001c0 52 5.5 103.833 16.5 155.5s27 100.834 48 147.501s46.667 90 77 130s65 74.5 104 103.5s82 51.833 129 68.5s97.5 25 151.5 25c51.333 0 95.666 -7.33301 132.999 -22s68 -33.334 92 -56.001
s41.833 -47.667 53.5 -75s17.5 -53.333 17.5 -78c0 -44 -9 -84.5 -27 -121.5s-51 -70.333 -99 -100s-114 -55.5 -198 -77.5s-192 -39.667 -324 -53c0 -7.33301 -0.166992 -14.5 -0.5 -21.5s-0.5 -14.167 -0.5 -21.5c0 -89.333 19.5 -157.5 58.5 -204.5
s97.833 -70.5 176.5 -70.5c32 0 60.5 3.33301 85.5 10s47.333 14.834 67 24.501s37 20.334 52 32.001l41 32c12.333 9.66699 23.833 17.834 34.5 24.501s21.334 10 32.001 10c12.667 0 24 -5.66699 34 -17z" />
    <glyph glyph-name="f" unicode="f" horiz-adv-x="641" 
d="M395 865l-101.002 -832l-47 -207c-7.33301 -24 -18.166 -42.5 -32.499 -55.5s-34.166 -19.5 -59.499 -19.5h-69l134 1111l-100 13c-12 3.33301 -21.5 8.33301 -28.5 15s-9.83301 17 -8.5 31l9 72h144l12 98c7.33301 58 21.833 109.5 43.5 154.5s49 83 82 114
s70.667 54.5 113 70.5s88.166 24 137.499 24c40.667 0 78.334 -6.66699 113.001 -20l-17 -92c-2.66699 -13.333 -11.667 -20 -27 -20h-58c-28.667 0 -55.167 -4.16699 -79.5 -12.5s-45.833 -21.833 -64.5 -40.5s-34.5 -43 -47.5 -73s-22.167 -66.667 -27.5 -110l-11 -93h253
l-17 -128h-246z" />
    <glyph glyph-name="g" unicode="g" horiz-adv-x="968" 
d="M439 457c36 0 67.833 7.83301 95.5 23.5s51 36.334 70 62.001s33.5 54.5 43.5 86.5s15 64.333 15 97c0 58.667 -14.833 103 -44.5 133s-70.5 45 -122.5 45c-36 0 -67.667 -7.33301 -95 -22s-50.5 -34.334 -69.5 -59.001s-33.333 -52.667 -43 -84s-14.5 -64 -14.5 -98
c0 -60 14.5 -105.667 43.5 -137s69.5 -47 121.5 -47zM640 -25c0 18 -1.66797 34.499 -5.00098 49.499s-7.66602 29.167 -12.999 42.5c-88 14 -164 19.167 -228 15.5s-116.833 -13.5 -158.5 -29.5s-72.5 -36.667 -92.5 -62s-30 -52.666 -30 -81.999
c0 -48 20.167 -84.667 60.5 -110s97.5 -38 171.5 -38c44 0 84.167 5.83301 120.5 17.5s67.333 27.167 93 46.5s45.667 42 60 68s21.5 53.333 21.5 82zM979.999 975.999l-7.00586 -59.002c-3.33301 -24 -16.666 -40 -39.999 -48l-127 -22c12.667 -34.667 19 -73 19 -115
c0 -33.333 -3.83301 -63.333 -11.5 -90s-17.167 -51.334 -28.5 -74.001s-23.666 -44 -36.999 -64s-25.666 -39.833 -36.999 -59.5s-20.833 -40 -28.5 -61s-11.5 -43.833 -11.5 -68.5c0 -18 3.16699 -35.167 9.5 -51.5s14.333 -32.333 24 -48s20.334 -31.5 32.001 -47.5
s22.334 -33 32.001 -51s17.667 -37.5 24 -58.5s9.5 -44.167 9.5 -69.5c-0.666992 -47.333 -12 -92.166 -34 -134.499s-53.333 -79.833 -94 -112.5s-90 -58.5 -148 -77.5s-123.333 -28.5 -196 -28.5c-58 0 -110.833 6 -158.5 18s-88.334 29 -122.001 51
s-59.667 48.5 -78 79.5s-27.5 65.167 -27.5 102.5c0 42.667 9 80.334 27 113.001s42.333 60.834 73 84.501s66.334 43.167 107.001 58.5s83.834 26.666 129.501 33.999s92.5 10.833 140.5 10.5s95 -3.83301 141 -10.5c-6 12.667 -10.833 25.834 -14.5 39.501
s-5.5 28.5 -5.5 44.5c0 20.667 3.16699 42 9.5 64s16.833 47 31.5 75c-25.333 -17.333 -53.666 -30.833 -84.999 -40.5s-67 -14.5 -107 -14.5c-38.667 0 -74.834 6.33301 -108.501 19s-63.167 31.334 -88.5 56.001s-45.333 55.5 -60 92.5s-22 80.167 -22 129.5
c0 48 8.83301 95.167 26.5 141.5s43.5 87.666 77.5 123.999s76 65.5 126 87.5s107.667 33 173 33c36 0 70.333 -4.33301 103 -13s62 -21.667 88 -39h274z" />
    <glyph glyph-name="h" unicode="h" horiz-adv-x="1059" 
d="M332 789c52.667 78.667 111.167 138.17 175.5 178.503s129.833 60.5 196.5 60.5c43.333 0 81.333 -8.5 114 -25.5s59.167 -41.833 79.5 -74.5s34.166 -72.834 41.499 -120.501s7.33301 -101.834 0 -162.501l-76 -645h-178l76 645c10 80 5.33301 139.333 -14 178
s-55.333 58 -108 58c-30 0 -61 -8.16699 -93 -24.5s-62.833 -39.5 -92.5 -69.5s-57.667 -66.333 -84 -109s-49.166 -90.334 -68.499 -143.001l-65 -535h-177l178 1473h178z" />
    <glyph glyph-name="i" unicode="i" horiz-adv-x="460" 
d="M366 1013l-122 -1013h-175l122 1013h175zM434 1331c0 -17.333 -3.5 -33.4971 -10.5 -48.4971s-16.333 -28.333 -28 -40s-25 -20.834 -40 -27.501s-30.5 -10 -46.5 -10c-15.333 0 -30.333 3.33301 -45 10s-27.5 15.834 -38.5 27.501s-19.833 25 -26.5 40
s-10 31.167 -10 48.5s3.33301 33.666 10 48.999s15.667 28.833 27 40.5s24.333 21 39 28s29.667 10.5 45 10.5c16 0 31.5 -3.33301 46.5 -10s28.167 -15.834 39.5 -27.501s20.5 -25.334 27.5 -41.001s10.5 -32.167 10.5 -49.5z" />
    <glyph glyph-name="j" unicode="j" horiz-adv-x="458" 
d="M366 1013l-134.001 -1088c-4.66699 -40.667 -14.667 -78.5 -30 -113.5s-35.5 -65.5 -60.5 -91.5s-55.167 -46.5 -90.5 -61.5s-75.333 -22.5 -120 -22.5c-23.333 0 -43.166 1.66699 -59.499 5s-32.5 8.33301 -48.5 15l18 96c2 6 4.5 10.5 7.5 13.5s7 4.83301 12 5.5
s11.333 0.833984 19 0.500977s17.167 -0.5 28.5 -0.5c47.333 0 82.333 12.167 105 36.5s37.667 63.5 45 117.5l133 1088h175zM428.999 1331c0 -17.333 -3.5 -33.4971 -10.5 -48.4971s-16.333 -28.333 -28 -40s-24.834 -20.834 -39.501 -27.501s-30 -10 -46 -10
s-31.167 3.33301 -45.5 10s-27 15.834 -38 27.501s-19.833 25 -26.5 40s-10 31.167 -10 48.5s3.33301 33.666 10 48.999s15.667 28.833 27 40.5s24.166 21 38.499 28s29.5 10.5 45.5 10.5s31.333 -3.33301 46 -10s27.834 -15.834 39.501 -27.501
s20.834 -25.334 27.501 -41.001s10 -32.167 10 -49.5z" />
    <glyph glyph-name="k" unicode="k" horiz-adv-x="948" 
d="M413 1473l-106 -867h30c14 0 25.333 1.83301 34 5.5s18 11.167 28 22.5l336 343c9.33301 11.333 19.333 20.166 30 26.499s23.667 9.5 39 9.5h158l-391 -397c-20 -23.333 -40.333 -41 -61 -53c10.667 -8 19.834 -17.167 27.501 -27.5s14.834 -22.166 21.501 -35.499
l304 -500h-153c-14.667 0 -26.834 2.5 -36.501 7.5s-17.5 14.167 -23.5 27.5l-258 415c-8 14 -16.333 23.167 -25 27.5s-22.334 6.5 -41.001 6.5h-34l-59 -484h-176l181 1473h175z" />
    <glyph glyph-name="l" unicode="l" horiz-adv-x="450" 
d="M64 0l179 1473h175l-179 -1473h-175z" />
    <glyph glyph-name="m" unicode="m" horiz-adv-x="1574" 
d="M59 0l122 1014h88c40.667 0 61 -20 61 -60l-14 -180c50 83.333 104.833 146.5 164.5 189.5s122.167 64.5 187.5 64.5c68.667 0 119.334 -23.5 152.001 -70.5s49 -114.167 49 -201.5c50 92.667 106.5 161.167 169.5 205.5s129.5 66.5 199.5 66.5
c86.667 0 148 -33.333 184 -100s46.667 -161 32 -283l-76 -645h-176l77 645c9.33301 79.333 6.83301 138.333 -7.5 177s-46.5 58 -96.5 58c-28.667 0 -57.167 -7.16699 -85.5 -21.5s-55.833 -35.333 -82.5 -63s-51.5 -62 -74.5 -103s-43.5 -88.167 -61.5 -141.5v-1l-65 -550
h-176l76 645c10 79.333 8.66699 138.333 -4 177s-44 58 -94 58c-32 0 -62.833 -8 -92.5 -24s-57.667 -39.167 -84 -69.5s-50.833 -67.333 -73.5 -111s-43.334 -92.834 -62.001 -147.501l-63 -528h-174z" />
    <glyph glyph-name="n" unicode="n" horiz-adv-x="1060" 
d="M314 757c54 89.333 115.002 156.835 183.002 202.502s138 68.5 210 68.5c42.667 0 80.167 -8.5 112.5 -25.5s58.666 -41.833 78.999 -74.5s34.166 -72.834 41.499 -120.501s7.33301 -101.834 0 -162.501l-76 -645h-177l76 645c9.33301 80 4.33301 139.167 -15 177.5
s-55 57.5 -107 57.5c-32 0 -64.5 -8.66699 -97.5 -26s-64.833 -42 -95.5 -74s-59.167 -70.5 -85.5 -115.5s-48.833 -95.167 -67.5 -150.5l-58 -514h-178l122 1014h88c40 0 60 -20 60 -60z" />
    <glyph glyph-name="o" unicode="o" horiz-adv-x="1038" 
d="M453 125c48.667 0 92.834 13.333 132.501 40s73.667 62.167 102 106.5s50.166 95.5 65.499 153.5s23 118.667 23 182c0 93.333 -18.5 163.5 -55.5 210.5s-90.167 70.5 -159.5 70.5c-49.333 0 -93.833 -13.167 -133.5 -39.5s-73.5 -61.5 -101.5 -105.5
s-49.667 -95 -65 -153s-23 -118.667 -23 -182c0 -93.333 18.333 -163.833 55 -211.5s90 -71.5 160 -71.5zM436 -14c-55.333 0 -106.002 9.50195 -152.002 28.502s-85.667 46.5 -119 82.5s-59.333 80 -78 132s-28 111.333 -28 178c0 85.333 13.333 165.666 40 240.999
s63.334 141.166 110.001 197.499s101.5 100.833 164.5 133.5s130.833 49 203.5 49c55.333 0 106 -9.5 152 -28.5s85.667 -46.5 119 -82.5s59.333 -80 78 -132s28 -111 28 -177c0 -84.667 -13.333 -164.667 -40 -240s-63.167 -141.333 -109.5 -198
s-101.166 -101.5 -164.499 -134.5s-131.333 -49.5 -204 -49.5z" />
    <glyph glyph-name="p" unicode="p" horiz-adv-x="1057" 
d="M259 222c25.333 -35.333 55.6641 -60.499 90.9971 -75.499s71.333 -22.5 108 -22.5c34.667 0 67.334 7.33301 98.001 22s58.667 34.5 84 59.5s48 54.333 68 88s36.833 69.667 50.5 108s24.167 78 31.5 119s11 81.5 11 121.5c0 79.333 -14.333 139.666 -43 180.999
s-69 62 -121 62c-32 0 -64.333 -9.83301 -97 -29.5s-64.167 -47.167 -94.5 -82.5s-58.666 -77.333 -84.999 -126s-49.166 -102 -68.499 -160zM312.998 738.001c25.333 44 53.001 83.8359 83.001 119.503s61.667 66.167 95 91.5s67.833 44.833 103.5 58.5
s72.167 20.5 109.5 20.5c86.667 0 153.834 -31.333 201.501 -94s71.5 -154.334 71.5 -275.001c0 -54.667 -5.66699 -109.334 -17 -164.001s-27.5 -106.834 -48.5 -156.501s-46.333 -96 -76 -139s-62.667 -80.333 -99 -112s-75.833 -56.5 -118.5 -74.5
s-87.334 -27 -134.001 -27c-50 0 -95.333 9.83301 -136 29.5s-75.334 47.5 -104.001 83.5l-54 -442h-173l165 1357h88c40 0 60 -20 60 -60z" />
    <glyph glyph-name="q" unicode="q" horiz-adv-x="1023" 
d="M754 889c-14.667 3.33301 -29.166 5.5 -43.499 6.5s-28.5 1.5 -42.5 1.5c-40.667 0 -79.667 -6.5 -117 -19.5s-72.333 -31.167 -105 -54.5s-62.334 -51.166 -89.001 -83.499s-49.5 -67.833 -68.5 -106.5s-33.833 -79.834 -44.5 -123.501s-16 -88.5 -16 -134.5
c0 -80 13.167 -140.167 39.5 -180.5s64.833 -60.5 115.5 -60.5c32 0 63.667 10 95 30s61 47.833 89 83.5s54 78 78 127s45.333 102.5 64 160.5zM672.001 244c-23.333 -39.333 -48.501 -74.8291 -75.501 -106.496s-55.333 -58.834 -85 -81.501s-60.834 -40 -93.501 -52
s-66.667 -18 -102 -18c-40 0 -76.333 7.83301 -109 23.5s-60.667 38.667 -84 69s-41.333 67.666 -54 111.999s-19 95.166 -19 152.499c0 60 7.5 118.5 22.5 175.5s36.333 110.833 64 161.5s61 97.167 100 139.5s82.333 79 130 110s98.834 55 153.501 72s112 25.5 172 25.5
c43.333 0 85.333 -3.5 126 -10.5s81 -19.167 121 -36.5l-163 -1323h-112c-12 0 -22 2.16699 -30 6.5s-14.167 10 -18.5 17s-7.16602 15.167 -8.49902 24.5s-1.33301 18.666 0 27.999z" />
    <glyph glyph-name="r" unicode="r" horiz-adv-x="684" 
d="M313 731c26.667 56.667 55.499 105.832 86.499 147.499s63.5 74.334 97.5 98.001s69 38 105 43s72.667 -0.5 110 -16.5l-32 -171c-86.667 34.667 -163.167 22 -229.5 -38s-120.166 -168.333 -161.499 -325l-56 -469h-174l122 1014h88c40.667 0 61 -20 61 -60z" />
    <glyph glyph-name="s" unicode="s" horiz-adv-x="800" 
d="M712 851c-5.33301 -8 -10.6631 -13.8311 -15.9961 -17.498s-12 -5.5 -20 -5.5c-9.33301 0 -19.5 3.66699 -30.5 11s-24.333 15.5 -40 24.5s-34.834 17.333 -57.501 25s-50 11.5 -82 11.5c-30 0 -57.333 -4.16699 -82 -12.5s-45.834 -19.833 -63.501 -34.5
s-31.334 -31.834 -41.001 -51.501s-14.5 -40.5 -14.5 -62.5c0 -31.333 10.333 -56.333 31 -75s46.667 -34.834 78 -48.501s65 -26.834 101 -39.501s69.667 -28.667 101 -48s57.333 -44 78 -74s31 -69 31 -117c0 -46.667 -9.16699 -91.334 -27.5 -134.001
s-44.666 -80.167 -78.999 -112.5s-75.666 -58.166 -123.999 -77.499s-102.5 -29 -162.5 -29c-64.667 0 -121.834 11.5 -171.501 34.5s-90.167 52.5 -121.5 88.5l44 68c6 8.66699 12.5 15.334 19.5 20.001s16.167 7 27.5 7c10.667 0 21.334 -4.66699 32.001 -14
s24 -19.833 40 -31.5s36.167 -22.167 60.5 -31.5s55.166 -14 92.499 -14c32.667 0 62.167 5 88.5 15s48.666 23.333 66.999 40s32.333 36.167 42 58.5s14.5 46.166 14.5 71.499c0 34 -10.333 61 -31 81s-46.667 36.667 -78 50s-65 25.833 -101 37.5s-69.667 26.667 -101 45
s-57.333 42.166 -78 71.499s-31 68.333 -31 117c0 42.667 8.5 83.834 25.5 123.501s41.5 74.834 73.5 105.501s70.833 55.167 116.5 73.5s97.167 27.5 154.5 27.5c60.667 0 114.167 -10.167 160.5 -30.5s86.166 -47.833 119.499 -82.5z" />
    <glyph glyph-name="t" unicode="t" horiz-adv-x="709" 
d="M139 191l0.000976562 15.502c0 6.33301 0.5 15.5 1.5 27.5s2.66699 27.667 5 47l9.5 76l62 507h-113c-9.33301 0 -16.833 3.16699 -22.5 9.5s-7.83398 16.166 -6.50098 29.499l8 71l156 21l76 313c3.33301 10 8.5 18.167 15.5 24.5s15.833 9.5 26.5 9.5h93l-43 -349h266
l-15 -129h-267l-61 -498l-8 -66c-2 -16.667 -3.5 -30 -4.5 -40s-1.66699 -17 -2 -21s-0.5 -7 -0.5 -9c0 -34 8 -59.167 24 -75.5s37.333 -24.5 64 -24.5c18 0 33.5 2.5 46.5 7.5s24.5 10.5 34.5 16.5s18.333 11.5 25 16.5s12.334 7.5 17.001 7.5c6 0 10.5 -1.33301 13.5 -4
s5.83301 -7 8.5 -13l38 -85c-32.667 -28.667 -69.834 -51.167 -111.501 -67.5s-83.5 -24.5 -125.5 -24.5c-64.667 0 -115.5 17.667 -152.5 53s-56.167 86.666 -57.5 153.999z" />
    <glyph glyph-name="u" unicode="u" horiz-adv-x="1059" 
d="M975 1013l-122.001 -1013h-88c-43.333 0 -65 21.333 -65 64l15 185c-53.333 -86.667 -113.5 -152.167 -180.5 -196.5s-135.833 -66.5 -206.5 -66.5c-42.667 0 -80.334 8.5 -113.001 25.5s-59.167 41.833 -79.5 74.5s-34.166 72.667 -41.499 120s-7 101.666 1 162.999
l76 644h177l-76 -644c-9.33301 -79.333 -4.5 -138.333 14.5 -177s54.833 -58 107.5 -58c30.667 0 62.334 8.33301 95.001 25s64 40.334 94 71.001s58.167 67.834 84.5 111.501s48.833 92.167 67.5 145.5l63 526h177z" />
    <glyph glyph-name="v" unicode="v" horiz-adv-x="958" 
d="M988 1013l-507.999 -1013h-148l-262 1013h144c13.333 0 24 -3.66699 32 -11s13.333 -16 16 -26l150 -652c4 -25.333 7.33301 -50.333 10 -75s5 -49.667 7 -75c7.33301 24.667 15.333 49.334 24 74.001s18.667 50 30 76l313 652c5.33301 10.667 12.666 19.5 21.999 26.5
s20 10.5 32 10.5h138z" />
    <glyph glyph-name="w" unicode="w" horiz-adv-x="1446" 
d="M1463 1013l-424.997 -1013h-135c-16 0 -26 11.333 -30 34l-123 687c-1.33301 11.333 -2.5 22.166 -3.5 32.499s-2.16699 21.166 -3.5 32.499c-7.33301 -22 -15.333 -44 -24 -66l-292 -686c-9.33301 -22.667 -23 -34 -41 -34h-130l-178 1013h133
c13.333 0 24 -3.33301 32 -10s13.333 -15.667 16 -27l93 -652l4 -68c1.33301 -22 2.33301 -43.667 3 -65c7.33301 21.333 15.333 43 24 65l27 68l277 656c3.33301 10 9.66602 18.333 18.999 25s19.666 10 30.999 10h74c12.667 0 22.667 -3.33301 30 -10
s11.666 -15 12.999 -25l114 -656c3.33301 -23.333 6.33301 -45.833 9 -67.5s5 -43.5 7 -65.5c6 21.333 12.5 43 19.5 65l22.5 68l257 652c3.33301 10.667 9.83301 19.5 19.5 26.5s20.167 10.5 31.5 10.5h129z" />
    <glyph glyph-name="x" unicode="x" horiz-adv-x="928" 
d="M571 544l269.002 -544h-158c-13.333 -0 -23.833 3.33301 -31.5 10s-13.834 15 -18.501 25l-190 406c-6 -14 -13 -27 -21 -39l-276 -368c-7.33301 -9.33301 -15 -17.333 -23 -24s-18 -10 -30 -10h-155l409 545l-243 468h159c13.333 0 23 -1.83301 29 -5.5
s11 -10.167 15 -19.5l170 -349c7.33301 14.667 15.666 29 24.999 43l229 303c10.667 18.667 24.667 28 42 28h160z" />
    <glyph glyph-name="y" unicode="y" horiz-adv-x="959" 
d="M992 1013l-684 -1315c-7.33301 -14 -15.833 -24.333 -25.5 -31s-21.834 -10 -36.501 -10h-131l220 403l-263 953h147c14.667 0 25.334 -3.5 32.001 -10.5s11.667 -15.833 15 -26.5l163 -638c3.33301 -14 6 -28 8 -42s3.66699 -28 5 -42l18 42.5
c6 14.333 12.333 28.5 19 42.5l320 639c5.33301 10.667 12.833 19.167 22.5 25.5s19.5 9.5 29.5 9.5h141z" />
    <glyph glyph-name="z" unicode="z" horiz-adv-x="848" 
d="M836 1013l-10 -75.999c-1.33301 -12.667 -4.83301 -24.834 -10.5 -36.501s-12.167 -22.167 -19.5 -31.5l-584 -730h499l-16 -139h-713l9 74c0.666992 8.66699 3.66699 19 9 31s12.333 23 21 33l587 735h-491l17 140h702z" />
    <glyph glyph-name="braceleft" unicode="{" horiz-adv-x="568" 
d="M618 1532l-9.00098 -77.0049c-1.33301 -13.333 -7.16602 -22.666 -17.499 -27.999s-18.833 -8 -25.5 -8h-17c-50 0 -91 -19.167 -123 -57.5s-49.667 -92.833 -53 -163.5c-2.66699 -31.333 -4 -61.833 -4 -91.5s0.333008 -59 1 -88s1.16699 -57.333 1.5 -85
s-0.5 -54.834 -2.5 -81.501c-2 -30.667 -7.5 -58.834 -16.5 -84.501s-21 -48.167 -36 -67.5s-32.333 -35.666 -52 -48.999s-40.5 -23 -62.5 -29c36 -10.667 64.5 -31.334 85.5 -62.001s31.5 -67 31.5 -109c0 -40 -5 -79 -15 -117s-20.833 -76.167 -32.5 -114.5
s-22.5 -77 -32.5 -116s-15 -79.5 -15 -121.5c0 -46.667 11.167 -84.167 33.5 -112.5s54.166 -42.5 95.499 -42.5h18c7.33301 0 15.166 -3 23.499 -9s11.833 -15.333 10.5 -28l-10 -77h-50c-45.333 0 -85 6.66699 -119 20s-62.333 31.833 -85 55.5s-39.667 51.834 -51 84.501
s-17 68.334 -17 107.001c0 44 5.33301 86 16 126s22.334 79.167 35.001 117.5s24.334 76.333 35.001 114s16 76.167 16 115.5c0 34.667 -9.33301 63 -28 85s-45.667 33 -81 33l13 104c49.333 0 86.166 19.833 110.499 59.5s36.5 100.834 36.5 183.501
c0 14.667 -0.5 30.834 -1.5 48.501l-3 54l-3 54c-1 17.667 -1.5 33.834 -1.5 48.501c0 64.667 7.66699 122.334 23 173.001s37.833 93.5 67.5 128.5s66.334 61.667 110.001 80s94.167 27.5 151.5 27.5h49z" />
    <glyph glyph-name="bar" unicode="|" horiz-adv-x="517" 
d="M188 1533h138v-1876h-138v1876z" />
    <glyph glyph-name="braceright" unicode="}" horiz-adv-x="569" 
d="M228 1532c45.333 0 85.002 -6.66211 119.002 -19.9951s62.167 -31.833 84.5 -55.5s39.166 -51.834 50.499 -84.501s17 -68.334 17 -107.001c0 -44 -5.16699 -86 -15.5 -126s-21.833 -79 -34.5 -117s-24.167 -75.833 -34.5 -113.5s-15.5 -76.167 -15.5 -115.5
c0 -34.667 9 -63 27 -85s45 -33 81 -33l-13 -104c-48.667 0 -85.334 -19.833 -110.001 -59.5s-37 -101.167 -37 -184.5c0 -14 0.333008 -29.833 1 -47.5s1.5 -35.667 2.5 -54l3 -54c1 -17.667 1.5 -33.834 1.5 -48.501c0 -64.667 -7.66699 -122.334 -23 -173.001
s-37.666 -93.5 -66.999 -128.5s-66 -61.833 -110 -80.5s-94.333 -28 -151 -28h-50l11 77c1.33301 12.667 6.66602 22 15.999 28s18 9 26 9h17c50 0 91 19.167 123 57.5s49.667 92.833 53 163.5c2.66699 30.667 4 61 4 91s-0.333008 59.333 -1 88s-1 56.834 -1 84.501
s1 54.834 3 81.501c1.33301 30.667 6.66602 58.834 15.999 84.501s21.5 48.167 36.5 67.5s32.167 35.666 51.5 48.999s40 23 62 29c-36 11.333 -64.667 32.333 -86 63s-32 67 -32 109c0 39.333 5 78.166 15 116.499s21 76.666 33 114.999s23 77 33 116s15 79.5 15 121.5
c0 46 -11.167 83.333 -33.5 112s-54.166 43 -95.499 43h-17c-8 0 -16.167 2.66699 -24.5 8s-11.5 14.666 -9.5 27.999l9 77h50z" />
    <glyph glyph-name="asciitilde" unicode="~" horiz-adv-x="1160" 
d="M760 613c43.333 0 77 14.168 101 42.501s36.333 65.833 37 112.5h145c0 -44.667 -6.16699 -85.667 -18.5 -123s-30 -69.333 -53 -96s-51.5 -47.334 -85.5 -62.001s-72.333 -22 -115 -22c-35.333 0 -69.833 5.33301 -103.5 16s-66.334 22.5 -98.001 35.5l-90.5 36
c-28.667 11 -55.334 16.5 -80.001 16.5c-43.333 0 -77.166 -14 -101.499 -42s-36.833 -65.667 -37.5 -113h-144c0 44.667 6.16699 85.667 18.5 123s30 69.333 53 96s51.333 47.5 85 62.5s72.167 22.5 115.5 22.5c34.667 0 69 -5.5 103 -16.5s66.833 -23 98.5 -36l90.5 -36
c28.667 -11 55.334 -16.5 80.001 -16.5z" />
    <glyph glyph-name="exclamdown" unicode="&#xa1;" horiz-adv-x="470" 
d="M49 -344l67.002 542.001c3.33301 30 7.16602 59.167 11.499 87.5s9.16602 56.833 14.499 85.5l17 89l19 99h104c-1.33301 -35.333 -2.83301 -68.333 -4.5 -99s-3.5 -60.334 -5.5 -89.001s-4.16699 -57.167 -6.5 -85.5s-5.5 -57.5 -9.5 -87.5l-66 -542h-141z
M144.002 903.001c0 17.333 3.16699 33.666 9.5 48.999s15.166 28.666 26.499 39.999s24.5 20.333 39.5 27s31.5 10 49.5 10c17.333 0 33.5 -3.33301 48.5 -10s28.167 -15.667 39.5 -27s20.333 -24.666 27 -39.999s10 -31.666 10 -48.999c0 -18 -3.33301 -34.5 -10 -49.5
s-15.667 -28.167 -27 -39.5s-24.5 -20.166 -39.5 -26.499s-31.167 -9.5 -48.5 -9.5c-18 0 -34.5 3.16699 -49.5 9.5s-28.167 15.166 -39.5 26.499s-20.166 24.5 -26.499 39.5s-9.5 31.5 -9.5 49.5z" />
    <glyph glyph-name="cent" unicode="&#xa2;" horiz-adv-x="1160" 
d="M661 894c-60 -4 -112.834 -17.501 -158.501 -40.501s-84 -54.167 -115 -93.5s-54.5 -86.166 -70.5 -140.499s-24 -114.5 -24 -180.5c0 -88 19.333 -158.833 58 -212.5s93.334 -87.5 164.001 -101.5zM793.999 1020c54 -7.33301 101.832 -21.5 143.499 -42.5
s78.167 -47.833 109.5 -80.5l-51 -60c-6 -7.33301 -11.667 -12.5 -17 -15.5s-12.666 -4.5 -21.999 -4.5c-8 0 -17 3 -27 9l-36.5 21c-14.333 8 -31.5 16 -51.5 24s-44.333 14.333 -73 19l-147 -771c42.667 2.66699 79.167 9.16699 109.5 19.5s56 21.166 77 32.499
s38.5 21.5 52.5 30.5s26 13.5 36 13.5c14.667 0 25 -5 31 -15l40 -60c-44.667 -46.667 -99.334 -82.5 -164.001 -107.5s-133.334 -39.833 -206.001 -44.5l-34 -177c-3.33301 -12.667 -9.83301 -23.834 -19.5 -33.501s-21.167 -14.5 -34.5 -14.5h-64l43 226
c-54.667 6 -104.5 20.5 -149.5 43.5s-83.5 53.333 -115.5 91s-56.833 82.334 -74.5 134.001s-26.5 109.5 -26.5 173.5c0 84 12.833 161.833 38.5 233.5s62.834 134 111.501 187s107.667 94.833 177 125.5s148 47 236 49l34 180c2.66699 12.667 8.83398 23.834 18.501 33.501
s21.5 14.5 35.5 14.5h64z" />
    <glyph glyph-name="sterling" unicode="&#xa3;" horiz-adv-x="1160" 
d="M875 661c-1.33301 -11.333 -7.16504 -21.835 -17.498 -31.502s-23.166 -14.5 -38.499 -14.5h-424l-31 -256c-6 -50 -18 -92.667 -36 -128s-43 -67 -75 -95c20 4 39.833 7.16699 59.5 9.5s39.5 3.5 59.5 3.5h685l-8 -73c-1.33301 -8.66699 -4.16602 -17.5 -8.49902 -26.5
s-10.333 -17.167 -18 -24.5s-16.334 -13.333 -26.001 -18s-20.167 -7 -31.5 -7h-965l13 112c24 6.66699 45.5 15.167 64.5 25.5s35.5 23.333 49.5 39s25.667 34.667 35 57s16 48.833 20 79.5l36 302h-163l8 70c1.33301 12 7.16602 22.667 17.499 32s23.166 14 38.499 14h113
l33 265c8 62.667 25.167 121.5 51.5 176.5s61.166 102.833 104.499 143.5s94.333 72.667 153 96s124.334 35 197.001 35c55.333 0 103.5 -6.33301 144.5 -19s76.167 -30 105.5 -52s53.666 -48.167 72.999 -78.5s35 -63.166 47 -98.499l-75 -44
c-17.333 -8 -33.166 -11.333 -47.499 -10s-27.166 9.33301 -38.499 24c-11.333 18.667 -23 36.167 -35 52.5s-26.333 30.166 -43 41.499s-36.834 20.333 -60.501 27s-52.834 10 -87.501 10c-43.333 0 -82.833 -7.16699 -118.5 -21.5s-67 -34.666 -94 -60.999
s-49 -58.166 -66 -95.499s-28.167 -79 -33.5 -125l-33 -266h473l-7 -70v0z" />
    <glyph glyph-name="currency" unicode="&#xa4;" horiz-adv-x="1160" 
d="M359 672c0 -30.667 5.83301 -59.5 17.5 -86.5s27.667 -50.667 48 -71s44.166 -36.5 71.499 -48.5s56.333 -18 87 -18c31.333 0 60.833 6 88.5 18s51.667 28.167 72 48.5s36.5 44 48.5 71s18 55.833 18 86.5c0 31.333 -6 60.666 -18 87.999s-28.167 51.333 -48.5 72
s-44.333 36.834 -72 48.501s-57.167 17.5 -88.5 17.5c-30.667 0 -59.667 -5.83301 -87 -17.5s-51.166 -27.834 -71.499 -48.501s-36.333 -44.667 -48 -72s-17.5 -56.666 -17.5 -87.999zM940 227l-151.999 152.001c-29.333 -20 -61.166 -35.667 -95.499 -47
s-70.833 -17 -109.5 -17c-38 0 -73.833 5.5 -107.5 16.5s-64.834 26.167 -93.501 45.5l-154 -153l-89 91l151 152c-20 29.333 -35.667 61.333 -47 96s-17 71 -17 109s5.5 74 16.5 108s26.167 65.333 45.5 94l-152 153l90 90l152 -152c29.333 20.667 61.166 36.667 95.499 48
s70.833 17 109.5 17c38 0 74 -5.5 108 -16.5s65.667 -26.5 95 -46.5l152 153l90 -91l-151 -151c20 -29.333 35.667 -61.333 47 -96s17 -71.334 17 -110.001c0 -38 -5.5 -73.833 -16.5 -107.5s-26.167 -65.167 -45.5 -94.5l152 -151z" />
    <glyph glyph-name="yen" unicode="&#xa5;" horiz-adv-x="1160" 
d="M696 624l310.002 0.00195312l-12 -99h-342l-13 -105h342l-12 -99h-342l-40 -321h-172l39 321h-342l12 99h342l13 105h-342l12 99h310l-310 807h144c16 0 28.833 -3.83301 38.5 -11.5s16.167 -18.167 19.5 -31.5l212 -573c6.66699 -22.667 12 -43.334 16 -62.001
s7 -37.334 9 -56.001c6.66699 18.667 14.167 37.5 22.5 56.5s18.166 39.5 29.499 61.5l351 573c7.33301 11.333 16.666 21.333 27.999 30s25 13 41 13h146z" />
    <glyph glyph-name="brokenbar" unicode="&#xa6;" horiz-adv-x="516" 
d="M187 1533h139v-794h-139v794zM187 452h139v-795h-139v795z" />
    <glyph glyph-name="section" unicode="&#xa7;" horiz-adv-x="924" 
d="M571 462c39.333 19.333 67.333 43.332 84 71.999s25 60.667 25 96c0 32.667 -9 60.334 -27 83.001s-41.167 43 -69.5 61s-59.666 35 -93.999 51s-67.833 33.667 -100.5 53c-46.667 -23.333 -79.334 -48.333 -98.001 -75s-28 -57.334 -28 -92.001
c0 -30.667 9.66699 -57.167 29 -79.5s44 -42.666 74 -60.999s63.167 -36 99.5 -53s71.5 -35.5 105.5 -55.5zM829 1267c-10 -14.667 -22.666 -21.9941 -37.999 -21.9941c-10 0 -20.5 3.83301 -31.5 11.5s-24.333 16 -40 25s-34.5 17.333 -56.5 25s-49 11.5 -81 11.5
c-31.333 0 -59.5 -4.66699 -84.5 -14s-46.5 -21.666 -64.5 -36.999s-31.833 -33.333 -41.5 -54s-14.5 -42.334 -14.5 -65.001c0 -30.667 11.333 -56.834 34 -78.501s51 -41.834 85 -60.501s70.833 -37.334 110.5 -56.001s76.5 -40.334 110.5 -65.001s62.333 -53.667 85 -87
s34 -74 34 -122c0 -60.667 -14.667 -114.834 -44 -162.501s-76 -85.167 -140 -112.5c24 -22 43.5 -47.167 58.5 -75.5s22.5 -61.5 22.5 -99.5c0 -49.333 -9 -95.5 -27 -138.5s-44 -80.5 -78 -112.5s-75.5 -57.167 -124.5 -75.5s-104.833 -27.5 -167.5 -27.5
c-64.667 0 -122.5 11.333 -173.5 34s-92.5 52 -124.5 88l48 66c6 8.66699 12.833 15 20.5 19s17.167 6 28.5 6c12 0 23.5 -4.66699 34.5 -14s24.667 -19.666 41 -30.999s36.666 -21.666 60.999 -30.999s55.5 -14 93.5 -14c33.333 0 63.166 4.83301 89.499 14.5
s48.666 23 66.999 40s32.333 37 42 60s14.5 48.167 14.5 75.5s-6.83301 51 -20.5 71s-31.5 38 -53.5 54s-47.167 30.667 -75.5 44l-86.5 41c-29.333 14 -58.166 29 -86.499 45s-53.5 34.5 -75.5 55.5s-39.833 45.167 -53.5 72.5s-20.5 59.666 -20.5 96.999
c0 58.667 16.167 111.5 48.5 158.5s82.5 83.5 150.5 109.5c-24.667 22.667 -44.667 48.667 -60 78s-23 64.666 -23 105.999c0 43.333 8.66699 84.666 26 123.999s42 74 74 104s71.167 53.833 117.5 71.5s98.5 26.5 156.5 26.5c60.667 0 114.334 -10.333 161.001 -31
s85.667 -49 117 -85z" />
    <glyph glyph-name="dieresis" unicode="&#xa8;" 
d="M447 1289c0 -15.333 -3 -29.666 -9 -42.999s-14.333 -25 -25 -35s-22.834 -18 -36.501 -24s-28.167 -9 -43.5 -9s-29.666 3 -42.999 9s-25.166 14 -35.499 24s-18.5 21.667 -24.5 35s-9 27.666 -9 42.999s3 30 9 44s14.167 26.167 24.5 36.5s22.166 18.5 35.499 24.5
s27.666 9 42.999 9s29.833 -3 43.5 -9s25.834 -14.167 36.501 -24.5s19 -22.5 25 -36.5s9 -28.667 9 -44zM808 1289c0 -15.333 -3 -29.666 -9 -42.999s-14.167 -25 -24.5 -35s-22.333 -18 -36 -24s-28.167 -9 -43.5 -9s-29.833 3 -43.5 9s-25.667 14 -36 24
s-18.5 21.667 -24.5 35s-9 27.666 -9 42.999s3 30 9 44s14.167 26.167 24.5 36.5s22.333 18.5 36 24.5s28.167 9 43.5 9s29.833 -3 43.5 -9s25.667 -14.167 36 -24.5s18.5 -22.5 24.5 -36.5s9 -28.667 9 -44z" />
    <glyph glyph-name="copyright" unicode="&#xa9;" horiz-adv-x="1662" 
d="M1100 474c10 0.666992 18.666 -3.00195 25.999 -11.002l61 -64c-38 -44 -84.667 -78.167 -140 -102.5s-121.333 -36.5 -198 -36.5c-65.333 0 -125 11.333 -179 34s-100.167 54.334 -138.5 95.001s-68 89 -89 145s-31.5 117.333 -31.5 184
c0 67.333 11.5 129.166 34.5 185.499s54.833 104.666 95.5 144.999s88.834 71.666 144.501 93.999s116.167 33.5 181.5 33.5c72.667 0 134.167 -11.167 184.5 -33.5s94.5 -52.166 132.5 -89.499l-46 -65c-3.33301 -4 -7.66602 -8 -12.999 -12s-12 -6 -20 -6
c-9.33301 0 -19.166 3.66699 -29.499 11s-23.666 15.5 -39.999 24.5s-37.333 17.333 -63 25s-57.834 11.5 -96.501 11.5c-47.333 0 -89.833 -7.5 -127.5 -22.5s-69.667 -36.5 -96 -64.5s-46.666 -62 -60.999 -102s-21.5 -85 -21.5 -135
c0 -51.333 7.16699 -97.166 21.5 -137.499s34.166 -74.166 59.499 -101.499s55.666 -48.166 90.999 -62.499s73.666 -21.5 114.999 -21.5c34.667 0 63.667 2.66699 87 8s43.833 11.833 61.5 19.5s33.667 16.167 48 25.5s29.833 18 46.5 26zM113.999 715.998
c0 67.333 8.66699 132.166 26 194.499s41.833 120.666 73.5 174.999s69.834 103.666 114.501 147.999s94 82.5 148 114.5s112 56.667 174 74s126.667 26 194 26s132.166 -8.66699 194.499 -26s120.5 -42 174.5 -74s103.333 -70.167 148 -114.5
s82.834 -93.666 114.501 -147.999s56.167 -112.666 73.5 -174.999s26 -127.166 26 -194.499c0 -66.667 -8.66699 -131.167 -26 -193.5s-41.833 -120.5 -73.5 -174.5s-69.834 -103.167 -114.501 -147.5s-94 -82.5 -148 -114.5s-112.167 -56.667 -174.5 -74
s-127.166 -26 -194.499 -26s-132 8.66699 -194 26s-120 42 -174 74s-103.333 70.167 -148 114.5s-82.834 93.5 -114.501 147.5s-56.167 112 -73.5 174s-26 126.667 -26 194zM213.999 715.998c0 -59.333 7.33594 -116.333 22.0029 -171s35.667 -105.834 63 -153.501
s60 -90.834 98 -129.501s80.333 -71.834 127 -99.501s97 -49 151 -64s110.333 -22.5 169 -22.5s115.167 7.5 169.5 22.5s105 36.333 152 64s89.667 60.834 128 99.501s71.166 81.834 98.499 129.501s48.5 98.834 63.5 153.501s22.5 111.667 22.5 171
c0 89.333 -16.5 173.166 -49.5 251.499s-78 146.666 -135 204.999s-124.167 104.333 -201.5 138s-160 50.5 -248 50.5s-170.333 -16.833 -247 -50.5s-143.334 -79.667 -200.001 -138s-101.334 -126.666 -134.001 -204.999s-49 -162.166 -49 -251.499z" />
    <glyph glyph-name="ordfeminine" unicode="&#xaa;" horiz-adv-x="685" 
d="M500 1103c-44 -1.33301 -81.168 -5 -111.501 -11s-55 -14.167 -74 -24.5s-32.833 -22.5 -41.5 -36.5s-13 -29.667 -13 -47c0 -22.667 7 -39 21 -49s31.667 -15 53 -15c30.667 0 57.834 6.33301 81.501 19s47.5 30.667 71.5 54zM212.999 1353
c36 33.333 74.0039 57.667 114.004 73s82.667 23 128 23c32.667 0 61.167 -6.16699 85.5 -18.5s44.166 -29 59.499 -50s26.166 -45.333 32.499 -73s7.5 -56.5 3.5 -86.5l-47 -381h-58c-11.333 0 -19.5 1.83301 -24.5 5.5s-9.83301 11.167 -14.5 22.5l-5 49
c-16.667 -14 -32.667 -26.333 -48 -37s-31 -19.667 -47 -27s-32.833 -12.833 -50.5 -16.5s-36.834 -5.5 -57.501 -5.5c-42.667 0 -77.667 11.5 -105 34.5s-41 57.167 -41 102.5c0 26.667 6.16699 52.5 18.5 77.5s33 47.5 62 67.5s67.167 36.333 114.5 49
s106.333 19.667 177 21l4 38c3.33301 38 -1.33398 68.333 -14.001 91s-37 34 -73 34c-23.333 0 -43 -3 -59 -9s-30 -12.5 -42 -19.5l-32.5 -19.5c-9.66699 -6 -19.5 -9 -29.5 -9c-9.33301 0 -16.5 2.5 -21.5 7.5s-9.16699 10.5 -12.5 16.5z" />
    <glyph glyph-name="guillemotleft" unicode="&#xab;" horiz-adv-x="789" 
d="M246 565c-10.667 -15.333 -21.334 -27.335 -32.001 -36.002c7.33301 -7.33301 14.666 -19.333 21.999 -36l112 -263c6.66699 -15.333 7.83398 -29.666 3.50098 -42.999s-14.166 -23.666 -29.499 -30.999l-60 -27l-183 389l3 22l279 388l52 -27
c14 -7.33301 21.667 -17.5 23 -30.5s-3.66699 -27.167 -15 -42.5zM517 564.998c-10.667 -15.333 -21.334 -27.335 -32.001 -36.002c7.33301 -7.33301 14.666 -19.333 21.999 -36l112 -263c6.66699 -15.333 7.83398 -29.666 3.50098 -42.999s-14.166 -23.666 -29.499 -30.999
l-60 -27l-183 389l3 22l279 388l52 -27c14 -7.33301 21.667 -17.5 23 -30.5s-3.66699 -27.167 -15 -42.5z" />
    <glyph glyph-name="logicalnot" unicode="&#xac;" horiz-adv-x="1160" 
d="M1007 606l-36 -288h-146l36 288h-711l15 130h858z" />
    </font>
</defs>
</svg>
