<svg xmlns="http://www.w3.org/2000/svg">
<defs>
<font id="Lato-Regular" horiz-adv-x="800" >
  <font-face 
    font-family="Lato"
    font-weight="400"
    font-stretch="normal"
    units-per-em="2000"
    panose-1="2 15 5 2 2 2 4 3 2 3"
    ascent="1610"
    descent="-390"
    x-height="1013"
    cap-height="1433"
    bbox="-1093 -537 2685 2157"
    underline-thickness="89"
    underline-position="-422"
    unicode-range="U+0020-U+FEFF"
  />
<missing-glyph horiz-adv-x="1063" 
d="M250 1141c16.667 14.667 34.5 28.333 53.5 41s39.833 23.834 62.5 33.501s47.167 17.334 73.5 23.001s54.833 8.5 85.5 8.5c42 0 80.167 -5.83301 114.5 -17.5s63.666 -28.167 87.999 -49.5s43.333 -47.166 57 -77.499s20.5 -64.166 20.5 -101.499
c0 -36.667 -5 -68.334 -15 -95.001s-22.5 -49.834 -37.5 -69.501s-31.5 -36.667 -49.5 -51l-51 -40.5c-16 -12.667 -29.833 -25.167 -41.5 -37.5s-18.834 -26.166 -21.501 -41.499l-17 -105h-122l-12 117c-2.66699 22.667 0.333008 42.5 9 59.5s20.5 32.667 35.5 47
s31.667 28.166 50 41.499s35.5 27.666 51.5 42.999s29.333 32.666 40 51.999s16 42.333 16 69c0 34 -12.167 61 -36.5 81s-55.5 30 -93.5 30c-27.333 0 -50.333 -3 -69 -9s-34.667 -12.667 -48 -20s-24.666 -14 -33.999 -20s-17.666 -9 -24.999 -9
c-16.667 0 -29 7.33301 -37 22zM396 291.999c0 31.333 10.333 57.666 31 78.999s47 32 79 32c14.667 0 28.667 -2.83301 42 -8.5s24.833 -13.5 34.5 -23.5s17.334 -21.833 23.001 -35.5s8.5 -28.167 8.5 -43.5s-2.83301 -29.666 -8.5 -42.999s-13.334 -25 -23.001 -35
s-21.167 -17.833 -34.5 -23.5s-27.333 -8.5 -42 -8.5c-32 0 -58.333 10.5 -79 31.5s-31 47.167 -31 78.5zM45 1433h974v-1433h-974v1433zM95 53.999h867v1324h-867v-1324z" />
    <glyph glyph-name="uniFB00" unicode="ff" horiz-adv-x="1331" 
d="M207 0l-0.00292969 860.999l-112 13c-14 3.33301 -25.5 8.5 -34.5 15.5s-13.5 17.167 -13.5 30.5v73h160v83c0 58 8.16699 109.5 24.5 154.5s39.666 83 69.999 114s66.833 54.5 109.5 70.5s90.667 24 144 24c45.333 0 87 -6.66699 125 -20l-4 -90
c-1.33301 -16 -10.166 -24.667 -26.499 -26s-38.166 -2 -65.499 -2c-30.667 0 -58.5 -3.83301 -83.5 -11.5s-46.5 -20.5 -64.5 -38.5s-31.833 -41.833 -41.5 -71.5s-14.5 -66.167 -14.5 -109.5v-77h457v109c0 58 8.16699 109.5 24.5 154.5s39.666 83 69.999 114
s66.833 54.5 109.5 70.5s90.667 24 144 24c44.667 0 86.334 -6.66699 125.001 -20l-4 -89c-1.33301 -16 -10.166 -24.667 -26.499 -26s-38.166 -2 -65.499 -2c-30.667 0 -58.5 -4 -83.5 -12s-46.5 -21 -64.5 -39s-31.833 -41.667 -41.5 -71s-14.5 -65.666 -14.5 -108.999
v-104h292v-129h-286v-864h-179v864h-451v-864h-179z" />
    <glyph glyph-name="uniFB01" unicode="fi" horiz-adv-x="1145" 
d="M209 0l-0.000976562 861.003l-112 13c-14.667 3.33301 -26.334 8.5 -35.001 15.5s-13 17.167 -13 30.5v73h160v56c0 62 9.66699 118.833 29 170.5s48.333 96.167 87 133.5s86.834 66.333 144.501 87s124.5 31 200.5 31c25.333 0 51.333 -1.66699 78 -5
s49.667 -8.33301 69 -15l-7 -93c-0.666992 -6.66699 -3.16699 -11.334 -7.5 -14.001s-10.166 -4.33398 -17.499 -5.00098s-16.5 -0.833984 -27.5 -0.500977s-23.5 0.5 -37.5 0.5c-118.667 0 -204.667 -24.5 -258 -73.5s-80 -122.833 -80 -221.5v-51h612v-993h-179v864h-428
v-864h-178z" />
    <glyph glyph-name="uniFB02" unicode="fl" horiz-adv-x="1179" 
d="M209 0l-0.000976562 861.001l-112 13c-14.667 3.33301 -26.334 8.5 -35.001 15.5s-13 17.167 -13 30.5v73h160v54c0 56 8.5 109.167 25.5 159.5s42.833 94.166 77.5 131.499s78 67 130 89s112.667 33 182 33c51.333 0 100.833 -2 148.5 -6s93.834 -6.33301 138.501 -7
h121v-1447h-177v1322c-36 1.33301 -72.167 3 -108.5 5s-68.166 3 -95.499 3c-86.667 0 -153.167 -24.833 -199.5 -74.5s-69.5 -119.167 -69.5 -208.5v-54h263v-129h-258v-864h-178z" />
    <glyph glyph-name="uniFB03" unicode="ffi" horiz-adv-x="1775" 
d="M209 0v861.003l-112 13c-14.667 3.33301 -26.334 8.5 -35.001 15.5s-13 17.167 -13 30.5v73h160v83c0 58 8.16699 109.5 24.5 154.5s39.5 83 69.5 114s66.333 54.5 109 70.5s90.667 24 144 24c45.333 0 87.333 -6.66699 126 -20l-5 -90c-1.33301 -16 -10 -24.667 -26 -26
s-38 -2 -66 -2c-30.667 0 -58.5 -3.83301 -83.5 -11.5s-46.333 -20.5 -64 -38.5s-31.334 -41.833 -41.001 -71.5s-14.5 -66.167 -14.5 -109.5v-77h457v56c0 62 9.66699 118.833 29 170.5s48.333 96.167 87 133.5s86.834 66.333 144.501 87s124.5 31 200.5 31
c25.333 0 51.333 -1.66699 78 -5s49.667 -8.33301 69 -15l-7 -93c-0.666992 -6.66699 -3.16699 -11.334 -7.5 -14.001s-10.166 -4.33398 -17.499 -5.00098s-16.5 -0.833984 -27.5 -0.500977s-23.5 0.5 -37.5 0.5c-118.667 0 -204.667 -24.5 -258 -73.5
s-80 -122.833 -80 -221.5v-51h612v-993h-179v864h-428v-864h-178v864h-452v-864h-178z" />
    <glyph glyph-name="uniFB04" unicode="ffl" horiz-adv-x="1808" 
d="M207 0l-0.00195312 861.001l-112 13c-14 3.33301 -25.5 8.5 -34.5 15.5s-13.5 17.167 -13.5 30.5v73h160v83c0 58 8.16699 109.5 24.5 154.5s39.666 83 69.999 114s66.833 54.5 109.5 70.5s90.667 24 144 24c45.333 0 87 -6.66699 125 -20l-4 -90
c-1.33301 -16 -10.166 -24.667 -26.499 -26s-38.166 -2 -65.499 -2c-30.667 0 -58.5 -3.83301 -83.5 -11.5s-46.5 -20.5 -64.5 -38.5s-31.833 -41.833 -41.5 -71.5s-14.5 -66.167 -14.5 -109.5v-77h457v54c0 56 8.66699 109.167 26 159.5s43.333 94.166 78 131.499
s78 67 130 89s112.667 33 182 33c50.667 0 99.834 -2 147.501 -6s93.834 -6.33301 138.501 -7h122v-1447h-178v1322c-36 1.33301 -72.167 3 -108.5 5s-67.833 3 -94.5 3c-86.667 0 -153.334 -24.833 -200.001 -74.5s-70 -119.167 -70 -208.5v-54h292v-129h-286v-864h-179
v864h-451v-864h-179z" />
    <glyph glyph-name="f_b.liga" unicode="fb" horiz-adv-x="1828" 
d="M207 0l0.000976562 861.001l-112 13c-14 3.33301 -25.5 8.5 -34.5 15.5s-13.5 17.167 -13.5 30.5v73h160v83c0 60 8.66699 115.667 26 167s45 95.5 83 132.5s87.167 66 147.5 87s133.166 31.5 218.499 31.5c28.667 0 56.334 -1.16699 83.001 -3.5l80.5 -7l84.5 -7
c29.333 -2.33301 61.666 -3.5 96.999 -3.5v-606c42.667 49.333 90.834 88.666 144.501 117.999s115.5 44 185.5 44c59.333 0 112.833 -11.333 160.5 -34s88.167 -55.5 121.5 -98.5s58.833 -95.167 76.5 -156.5s26.5 -130.333 26.5 -207c0 -82 -10 -156.667 -30 -224
s-48.833 -124.833 -86.5 -172.5s-83.5 -84.667 -137.5 -111s-114.667 -39.5 -182 -39.5c-66.667 0 -122.834 12.5 -168.501 37.5s-85.5 60.5 -119.5 106.5l-9 -92c-5.33301 -25.333 -20.666 -38 -45.999 -38h-115v1348c-28 8 -57.333 14.5 -88 19.5s-60 7.5 -88 7.5
c-50.667 0 -94.334 -7.5 -131.001 -22.5s-67 -35.667 -91 -62s-41.667 -57.833 -53 -94.5s-17 -76.667 -17 -120v-83h292v-129h-286v-864h-179zM1027 244.001c32.667 -44 68.5 -74.998 107.5 -92.998s81.833 -27 128.5 -27c95.333 0 168.333 33.667 219 101
s76 167.666 76 300.999c0 124 -22.5 215.167 -67.5 273.5s-109.167 87.5 -192.5 87.5c-58 0 -108.5 -13.333 -151.5 -40s-82.833 -64.334 -119.5 -113.001v-490z" />
    <glyph glyph-name="f_f_b.liga" unicode="ffb" horiz-adv-x="2458" 
d="M207 0v861.001l-112 13c-14 3.33301 -25.5 8.5 -34.5 15.5s-13.5 17.167 -13.5 30.5v73h160v83c0 58 8.16699 109.5 24.5 154.5s39.666 83 69.999 114s66.833 54.5 109.5 70.5s90.667 24 144 24c45.333 0 87 -6.66699 125 -20l-4 -90
c-1.33301 -16 -10.166 -24.667 -26.499 -26s-38.166 -2 -65.499 -2c-30.667 0 -58.5 -3.83301 -83.5 -11.5s-46.5 -20.5 -64.5 -38.5s-31.833 -41.833 -41.5 -71.5s-14.5 -66.167 -14.5 -109.5v-77h457v83c0 60 8.66699 115.667 26 167s45 95.5 83 132.5s87.167 66 147.5 87
s133.166 31.5 218.499 31.5c28.667 0 56.334 -1.16699 83.001 -3.5l80.5 -7l84.5 -7c29.333 -2.33301 61.666 -3.5 96.999 -3.5v-606c42.667 49.333 90.834 88.666 144.501 117.999s115.5 44 185.5 44c59.333 0 112.833 -11.333 160.5 -34s88.167 -55.5 121.5 -98.5
s58.833 -95.167 76.5 -156.5s26.5 -130.333 26.5 -207c0 -82 -10 -156.667 -30 -224s-48.833 -124.833 -86.5 -172.5s-83.5 -84.667 -137.5 -111s-114.667 -39.5 -182 -39.5c-66.667 0 -122.834 12.5 -168.501 37.5s-85.5 60.5 -119.5 106.5l-9 -92
c-5.33301 -25.333 -20.666 -38 -45.999 -38h-115v1348c-28 8 -57.333 14.5 -88 19.5s-60 7.5 -88 7.5c-50.667 0 -94.334 -7.5 -131.001 -22.5s-67 -35.667 -91 -62s-41.667 -57.833 -53 -94.5s-17 -76.667 -17 -120v-83h292v-129h-286v-864h-179v864h-451v-864h-179z
M1657 244.001c32.667 -44 68.501 -74.998 107.501 -92.998s81.833 -27 128.5 -27c95.333 0 168.333 33.667 218.999 101c50.667 67.333 76 167.666 76 300.999c0 124 -22.5 215.167 -67.5 273.5s-109.167 87.5 -192.5 87.5c-58 0 -108.5 -13.333 -151.5 -40
s-82.833 -64.334 -119.5 -113.001v-490z" />
    <glyph glyph-name="f_h.liga" unicode="fh" horiz-adv-x="1823" 
d="M207 0l0.00488281 860.998l-112 13c-14 3.33301 -25.5 8.5 -34.5 15.5s-13.5 17.167 -13.5 30.5v73h160v83c0 60 8.66699 115.667 26 167s45 95.5 83 132.5s87.167 66 147.5 87s133.166 31.5 218.499 31.5c28.667 0 56.334 -1.16699 83.001 -3.5l80.5 -7l84.5 -7
c29.333 -2.33301 61.666 -3.5 96.999 -3.5v-595c43.333 46 91.333 82.667 144 110s113.334 41 182.001 41c55.333 0 104.166 -9.16699 146.499 -27.5s77.666 -44.333 105.999 -78s49.833 -74.167 64.5 -121.5s22 -99.666 22 -156.999v-645h-179v645
c0 76.667 -17.5 136.167 -52.5 178.5s-88.167 63.5 -159.5 63.5c-52.667 0 -101.834 -12.667 -147.501 -38s-87.834 -59.666 -126.501 -102.999v-746h-179v1348c-28 8 -57.333 14.5 -88 19.5s-60 7.5 -88 7.5c-50.667 0 -94.334 -7.5 -131.001 -22.5s-67 -35.667 -91 -62
s-41.667 -57.833 -53 -94.5s-17 -76.667 -17 -120v-83h292v-129h-286v-864h-179z" />
    <glyph glyph-name="f_f_h.liga" unicode="ffh" horiz-adv-x="2453" 
d="M207 0l0.00585938 860.998l-112 13c-14 3.33301 -25.5 8.5 -34.5 15.5s-13.5 17.167 -13.5 30.5v73h160v83c0 58 8.16699 109.5 24.5 154.5s39.666 83 69.999 114s66.833 54.5 109.5 70.5s90.667 24 144 24c45.333 0 87 -6.66699 125 -20l-4 -90
c-1.33301 -16 -10.166 -24.667 -26.499 -26s-38.166 -2 -65.499 -2c-30.667 0 -58.5 -3.83301 -83.5 -11.5s-46.5 -20.5 -64.5 -38.5s-31.833 -41.833 -41.5 -71.5s-14.5 -66.167 -14.5 -109.5v-77h457v83c0 60 8.66699 115.667 26 167s45 95.5 83 132.5s87.167 66 147.5 87
s133.166 31.5 218.499 31.5c27.333 0 53.666 -1 78.999 -3s50.666 -4.33301 75.999 -7s51.833 -5 79.5 -7s57.5 -3.33301 89.5 -4h21v-595c43.333 46 91.333 82.667 144 110s113.334 41 182.001 41c55.333 0 104.166 -9.16699 146.499 -27.5s77.666 -44.333 105.999 -78
s49.833 -74.167 64.5 -121.5s22 -99.666 22 -156.999v-645h-179v645c0 76.667 -17.5 136.167 -52.5 178.5s-88.167 63.5 -159.5 63.5c-52.667 0 -101.834 -12.667 -147.501 -38s-87.834 -59.666 -126.501 -102.999v-746h-179v1348c-28 8 -57.333 14.5 -88 19.5
s-60 7.5 -88 7.5c-50.667 0 -94.334 -7.5 -131.001 -22.5s-67 -35.667 -91 -62s-41.667 -57.833 -53 -94.5s-17 -76.667 -17 -120v-83h292v-129h-286v-864h-179v864h-451v-864h-179z" />
    <glyph glyph-name="f_igrave.liga" unicode="f&#xec;" horiz-adv-x="1145" 
d="M697 1471c37.333 0 67.333 -6.16797 90 -18.501s39.667 -28.166 51 -47.499l148 -242h-101c-14 0 -25.333 2.16699 -34 6.5s-17.667 11.5 -27 21.5l-135 148c-106 -3.33301 -183.667 -29.5 -233 -78.5s-74 -121.167 -74 -216.5v-51h612v-993h-179v864h-428v-864h-178v861
l-112 13c-14.667 3.33301 -26.334 8.5 -35.001 15.5s-13 17.167 -13 30.5v73h160v56c0 62 9.33301 118.833 28 170.5s47.834 96.167 87.501 133.5s90.167 66.333 151.5 87s135 31 221 31z" />
    <glyph glyph-name="f_icircumflex.liga" unicode="f&#xee;" horiz-adv-x="1144" 
d="M209 0l0.00195312 861.001l-112 13c-14.667 3.33301 -26.334 8.5 -35.001 15.5s-13 17.167 -13 30.5v73h160v133c0 110.667 25.167 194.5 75.5 251.5s121.166 85.5 212.499 85.5c30.667 0 57 -3.33301 79 -10v-98c0 -10.667 -4.83301 -17.334 -14.5 -20.001
s-23.167 -4 -40.5 -4c-47.333 0 -82.333 -16 -105 -48s-34 -84 -34 -156v-134h612v-993h-179v864h-428v-864h-178zM1215 1169l-119 0.000976562c-7.33301 0 -14.833 1.33301 -22.5 4s-15.167 7.66699 -22.5 15l-123 132c-6 5.33301 -11.333 11.666 -16 18.999l-17 -19
l-124 -132c-14 -12.667 -29 -19 -45 -19h-123l223 264h166z" />
    <glyph glyph-name="f_itilde.liga" unicode="f&#x129;" horiz-adv-x="1145" 
d="M1013 1325c24 0 42.502 6.99902 55.502 20.999s19.833 35.667 20.5 65h108c0 -31.333 -4.16699 -60.166 -12.5 -86.499s-20.333 -48.833 -36 -67.5s-34.334 -33.167 -56.001 -43.5s-45.834 -15.5 -72.501 -15.5c-23.333 0 -45.166 4.83301 -65.499 14.5
s-39.5 20.167 -57.5 31.5l-51 31.5c-16 9.66699 -31.667 14.5 -47 14.5c-48 0 -72.667 -29.333 -74 -88h-111c0 32 4.33301 61.167 13 87.5s21 49 37 68s35 33.667 57 44s46 15.5 72 15.5c23.333 0 45.166 -4.83301 65.499 -14.5s39.5 -20.167 57.5 -31.5l50.5 -31.5
c15.667 -9.66699 31.167 -14.5 46.5 -14.5zM209.002 -0.000976562l0.00195312 861.001l-112 13c-14.667 3.33301 -26.334 8.5 -35.001 15.5s-13 17.167 -13 30.5v73h160v133c0 110.667 25.167 194.5 75.5 251.5s121.166 85.5 212.499 85.5c30.667 0 57 -3.33301 79 -10v-98
c0 -10.667 -4.83301 -17.334 -14.5 -20.001s-23.167 -4 -40.5 -4c-47.333 0 -82.333 -16 -105 -48s-34 -84 -34 -156v-134h612v-993h-179v864h-428v-864h-178z" />
    <glyph glyph-name="f_idieresis.liga" unicode="f&#xef;" horiz-adv-x="1144" 
d="M851 1289c0 -15.333 -3 -29.666 -9 -42.999s-14.333 -25 -25 -35s-22.834 -18 -36.501 -24s-28.167 -9 -43.5 -9s-29.666 3 -42.999 9s-25 14 -35 24s-18 21.667 -24 35s-9 27.666 -9 42.999s3 30 9 44s14 26.167 24 36.5s21.667 18.5 35 24.5s27.666 9 42.999 9
s29.833 -3 43.5 -9s25.834 -14.167 36.501 -24.5s19 -22.5 25 -36.5s9 -28.667 9 -44zM1181 1289c0 -15.333 -3 -29.666 -9 -42.999s-14.167 -25 -24.5 -35s-22.333 -18 -36 -24s-28.167 -9 -43.5 -9s-29.833 3 -43.5 9s-25.5 14 -35.5 24s-18 21.667 -24 35
s-9 27.666 -9 42.999s3 30 9 44s14 26.167 24 36.5s21.833 18.5 35.5 24.5s28.167 9 43.5 9s29.833 -3 43.5 -9s25.667 -14.167 36 -24.5s18.5 -22.5 24.5 -36.5s9 -28.667 9 -44zM209 0l0.00195312 861.001l-112 13c-14.667 3.33301 -26.334 8.5 -35.001 15.5
s-13 17.167 -13 30.5v73h160v133c0 110.667 25.167 194.5 75.5 251.5s121.166 85.5 212.499 85.5c30.667 0 57 -3.33301 79 -10v-98c0 -10.667 -4.83301 -17.334 -14.5 -20.001s-23.167 -4 -40.5 -4c-47.333 0 -82.333 -16 -105 -48s-34 -84 -34 -156v-134h612v-993h-179
v864h-428v-864h-178z" />
    <glyph glyph-name="f_imacron.liga" unicode="f&#x12b;" horiz-adv-x="1145" 
d="M616 1348h574v-117h-574v117zM209 0l0.00195312 861.001l-112 13c-14.667 3.33301 -26.334 8.5 -35.001 15.5s-13 17.167 -13 30.5v73h160v133c0 110.667 25.167 194.5 75.5 251.5s121.166 85.5 212.499 85.5c30.667 0 57 -3.33301 79 -10v-98
c0 -10.667 -4.83301 -17.334 -14.5 -20.001s-23.167 -4 -40.5 -4c-47.333 0 -82.333 -16 -105 -48s-34 -84 -34 -156v-134h612v-993h-179v864h-428v-864h-178z" />
    <glyph glyph-name="f_ibreve.liga" unicode="f&#x12d;" horiz-adv-x="1144" 
d="M903 1164c-51.333 0 -94.332 7.16699 -128.999 21.5s-62.834 33.666 -84.501 57.999s-37.167 52.833 -46.5 85.5s-14 67.334 -14 104.001h126c0 -22 2.33301 -42.5 7 -61.5s12.667 -35.167 24 -48.5s26.5 -23.833 45.5 -31.5s42.833 -11.5 71.5 -11.5
s52.5 3.83301 71.5 11.5s34.167 18.167 45.5 31.5s19.333 29.5 24 48.5s7 39.5 7 61.5h126c0 -36.667 -4.66699 -71.334 -14 -104.001s-24.833 -61.167 -46.5 -85.5s-50 -43.666 -85 -57.999s-77.833 -21.5 -128.5 -21.5zM209.001 0l0.00195312 861.001l-112 13
c-14.667 3.33301 -26.334 8.5 -35.001 15.5s-13 17.167 -13 30.5v73h160v133c0 110.667 25.167 194.5 75.5 251.5s121.166 85.5 212.499 85.5c30.667 0 57 -3.33301 79 -10v-98c0 -10.667 -4.83301 -17.334 -14.5 -20.001s-23.167 -4 -40.5 -4
c-47.333 0 -82.333 -16 -105 -48s-34 -84 -34 -156v-134h612v-993h-179v864h-428v-864h-178z" />
    <glyph glyph-name="f_iogonek.liga" unicode="f&#x12f;" horiz-adv-x="1144" 
d="M209 0v861l-112 13c-14.667 3.33301 -26.334 8.5 -35.001 15.5s-13 17.167 -13 30.5v73h160v56c0 62 9.66699 118.833 29 170.5s48.333 96.167 87 133.5s86.834 66.333 144.501 87s124.5 31 200.5 31c25.333 0 51.333 -1.66699 78 -5s49.667 -8.33301 69 -15l-7 -93
c-0.666992 -6.66699 -3.16699 -11.334 -7.5 -14.001s-10.166 -4.33398 -17.499 -5.00098s-16.5 -0.833984 -27.5 -0.500977s-23.5 0.5 -37.5 0.5c-118.667 0 -204.667 -24.5 -258 -73.5s-80 -122.833 -80 -221.5v-51h612v-993h-20c-13.333 -7.33301 -27 -16.166 -41 -26.499
s-26.667 -22 -38 -35s-20.666 -27.333 -27.999 -43s-11 -32.167 -11 -49.5c0 -25.333 8.16699 -45.166 24.5 -59.499s38.5 -21.5 66.5 -21.5c15.333 0 28 1.16699 38 3.5s18.333 5 25 8s12.167 5.83301 16.5 8.5s8.16602 4 11.499 4c4.66699 0 8.5 -1.33301 11.5 -4
s5.16699 -5.66699 6.5 -9l28 -66c-20 -15.333 -45.5 -27.833 -76.5 -37.5s-63.5 -14.5 -97.5 -14.5c-58.667 0 -104.834 13.167 -138.501 39.5s-50.5 61.5 -50.5 105.5c0 38.667 13.167 74.834 39.5 108.501s59.5 63.167 99.5 88.5h-45v864h-428v-864h-178z" />
    <glyph glyph-name="f_dotlessi.liga" unicode="f&#x131;" horiz-adv-x="1145" 
d="M209 0l0.00195312 861.001l-112 13c-14.667 3.33301 -26.334 8.5 -35.001 15.5s-13 17.167 -13 30.5v73h160v133c0 110.667 25.167 194.5 75.5 251.5s121.166 85.5 212.499 85.5c30.667 0 57 -3.33301 79 -10v-98c0 -10.667 -4.83301 -17.334 -14.5 -20.001
s-23.167 -4 -40.5 -4c-47.333 0 -82.333 -16 -105 -48s-34 -84 -34 -156v-134h612v-993h-179v864h-428v-864h-178z" />
    <glyph glyph-name="f_f_igrave.liga" unicode="ff&#xec;" horiz-adv-x="1773" 
d="M209 0l0.00195312 860.999l-114 13c-14.667 3.33301 -26.334 8.5 -35.001 15.5s-13 17.167 -13 30.5v73h162v83c0 58 8.16699 109.5 24.5 154.5s39.5 83 69.5 114s66.333 54.5 109 70.5s90.667 24 144 24c45.333 0 87.333 -6.66699 126 -20l-5 -90
c-1.33301 -16 -10 -24.667 -26 -26s-38 -2 -66 -2c-30.667 0 -58.5 -3.83301 -83.5 -11.5s-46.333 -20.5 -64 -38.5s-31.334 -41.833 -41.001 -71.5s-14.5 -66.167 -14.5 -109.5v-77h455v109c0 116 36.333 205.5 109 268.5s186.334 94.5 341.001 94.5
c48 0 86.667 -3.5 116 -10.5s48.666 -18.167 57.999 -33.5l157 -258h-101c-14 0 -25.333 2.16699 -34 6.5s-17.667 11.5 -27 21.5l-136 150c-6 0 -12 0.166992 -18 0.5s-12 0.5 -18 0.5c-46 0 -86 -4.33301 -120 -13s-62.5 -22.667 -85.5 -42s-40.167 -44.666 -51.5 -75.999
s-17 -69.333 -17 -114v-104h612v-993h-179v864h-427v-864h-179v864h-450v-864h-178z" />
    <glyph glyph-name="f_f_icircumflex.liga" unicode="ff&#xee;" horiz-adv-x="1774" 
d="M209 0l0.00292969 861.001l-112 13c-14.667 3.33301 -26.334 8.5 -35.001 15.5s-13 17.167 -13 30.5v73h160v83c0 58 8.16699 109.5 24.5 154.5s39.5 83 69.5 114s66.333 54.5 109 70.5s90.667 24 144 24c45.333 0 87.333 -6.66699 126 -20l-5 -90
c-1.33301 -16 -10 -24.667 -26 -26s-38 -2 -66 -2c-30.667 0 -58.5 -3.83301 -83.5 -11.5s-46.333 -20.5 -64 -38.5s-31.334 -41.833 -41.001 -71.5s-14.5 -66.167 -14.5 -109.5v-77h457v133c0 110.667 25.167 194.5 75.5 251.5s121.166 85.5 212.499 85.5
c30.667 0 57 -3.33301 79 -10v-98c0 -10.667 -4.83301 -17.334 -14.5 -20.001s-23.167 -4 -40.5 -4c-47.333 0 -82.333 -16 -105 -48s-34 -84 -34 -156v-134h612v-993h-179v864h-428v-864h-178v864h-452v-864h-178zM1844 1169l-119 0.000976562
c-7.33301 0 -14.833 1.33301 -22.5 4s-15.167 7.66699 -22.5 15l-123 132c-6 5.33301 -11.333 11.666 -16 18.999l-17 -19l-124 -132c-14 -12.667 -29 -19 -45 -19h-123l223 264h166z" />
    <glyph glyph-name="f_f_itilde.liga" unicode="ff&#x129;" horiz-adv-x="1775" 
d="M209 0l0.00292969 861.001l-112 13c-14.667 3.33301 -26.334 8.5 -35.001 15.5s-13 17.167 -13 30.5v73h160v83c0 58 8.16699 109.5 24.5 154.5s39.5 83 69.5 114s66.333 54.5 109 70.5s90.667 24 144 24c45.333 0 87.333 -6.66699 126 -20l-5 -90
c-1.33301 -16 -10 -24.667 -26 -26s-38 -2 -66 -2c-30.667 0 -58.5 -3.83301 -83.5 -11.5s-46.333 -20.5 -64 -38.5s-31.334 -41.833 -41.001 -71.5s-14.5 -66.167 -14.5 -109.5v-77h457v133c0 110.667 25.167 194.5 75.5 251.5s121.166 85.5 212.499 85.5
c30.667 0 57 -3.33301 79 -10v-98c0 -10.667 -4.83301 -17.334 -14.5 -20.001s-23.167 -4 -40.5 -4c-47.333 0 -82.333 -16 -105 -48s-34 -84 -34 -156v-134h612v-993h-179v864h-428v-864h-178v864h-452v-864h-178zM1645 1325c24 0 42.502 6.99902 55.502 20.999
s19.833 35.667 20.5 65h108c0 -31.333 -4.16699 -60.166 -12.5 -86.499s-20.333 -48.833 -36 -67.5s-34.334 -33.167 -56.001 -43.5s-45.834 -15.5 -72.501 -15.5c-23.333 0 -45.166 4.83301 -65.499 14.5s-39.5 20.167 -57.5 31.5l-51 31.5
c-16 9.66699 -31.667 14.5 -47 14.5c-48 0 -72.667 -29.333 -74 -88h-111c0 32 4.33301 61.167 13 87.5s21 49 37 68s35 33.667 57 44s46 15.5 72 15.5c23.333 0 45.166 -4.83301 65.499 -14.5s39.5 -20.167 57.5 -31.5l50.5 -31.5c15.667 -9.66699 31.167 -14.5 46.5 -14.5
z" />
    <glyph glyph-name="f_f_idieresis.liga" unicode="ff&#xef;" horiz-adv-x="1774" 
d="M1476 1289c0 -15.333 -3 -29.666 -9 -42.999s-14.167 -25 -24.5 -35s-22.5 -18 -36.5 -24s-28.667 -9 -44 -9c-14.667 0 -28.667 3 -42 9s-25.166 14 -35.499 24s-18.5 21.667 -24.5 35s-9 27.666 -9 42.999s3 30 9 44s14.167 26.167 24.5 36.5s22.166 18.5 35.499 24.5
s27.333 9 42 9c15.333 0 30 -3 44 -9s26.167 -14.167 36.5 -24.5s18.5 -22.5 24.5 -36.5s9 -28.667 9 -44zM1806 1289c0 -15.333 -3 -29.666 -9 -42.999s-14.167 -25 -24.5 -35s-22.333 -18 -36 -24s-28.167 -9 -43.5 -9s-29.833 3 -43.5 9s-25.5 14 -35.5 24
s-18 21.667 -24 35s-9 27.666 -9 42.999s3 30 9 44s14 26.167 24 36.5s21.833 18.5 35.5 24.5s28.167 9 43.5 9s29.833 -3 43.5 -9s25.667 -14.167 36 -24.5s18.5 -22.5 24.5 -36.5s9 -28.667 9 -44zM209 0l0.00292969 861.001l-112 13
c-14.667 3.33301 -26.334 8.5 -35.001 15.5s-13 17.167 -13 30.5v73h160v83c0 58 8.16699 109.5 24.5 154.5s39.5 83 69.5 114s66.333 54.5 109 70.5s90.667 24 144 24c45.333 0 87.333 -6.66699 126 -20l-5 -90c-1.33301 -16 -10 -24.667 -26 -26s-38 -2 -66 -2
c-30.667 0 -58.5 -3.83301 -83.5 -11.5s-46.333 -20.5 -64 -38.5s-31.334 -41.833 -41.001 -71.5s-14.5 -66.167 -14.5 -109.5v-77h457v133c0 110.667 25.167 194.5 75.5 251.5s121.166 85.5 212.499 85.5c30.667 0 57 -3.33301 79 -10v-98
c0 -10.667 -4.83301 -17.334 -14.5 -20.001s-23.167 -4 -40.5 -4c-47.333 0 -82.333 -16 -105 -48s-34 -84 -34 -156v-134h612v-993h-179v864h-428v-864h-178v864h-452v-864h-178z" />
    <glyph glyph-name="f_f_imacron.liga" unicode="ff&#x12b;" horiz-adv-x="1775" 
d="M209 0l0.00292969 861.001l-112 13c-14.667 3.33301 -26.334 8.5 -35.001 15.5s-13 17.167 -13 30.5v73h160v83c0 58 8.16699 109.5 24.5 154.5s39.5 83 69.5 114s66.333 54.5 109 70.5s90.667 24 144 24c45.333 0 87.333 -6.66699 126 -20l-5 -90
c-1.33301 -16 -10 -24.667 -26 -26s-38 -2 -66 -2c-30.667 0 -58.5 -3.83301 -83.5 -11.5s-46.333 -20.5 -64 -38.5s-31.334 -41.833 -41.001 -71.5s-14.5 -66.167 -14.5 -109.5v-77h457v133c0 110.667 25.167 194.5 75.5 251.5s121.166 85.5 212.499 85.5
c30.667 0 57 -3.33301 79 -10v-98c0 -10.667 -4.83301 -17.334 -14.5 -20.001s-23.167 -4 -40.5 -4c-47.333 0 -82.333 -16 -105 -48s-34 -84 -34 -156v-134h612v-993h-179v864h-428v-864h-178v864h-452v-864h-178zM1251 1348h574v-117h-574v117z" />
    <glyph glyph-name="f_f_ibreve.liga" unicode="ff&#x12d;" horiz-adv-x="1774" 
d="M209 0l0.00292969 861.001l-112 13c-14.667 3.33301 -26.334 8.5 -35.001 15.5s-13 17.167 -13 30.5v73h160v83c0 58 8.16699 109.5 24.5 154.5s39.5 83 69.5 114s66.333 54.5 109 70.5s90.667 24 144 24c45.333 0 87.333 -6.66699 126 -20l-5 -90
c-1.33301 -16 -10 -24.667 -26 -26s-38 -2 -66 -2c-30.667 0 -58.5 -3.83301 -83.5 -11.5s-46.333 -20.5 -64 -38.5s-31.334 -41.833 -41.001 -71.5s-14.5 -66.167 -14.5 -109.5v-77h457v133c0 110.667 25.167 194.5 75.5 251.5s121.166 85.5 212.499 85.5
c30.667 0 57 -3.33301 79 -10v-98c0 -10.667 -4.83301 -17.334 -14.5 -20.001s-23.167 -4 -40.5 -4c-47.333 0 -82.333 -16 -105 -48s-34 -84 -34 -156v-134h612v-993h-179v864h-428v-864h-178v864h-452v-864h-178zM1538 1164c-51.333 0 -94.332 7.16699 -128.999 21.5
s-62.834 33.666 -84.501 57.999s-37.167 52.833 -46.5 85.5s-14 67.334 -14 104.001h126c0 -22 2.33301 -42.5 7 -61.5s12.667 -35.167 24 -48.5s26.5 -23.833 45.5 -31.5s42.833 -11.5 71.5 -11.5s52.5 3.83301 71.5 11.5s34.167 18.167 45.5 31.5s19.333 29.5 24 48.5
s7 39.5 7 61.5h126c0 -36.667 -4.66699 -71.334 -14 -104.001s-24.833 -61.167 -46.5 -85.5s-50 -43.666 -85 -57.999s-77.833 -21.5 -128.5 -21.5z" />
    <glyph glyph-name="f_f_iogonek.liga" unicode="ff&#x12f;" horiz-adv-x="1774" 
d="M209 0l0.000976562 861l-112 13c-14.667 3.33301 -26.334 8.5 -35.001 15.5s-13 17.167 -13 30.5v73h160v83c0 58 8.16699 109.5 24.5 154.5s39.5 83 69.5 114s66.333 54.5 109 70.5s90.667 24 144 24c45.333 0 87.333 -6.66699 126 -20l-5 -90
c-1.33301 -16 -10 -24.667 -26 -26s-38 -2 -66 -2c-30.667 0 -58.5 -3.83301 -83.5 -11.5s-46.333 -20.5 -64 -38.5s-31.334 -41.833 -41.001 -71.5s-14.5 -66.167 -14.5 -109.5v-77h457v56c0 62 9.66699 118.833 29 170.5s48.333 96.167 87 133.5s86.834 66.333 144.501 87
s124.5 31 200.5 31c25.333 0 51.333 -1.66699 78 -5s49.667 -8.33301 69 -15l-7 -93c-0.666992 -6.66699 -3.16699 -11.334 -7.5 -14.001s-10.166 -4.33398 -17.499 -5.00098s-16.5 -0.833984 -27.5 -0.500977s-23.5 0.5 -37.5 0.5c-118.667 0 -204.667 -24.5 -258 -73.5
s-80 -122.833 -80 -221.5v-51h612v-993h-17c-13.333 -7.33301 -27 -16.166 -41 -26.499s-26.667 -22 -38 -35s-20.666 -27.333 -27.999 -43s-11 -32.167 -11 -49.5c0 -25.333 8.16699 -45.166 24.5 -59.499s38.5 -21.5 66.5 -21.5c15.333 0 28 1.16699 38 3.5s18.333 5 25 8
s12.167 5.83301 16.5 8.5s8.16602 4 11.499 4c4.66699 0 8.5 -1.33301 11.5 -4s5.16699 -5.66699 6.5 -9l28 -66c-20 -15.333 -45.5 -27.833 -76.5 -37.5s-63.5 -14.5 -97.5 -14.5c-58.667 0 -104.834 13.167 -138.501 39.5s-50.5 61.5 -50.5 105.5
c0 38.667 13.167 74.834 39.5 108.501s59.5 63.167 99.5 88.5h-48v864h-428v-864h-178v864h-452v-864h-178z" />
    <glyph glyph-name="f_f_dotlessi.liga" unicode="ff&#x131;" horiz-adv-x="1775" 
d="M209 0l0.00292969 861.001l-112 13c-14.667 3.33301 -26.334 8.5 -35.001 15.5s-13 17.167 -13 30.5v73h160v83c0 58 8.16699 109.5 24.5 154.5s39.5 83 69.5 114s66.333 54.5 109 70.5s90.667 24 144 24c45.333 0 87.333 -6.66699 126 -20l-5 -90
c-1.33301 -16 -10 -24.667 -26 -26s-38 -2 -66 -2c-30.667 0 -58.5 -3.83301 -83.5 -11.5s-46.333 -20.5 -64 -38.5s-31.334 -41.833 -41.001 -71.5s-14.5 -66.167 -14.5 -109.5v-77h457v133c0 110.667 25.167 194.5 75.5 251.5s121.166 85.5 212.499 85.5
c30.667 0 57 -3.33301 79 -10v-98c0 -10.667 -4.83301 -17.334 -14.5 -20.001s-23.167 -4 -40.5 -4c-47.333 0 -82.333 -16 -105 -48s-34 -84 -34 -156v-134h612v-993h-179v864h-428v-864h-178v864h-452v-864h-178z" />
    <glyph glyph-name="f_j.liga" unicode="fj" horiz-adv-x="1145" 
d="M209 0l-0.000976562 861.002l-112 13c-14.667 3.33301 -26.334 8.5 -35.001 15.5s-13 17.167 -13 30.5v73h160v56c0 62 9.66699 118.833 29 170.5s48.333 96.167 87 133.5s86.834 66.333 144.501 87s124.5 31 200.5 31c25.333 0 51.333 -1.66699 78 -5
s49.667 -8.33301 69 -15l-7 -93c-0.666992 -6.66699 -3.16699 -11.334 -7.5 -14.001s-10.166 -4.33398 -17.499 -5.00098s-16.5 -0.833984 -27.5 -0.500977s-23.5 0.5 -37.5 0.5c-118.667 0 -204.667 -24.5 -258 -73.5s-80 -122.833 -80 -221.5v-51h612v-1068
c0 -40.667 -5.5 -78.5 -16.5 -113.5s-28 -65.5 -51 -91.5s-52.667 -46.5 -89 -61.5s-79.833 -22.5 -130.5 -22.5c-22 0 -41.833 1.66699 -59.5 5s-35.5 8.33301 -53.5 15l7 96c1.33301 6 3.5 10.5 6.5 13.5s7 4.83301 12 5.5s11.667 0.833984 20 0.500977
s18.833 -0.5 31.5 -0.5c52 0 89 12.167 111 36.5s33 63.5 33 117.5v939h-428v-864h-178z" />
    <glyph glyph-name="f_f_j.liga" unicode="ffj" horiz-adv-x="1775" 
d="M209 0v861.002l-112 13c-14.667 3.33301 -26.334 8.5 -35.001 15.5s-13 17.167 -13 30.5v73h160v83c0 58 8.16699 109.5 24.5 154.5s39.5 83 69.5 114s66.333 54.5 109 70.5s90.667 24 144 24c45.333 0 87.333 -6.66699 126 -20l-5 -90c-1.33301 -16 -10 -24.667 -26 -26
s-38 -2 -66 -2c-30.667 0 -58.5 -3.83301 -83.5 -11.5s-46.333 -20.5 -64 -38.5s-31.334 -41.833 -41.001 -71.5s-14.5 -66.167 -14.5 -109.5v-77h457v56c0 62 9.66699 118.833 29 170.5s48.333 96.167 87 133.5s86.834 66.333 144.501 87s124.5 31 200.5 31
c25.333 0 51.333 -1.66699 78 -5s49.667 -8.33301 69 -15l-7 -93c-0.666992 -6.66699 -3.16699 -11.334 -7.5 -14.001s-10.166 -4.33398 -17.499 -5.00098s-16.5 -0.833984 -27.5 -0.500977s-23.5 0.5 -37.5 0.5c-118.667 0 -204.667 -24.5 -258 -73.5
s-80 -122.833 -80 -221.5v-51h612v-1068c0 -40.667 -5.5 -78.5 -16.5 -113.5s-28 -65.5 -51 -91.5s-52.667 -46.5 -89 -61.5s-79.833 -22.5 -130.5 -22.5c-22 0 -41.833 1.66699 -59.5 5s-35.5 8.33301 -53.5 15l7 96c1.33301 6 3.5 10.5 6.5 13.5s7 4.83301 12 5.5
s11.667 0.833984 20 0.500977s18.833 -0.5 31.5 -0.5c52 0 89 12.167 111 36.5s33 63.5 33 117.5v939h-428v-864h-178v864h-452v-864h-178z" />
    <glyph glyph-name="f_k.liga" unicode="fk" horiz-adv-x="1723" 
d="M207 0l0.00488281 861.001l-112 13c-14 3.33301 -25.5 8.5 -34.5 15.5s-13.5 17.167 -13.5 30.5v73h160v83c0 60 8.66699 115.667 26 167s45 95.5 83 132.5s87.167 66 147.5 87s133.166 31.5 218.499 31.5c27.333 0 53.666 -1 78.999 -3s50.666 -4.33301 75.999 -7
s51.833 -5 79.5 -7s57.5 -3.33301 89.5 -4h21v-867h46c13.333 0 24.5 1.83301 33.5 5.5s18.5 11.167 28.5 22.5l320 343c9.33301 11.333 19.166 20.166 29.499 26.499s24.166 9.5 41.499 9.5h161l-373 -397c-18 -22.667 -37.333 -40.334 -58 -53.001
c12 -8 22.833 -17.167 32.5 -27.5s18.834 -22.166 27.501 -35.499l396 -500h-159c-15.333 0 -28.5 2.5 -39.5 7.5s-20.5 14.167 -28.5 27.5l-333 415c-10 14 -19.833 23.167 -29.5 27.5s-24.5 6.5 -44.5 6.5h-51v-484h-179v1348c-28 8 -57.333 14.5 -88 19.5
s-60 7.5 -88 7.5c-50.667 0 -94.334 -7.5 -131.001 -22.5s-67 -35.667 -91 -62s-41.667 -57.833 -53 -94.5s-17 -76.667 -17 -120v-83h292v-129h-286v-864h-179z" />
    <glyph glyph-name="f_f_k.liga" unicode="ffk" horiz-adv-x="2354" 
d="M209 0l0.00390625 861.001l-112 13c-14.667 3.33301 -26.334 8.5 -35.001 15.5s-13 17.167 -13 30.5v73h160v83c0 58 8.16699 109.5 24.5 154.5s39.5 83 69.5 114s66.333 54.5 109 70.5s90.667 24 144 24c45.333 0 87.333 -6.66699 126 -20l-5 -90
c-1.33301 -16 -10 -24.667 -26 -26s-38 -2 -66 -2c-30.667 0 -58.5 -3.83301 -83.5 -11.5s-46.333 -20.5 -64 -38.5s-31.334 -41.833 -41.001 -71.5s-14.5 -66.167 -14.5 -109.5v-77h457v83c0 60 8.66699 115.667 26 167s45 95.5 83 132.5s87 66 147 87
s132.667 31.5 218 31.5c28 0 54.5 -1 79.5 -3s50.167 -4.33301 75.5 -7s51.833 -5 79.5 -7s57.5 -3.33301 89.5 -4h21v-867h46c13.333 0 24.5 1.83301 33.5 5.5s18.5 11.167 28.5 22.5l320 343c9.33301 11.333 19.166 20.166 29.5 26.499
c10.333 6.33301 24.166 9.5 41.499 9.5h161l-373 -397c-18 -22.667 -37.333 -40.334 -58 -53.001c12 -8 22.833 -17.167 32.5 -27.5s18.834 -22.166 27.501 -35.499l396 -500h-159c-15.333 0 -28.5 2.5 -39.5 7.5s-20.5 14.167 -28.5 27.5l-333 415
c-10 14 -19.833 23.167 -29.5 27.5s-24.5 6.5 -44.5 6.5h-51v-484h-179v1348c-28 8 -57.333 14.5 -88 19.5s-60 7.5 -88 7.5c-50.667 0 -94.334 -7.5 -131.001 -22.5s-66.834 -35.667 -90.501 -62s-41.167 -57.833 -52.5 -94.5s-17 -76.667 -17 -120v-83h292v-129h-287v-864
h-178v864h-452v-864h-178z" />
    <glyph glyph-name="f_t.liga" unicode="ft" horiz-adv-x="1369" 
d="M1033 864l-0.000976562 -608c0 -42.667 10.333 -74.334 31 -95.001s47 -31 79 -31c19.333 0 35.833 2.5 49.5 7.5s25.5 10.5 35.5 16.5s18.333 11.5 25 16.5s12.667 7.5 18 7.5c6 0 10.833 -1.33301 14.5 -4s7.5 -7 11.5 -13l52 -85
c-30.667 -28.667 -67.667 -51.167 -111 -67.5s-88.333 -24.5 -135 -24.5c-79.333 0 -140.5 22.333 -183.5 67s-64.5 109 -64.5 193v620h-469v-864h-179v861l-112 13c-14 3.33301 -25.5 8.5 -34.5 15.5s-13.5 17.167 -13.5 30.5v73h160v98c0 58 8.16699 109.5 24.5 154.5
s39.666 83 69.999 114s66.833 54.5 109.5 70.5s90.667 24 144 24c45.333 0 87 -6.66699 125 -20l-4 -89c-1.33301 -16 -10.166 -24.667 -26.499 -26s-38.166 -2 -65.499 -2c-30.667 0 -58.5 -4 -83.5 -12s-46.5 -21 -64.5 -39s-31.833 -41.667 -41.5 -71
s-14.5 -65.666 -14.5 -108.999v-93h481l40 315c2.66699 10 7.5 18.167 14.5 24.5s16.167 9.5 27.5 9.5h90v-349h292v-129h-292z" />
    <glyph glyph-name="f_f_t.liga" unicode="fft" horiz-adv-x="2000" 
d="M209 0v861l-112 13c-14.667 3.33301 -26.334 8.5 -35.001 15.5s-13 17.167 -13 30.5v73h160v83c0 58 8.16699 109.5 24.5 154.5s39.5 83 69.5 114s66.333 54.5 109 70.5s90.667 24 144 24c45.333 0 87.333 -6.66699 126 -20l-5 -90c-1.33301 -16 -10 -24.667 -26 -26
s-38 -2 -66 -2c-30.667 0 -58.5 -3.83301 -83.5 -11.5s-46.333 -20.5 -64 -38.5s-31.334 -41.833 -41.001 -71.5s-14.5 -66.167 -14.5 -109.5v-77h457v98c0 58 8.16699 109.5 24.5 154.5s39.5 83 69.5 114s66.333 54.5 109 70.5s90.667 24 144 24
c45.333 0 87.333 -6.66699 126 -20l-5 -89c-1.33301 -16 -10 -24.667 -26 -26s-38 -2 -66 -2c-30.667 0 -58.5 -4 -83.5 -12s-46.333 -21 -64 -39s-31.334 -41.667 -41.001 -71s-14.5 -65.666 -14.5 -108.999v-93h480l41 315c2 10 6.5 18.167 13.5 24.5s16.167 9.5 27.5 9.5
h90v-349h293v-129h-293v-608c0 -42.667 10.333 -74.334 31 -95.001s47.334 -31 80.001 -31c18.667 0 34.834 2.5 48.501 7.5s25.5 10.5 35.5 16.5s18.5 11.5 25.5 16.5s13.167 7.5 18.5 7.5c10 0 18.333 -5.66699 25 -17l53 -85
c-31.333 -28.667 -68.666 -51.167 -111.999 -67.5s-88 -24.5 -134 -24.5c-80 0 -141.5 22.333 -184.5 67s-64.5 109 -64.5 193v620h-469v-864h-178v864h-452v-864h-178z" />
    <glyph glyph-name="t_f.liga" unicode="tf" horiz-adv-x="1375" 
d="M880 0l-0.00390625 864.001h-499v-608c0 -42.667 10.333 -74.334 31 -95.001s47.334 -31 80.001 -31c18.667 0 34.834 2.5 48.501 7.5s25.5 10.5 35.5 16.5s18.5 11.5 25.5 16.5s13.167 7.5 18.5 7.5c9.33301 0 17.666 -5.66699 24.999 -17l52 -85
c-30.667 -28.667 -67.667 -51.167 -111 -67.5s-88 -24.5 -134 -24.5c-80 0 -141.5 22.333 -184.5 67s-64.5 109 -64.5 193v620h-122c-10.667 0 -19.667 3.16699 -27 9.5s-11 16.166 -11 29.499v71l166 21l41 313c2 10 6.5 18.167 13.5 24.5s16.167 9.5 27.5 9.5h90v-349h499
v98c0 58 8.16699 109.5 24.5 154.5s39.5 83 69.5 114s66.5 54.5 109.5 70.5s91.167 24 144.5 24c44.667 0 86.334 -6.66699 125.001 -20l-4 -89c-1.33301 -16 -10.166 -24.667 -26.499 -26s-38.166 -2 -65.499 -2c-30.667 0 -58.5 -4 -83.5 -12s-46.5 -21 -64.5 -39
s-31.833 -41.667 -41.5 -71s-14.5 -65.666 -14.5 -108.999v-93h292v-129h-286v-864h-179z" />
    <glyph glyph-name="t_iogonek.liga" unicode="t&#x12f;" horiz-adv-x="1231" 
d="M989 1205c-16.667 0 -32.5 3.33301 -47.5 10s-28.333 15.834 -40 27.501s-20.834 25 -27.501 40s-10 31.167 -10 48.5s3.33301 33.833 10 49.5s15.834 29.334 27.501 41.001s25 20.834 40 27.501s30.833 10 47.5 10c17.333 0 33.833 -3.33301 49.5 -10
s29.334 -15.834 41.001 -27.501s21 -25.334 28 -41.001s10.5 -32.167 10.5 -49.5s-3.5 -33.5 -10.5 -48.5s-16.333 -28.333 -28 -40s-25.334 -20.834 -41.001 -27.501s-32.167 -10 -49.5 -10zM1176 -290c-20.667 -15.333 -46.3369 -27.833 -77.0039 -37.5
s-63 -14.5 -97 -14.5c-59.333 0 -105.666 13.167 -138.999 39.5s-50 61.5 -50 105.5c0 38 13 74 39 108s59 63.667 99 89h-49v864h-522v-608c0 -42.667 10.5 -74.334 31.5 -95.001s47.5 -31 79.5 -31c18.667 0 34.834 2.5 48.501 7.5s25.5 10.5 35.5 16.5
s18.5 11.5 25.5 16.5s13.167 7.5 18.5 7.5c10 0 18.333 -5.66699 25 -17l53 -85c-31.333 -28.667 -68.666 -51.167 -111.999 -67.5s-88 -24.5 -134 -24.5c-79.333 0 -140.666 22.333 -183.999 67s-65 109 -65 193v620h-122c-10.667 0 -19.667 3.16699 -27 9.5
s-11 16.166 -11 29.499v71l166 22l41 312c2 10 6.5 18.167 13.5 24.5s16.167 9.5 27.5 9.5h90v-349h700v-993h-15c-13.333 -7.33301 -27 -16.166 -41 -26.499s-26.667 -22 -38 -35s-20.666 -27.333 -27.999 -43s-11 -32.167 -11 -49.5c0 -25.333 8.33301 -45.166 25 -59.499
s38.667 -21.5 66 -21.5c15.333 0 28 1.16699 38 3.5s18.333 5 25 8s12.167 5.83301 16.5 8.5s8.16602 4 11.499 4c5.33301 0 9.5 -1.33301 12.5 -4s5.16699 -5.66699 6.5 -9z" />
    <glyph glyph-name="t_dotlessi.liga" unicode="t&#x131;" horiz-adv-x="1232" 
d="M1081 0l-178.001 0.00195312v864h-522v-608c0 -42.667 10.333 -74.334 31 -95.001s47.334 -31 80.001 -31c18.667 0 34.834 2.5 48.501 7.5s25.5 10.5 35.5 16.5s18.5 11.5 25.5 16.5s13.167 7.5 18.5 7.5c9.33301 0 17.666 -5.66699 24.999 -17l52 -85
c-30.667 -28.667 -67.667 -51.167 -111 -67.5s-88 -24.5 -134 -24.5c-80 0 -141.5 22.333 -184.5 67s-64.5 109 -64.5 193v620h-122c-10.667 0 -19.667 3.16699 -27 9.5s-11 16.166 -11 29.499v71l166 22l41 312c2 10 6.5 18.167 13.5 24.5s16.167 9.5 27.5 9.5h90v-349h700
v-993z" />
    <glyph glyph-name="t_t.liga" unicode="tt" horiz-adv-x="1366" 
d="M452 -16c-80 0 -141.504 22.3359 -184.504 67.0029s-64.5 109 -64.5 193v620h-122c-10.667 0 -19.667 3.16699 -27 9.5s-11 16.166 -11 29.499v71l166 21l41 313c2 10 6.5 18.167 13.5 24.5s16.167 9.5 27.5 9.5h90v-349h477l41 315c2 10 6.5 18.167 13.5 24.5
s16.167 9.5 27.5 9.5h90v-349h293v-129h-293v-608c0 -42.667 10.5 -74.334 31.5 -95.001s47.5 -31 79.5 -31c18.667 0 34.834 2.5 48.501 7.5s25.5 10.5 35.5 16.5s18.5 11.5 25.5 16.5s13.167 7.5 18.5 7.5c10 0 18.333 -5.66699 25 -17l53 -85
c-31.333 -28.667 -68.666 -51.167 -111.999 -67.5s-88 -24.5 -134 -24.5c-79.333 0 -140.666 22.333 -183.999 67s-65 109 -65 193v620h-471v-608c0 -42.667 10.333 -74.334 31 -95.001s47.334 -31 80.001 -31c18.667 0 34.834 2.5 48.501 7.5s25.5 10.5 35.5 16.5
s18.5 11.5 25.5 16.5s13.167 7.5 18.5 7.5c9.33301 0 17.666 -5.66699 24.999 -17l52 -85c-30.667 -28.667 -67.667 -51.167 -111 -67.5s-88 -24.5 -134 -24.5z" />
    <glyph glyph-name="t_t_f.liga" unicode="ttf" horiz-adv-x="2024" 
d="M1998 1345c-1.33301 -16 -10.1709 -24.665 -26.5039 -25.998s-38.166 -2 -65.499 -2c-30.667 0 -58.5 -4 -83.5 -12s-46.5 -21 -64.5 -39s-31.833 -41.667 -41.5 -71s-14.5 -65.666 -14.5 -108.999v-93h292v-129h-286v-864h-179v864h-499v-608
c0 -42.667 10.5 -74.334 31.5 -95.001s47.5 -31 79.5 -31c18.667 0 34.834 2.5 48.501 7.5s25.5 10.5 35.5 16.5s18.5 11.5 25.5 16.5s13.167 7.5 18.5 7.5c10 0 18.333 -5.66699 25 -17l53 -85c-31.333 -28.667 -68.666 -51.167 -111.999 -67.5s-88 -24.5 -134 -24.5
c-79.333 0 -140.666 22.333 -183.999 67s-65 109 -65 193v620h-471v-608c0 -42.667 10.333 -74.334 31 -95.001s47.334 -31 80.001 -31c18.667 0 34.834 2.5 48.501 7.5s25.5 10.5 35.5 16.5s18.5 11.5 25.5 16.5s13.167 7.5 18.5 7.5c9.33301 0 17.666 -5.66699 24.999 -17
l52 -85c-30.667 -28.667 -67.667 -51.167 -111 -67.5s-88 -24.5 -134 -24.5c-80 0 -141.5 22.333 -184.5 67s-64.5 109 -64.5 193v620h-122c-10.667 0 -19.667 3.16699 -27 9.5s-11 16.166 -11 29.499v71l166 22l41 312c2 10 6.5 18.167 13.5 24.5s16.167 9.5 27.5 9.5h90
v-349h477l41 315c2 10 6.5 18.167 13.5 24.5s16.167 9.5 27.5 9.5h90v-349h499v98c0 58 8.16699 109.5 24.5 154.5s39.666 83 69.999 114s66.833 54.5 109.5 70.5s90.667 24 144 24c45.333 0 87 -6.66699 125 -20z" />
    <glyph glyph-name="t_t_iogonek.liga" unicode="tt&#x12f;" horiz-adv-x="1860" 
d="M1619 1205c-17.333 0 -33.5 3.33301 -48.5 10s-28.167 15.834 -39.5 27.501s-20.333 25 -27 40s-10 31.167 -10 48.5s3.33301 33.833 10 49.5s15.667 29.334 27 41.001s24.5 20.834 39.5 27.501s31.167 10 48.5 10s33.666 -3.33301 48.999 -10
s28.833 -15.834 40.5 -27.501s21 -25.334 28 -41.001s10.5 -32.167 10.5 -49.5s-3.5 -33.5 -10.5 -48.5s-16.333 -28.333 -28 -40s-25.167 -20.834 -40.5 -27.501s-31.666 -10 -48.999 -10zM1806 -290c-20 -15.333 -45.5039 -27.832 -76.5039 -37.499
s-63.5 -14.5 -97.5 -14.5c-58.667 0 -104.834 13.167 -138.501 39.5s-50.5 61.5 -50.5 105.5c0 38 13.167 74 39.5 108s59.5 63.667 99.5 89h-51v864h-501v-608c0 -42.667 10.333 -74.334 31 -95.001s47 -31 79 -31c18.667 0 35 2.5 49 7.5s26 10.5 36 16.5
s18.333 11.5 25 16.5s12.667 7.5 18 7.5c6 0 10.833 -1.33301 14.5 -4s7.16699 -7 10.5 -13l53 -85c-31.333 -28.667 -68.666 -51.167 -111.999 -67.5s-88 -24.5 -134 -24.5c-79.333 0 -140.666 22.333 -183.999 67s-65 109 -65 193v620h-471v-608
c0 -42.667 10.5 -74.334 31.5 -95.001s47.5 -31 79.5 -31c18.667 0 34.834 2.5 48.501 7.5s25.5 10.5 35.5 16.5s18.5 11.5 25.5 16.5s13.167 7.5 18.5 7.5c10 0 18.333 -5.66699 25 -17l53 -85c-31.333 -28.667 -68.666 -51.167 -111.999 -67.5s-88 -24.5 -134 -24.5
c-79.333 0 -140.666 22.333 -183.999 67s-65 109 -65 193v620h-122c-10.667 0 -19.667 3.16699 -27 9.5s-11 16.166 -11 29.499v71l166 22l41 312c2 10 6.5 18.167 13.5 24.5s16.167 9.5 27.5 9.5h90v-349h477l41 315c2 10 6.5 18.167 13.5 24.5s16.167 9.5 27.5 9.5h91
v-349h680v-993h-14c-13.333 -7.33301 -27 -16.166 -41 -26.499s-26.667 -22 -38 -35s-20.666 -27.333 -27.999 -43s-11 -32.167 -11 -49.5c0 -25.333 8.16699 -45.166 24.5 -59.499s38.5 -21.5 66.5 -21.5c15.333 0 28 1.16699 38 3.5s18.333 5 25 8
s12.167 5.83301 16.5 8.5s8.16602 4 11.499 4c4.66699 0 8.5 -1.33301 11.5 -4s5.16699 -5.66699 6.5 -9z" />
    <glyph glyph-name="t_t_dotlessi.liga" unicode="tt&#x131;" horiz-adv-x="1862" 
d="M1710 0l-178.004 0.00292969v864h-502v-608c0 -42.667 10.5 -74.334 31.5 -95.001s47.5 -31 79.5 -31c18.667 0 34.834 2.5 48.501 7.5s25.5 10.5 35.5 16.5s18.5 11.5 25.5 16.5s13.167 7.5 18.5 7.5c10 0 18.333 -5.66699 25 -17l53 -85
c-31.333 -28.667 -68.666 -51.167 -111.999 -67.5s-88 -24.5 -134 -24.5c-79.333 0 -140.666 22.333 -183.999 67s-65 109 -65 193v620h-471v-608c0 -42.667 10.333 -74.334 31 -95.001s47.334 -31 80.001 -31c18.667 0 34.834 2.5 48.501 7.5s25.5 10.5 35.5 16.5
s18.5 11.5 25.5 16.5s13.167 7.5 18.5 7.5c9.33301 0 17.666 -5.66699 24.999 -17l52 -85c-30.667 -28.667 -67.667 -51.167 -111 -67.5s-88 -24.5 -134 -24.5c-80 0 -141.5 22.333 -184.5 67s-64.5 109 -64.5 193v620h-122c-10.667 0 -19.667 3.16699 -27 9.5
s-11 16.166 -11 29.499v71l166 22l41 312c2 10 6.5 18.167 13.5 24.5s16.167 9.5 27.5 9.5h90v-349h477l41 315c2 10 6.5 18.167 13.5 24.5s16.167 9.5 27.5 9.5h90v-349h680v-993z" />
    <glyph glyph-name="f_uni01D0.liga" unicode="f&#x1d0;" horiz-adv-x="1144" 
d="M209 0l0.00195312 861.001l-112 13c-14.667 3.33301 -26.334 8.5 -35.001 15.5s-13 17.167 -13 30.5v73h160v133c0 110.667 25.167 194.5 75.5 251.5s121.166 85.5 212.499 85.5c30.667 0 57 -3.33301 79 -10v-98c0 -10.667 -4.83301 -17.334 -14.5 -20.001
s-23.167 -4 -40.5 -4c-47.333 0 -82.333 -16 -105 -48s-34 -84 -34 -156v-134h612v-993h-179v864h-428v-864h-178zM991.002 1169h-165l-207 264h123c8 0 15.833 -1.33301 23.5 -4s13.167 -6.33398 16.5 -11.001l112 -136c6 -9.33301 11.667 -19.666 17 -30.999
c5.33301 11.333 11 21.666 17 30.999l112 136c3.33301 4.66699 8.83301 8.33398 16.5 11.001s15.167 4 22.5 4h120z" />
    <glyph glyph-name="f_uni0209.liga" unicode="f&#x209;" horiz-adv-x="1144" 
d="M529 1463c20.667 0 38.5 -0.833008 53.5 -2.5s28.333 -4.83398 40 -9.50098s21.834 -10.667 30.501 -18s17 -16.666 25 -27.999l180 -242h-86c-13.333 0 -24.5 2.16699 -33.5 6.5s-18.167 11.5 -27.5 21.5l-129 139c-37.333 -1.33301 -68.666 -5.66602 -93.999 -12.999
s-45.833 -19 -61.5 -35s-27 -36.667 -34 -62s-10.5 -56.333 -10.5 -93v-134h612v-993h-179v864h-428v-864h-178v861l-112 13c-14.667 3.33301 -26.334 8.5 -35.001 15.5s-13 17.167 -13 30.5v73h160v133c0 55.333 7.83301 104 23.5 146s37.5 77.167 65.5 105.5
s61.667 49.666 101 63.999s82.666 21.5 129.999 21.5zM900 1449c22 0 38.667 -3.5 50 -10.5s21 -18.167 29 -33.5l138 -242h-74c-14 0 -25.833 2 -35.5 6s-18.5 11.333 -26.5 22l-199 258h118z" />
    <glyph glyph-name="f_uni020B.liga" unicode="f&#x20b;" horiz-adv-x="1144" 
d="M209 0l0.00195312 861.001l-112 13c-14.667 3.33301 -26.334 8.5 -35.001 15.5s-13 17.167 -13 30.5v73h160v133c0 110.667 25.167 194.5 75.5 251.5s121.166 85.5 212.499 85.5c30.667 0 57 -3.33301 79 -10v-98c0 -10.667 -4.83301 -17.334 -14.5 -20.001
s-23.167 -4 -40.5 -4c-47.333 0 -82.333 -16 -105 -48s-34 -84 -34 -156v-134h612v-993h-179v864h-428v-864h-178zM909.002 1443c50.667 0 93.501 -7.16699 128.501 -21.5s63.333 -33.833 85 -58.5s37.167 -53.167 46.5 -85.5s14 -66.833 14 -103.5h-126
c0 22 -2.33301 42.5 -7 61.5s-12.667 35.167 -24 48.5s-26.5 23.833 -45.5 31.5s-42.833 11.5 -71.5 11.5s-52.5 -3.83301 -71.5 -11.5s-34.167 -18.167 -45.5 -31.5s-19.333 -29.5 -24 -48.5s-7 -39.5 -7 -61.5h-125c0 36.667 4.66699 71.167 14 103.5
s24.666 60.833 45.999 85.5s49.333 44.167 84 58.5s77.667 21.5 129 21.5z" />
    <glyph glyph-name="f_uni1E2F.liga" unicode="f&#x1e2f;" horiz-adv-x="1144" 
d="M847 1207c0 -14 -2.83301 -27 -8.5 -39s-13.167 -22.5 -22.5 -31.5s-20.333 -16.167 -33 -21.5s-26 -8 -40 -8c-13.333 0 -26.166 2.66699 -38.499 8s-23.166 12.5 -32.499 21.5s-16.666 19.5 -21.999 31.5s-8 25 -8 39s2.66699 27.5 8 40.5s12.666 24.167 21.999 33.5
s20.166 16.833 32.499 22.5s25.166 8.5 38.499 8.5c14 0 27.333 -2.83301 40 -8.5s23.667 -13.167 33 -22.5s16.833 -20.5 22.5 -33.5s8.5 -26.5 8.5 -40.5zM1176 1207c0 -14 -2.83301 -27 -8.5 -39s-13.167 -22.5 -22.5 -31.5s-20.166 -16.167 -32.499 -21.5
s-25.5 -8 -39.5 -8s-27.167 2.66699 -39.5 8s-23.333 12.5 -33 21.5s-17.167 19.5 -22.5 31.5s-8 25 -8 39s2.66699 27.5 8 40.5s12.833 24.167 22.5 33.5s20.667 16.833 33 22.5s25.5 8.5 39.5 8.5s27.167 -2.83301 39.5 -8.5s23.166 -13.167 32.499 -22.5
s16.833 -20.5 22.5 -33.5s8.5 -26.5 8.5 -40.5zM1219 1591l-218.001 -222c-10 -9.33301 -20.667 -16.333 -32 -21s-24.666 -7 -39.999 -7h-96l133 206c9.33301 15.333 19.333 26.5 30 33.5s27 10.5 49 10.5h174zM208.999 0l0.00195312 861.001l-112 13
c-14.667 3.33301 -26.334 8.5 -35.001 15.5s-13 17.167 -13 30.5v73h160v133c0 110.667 25.167 194.5 75.5 251.5s121.166 85.5 212.499 85.5c30.667 0 57 -3.33301 79 -10v-98c0 -10.667 -4.83301 -17.334 -14.5 -20.001s-23.167 -4 -40.5 -4
c-47.333 0 -82.333 -16 -105 -48s-34 -84 -34 -156v-134h612v-993h-179v864h-428v-864h-178z" />
    <glyph glyph-name="f_f_uni01D0.liga" unicode="ff&#x1d0;" horiz-adv-x="1774" 
d="M1445 0l0.00292969 864.001h-428v-864h-178v864h-452v-864h-178v861l-112 13c-14.667 3.33301 -26.334 8.5 -35.001 15.5s-13 17.167 -13 30.5v73h160v83c0 58 8.16699 109.5 24.5 154.5s39.5 83 69.5 114s66.333 54.5 109 70.5s90.667 24 144 24
c45.333 0 87.333 -6.66699 126 -20l-5 -90c-1.33301 -16 -10 -24.667 -26 -26s-38 -2 -66 -2c-30.667 0 -58.5 -3.83301 -83.5 -11.5s-46.333 -20.5 -64 -38.5s-31.334 -41.833 -41.001 -71.5s-14.5 -66.167 -14.5 -109.5v-77h457v133c0 110.667 25.167 194.5 75.5 251.5
s121.166 85.5 212.499 85.5c30.667 0 57 -3.33301 79 -10v-98c0 -10.667 -4.83301 -17.334 -14.5 -20.001s-23.167 -4 -40.5 -4c-47.333 0 -82.333 -16 -105 -48s-34 -84 -34 -156v-134h612v-993h-179zM1244 1433h124c7.33301 0 14.833 -1.33301 22.5 -4
s13.167 -6.33398 16.5 -11.001l112 -136c6 -9.33301 11.667 -19.666 17 -30.999c5.33301 11.333 11 21.666 17 30.999l112 136c3.33301 4.66699 9 8.33398 17 11.001s15.667 4 23 4h119l-208 -264h-165z" />
    <glyph glyph-name="f_f_uni0209.liga" unicode="ff&#x209;" horiz-adv-x="1774" 
d="M209 0l0.00195312 860.999l-112 13c-14.667 3.33301 -26.334 8.5 -35.001 15.5s-13 17.167 -13 30.5v73h160v83c0 58 8.16699 109.5 24.5 154.5s39.5 83 69.5 114s66.333 54.5 109 70.5s90.667 24 144 24c45.333 0 87.333 -6.66699 126 -20l-5 -90
c-1.33301 -16 -10 -24.667 -26 -26s-38 -2 -66 -2c-30.667 0 -58.5 -3.83301 -83.5 -11.5s-46.333 -20.5 -64 -38.5s-31.334 -41.833 -41.001 -71.5s-14.5 -66.167 -14.5 -109.5v-77h457v133c0 110.667 28 194.5 84 251.5s137.667 85.5 245 85.5
c20.667 0 38.5 -0.833008 53.5 -2.5s28.167 -4.83398 39.5 -9.50098s21.333 -10.667 30 -18s17 -16.666 25 -27.999l180 -242h-86c-13.333 0 -24.5 2.33301 -33.5 7s-18.167 11.667 -27.5 21l-129 139c-37.333 -1.33301 -69 -5.66602 -95 -12.999s-47.5 -19 -64.5 -35
s-29.333 -36.667 -37 -62s-11.5 -56.333 -11.5 -93v-134h612v-993h-179v864h-428v-864h-178v864h-452v-864h-178zM1539 1449c22 0 38.667 -3.5 50 -10.5s21 -18.167 29 -33.5l138 -242h-74c-14 0 -25.833 2 -35.5 6s-18.5 11.333 -26.5 22l-199 258h118z" />
    <glyph glyph-name="f_f_uni020B.liga" unicode="ff&#x20b;" horiz-adv-x="1774" 
d="M1445 0l0.00292969 864.001h-428v-864h-178v864h-452v-864h-178v861l-112 13c-14.667 3.33301 -26.334 8.5 -35.001 15.5s-13 17.167 -13 30.5v73h160v83c0 58 8.16699 109.5 24.5 154.5s39.5 83 69.5 114s66.333 54.5 109 70.5s90.667 24 144 24
c45.333 0 87.333 -6.66699 126 -20l-5 -90c-1.33301 -16 -10 -24.667 -26 -26s-38 -2 -66 -2c-30.667 0 -58.5 -3.83301 -83.5 -11.5s-46.333 -20.5 -64 -38.5s-31.334 -41.833 -41.001 -71.5s-14.5 -66.167 -14.5 -109.5v-77h457v133c0 110.667 25.167 194.5 75.5 251.5
s121.166 85.5 212.499 85.5c30.667 0 57 -3.33301 79 -10v-98c0 -10.667 -4.83301 -17.334 -14.5 -20.001s-23.167 -4 -40.5 -4c-47.333 0 -82.333 -16 -105 -48s-34 -84 -34 -156v-134h612v-993h-179zM1530 1443c50.667 0 93.499 -7.16699 128.499 -21.5
s63.333 -33.833 85 -58.5s37.167 -53.167 46.5 -85.5s14 -66.833 14 -103.5h-126c0 22 -2.33301 42.5 -7 61.5s-12.667 35.167 -24 48.5s-26.5 23.833 -45.5 31.5s-42.833 11.5 -71.5 11.5s-52.5 -3.83301 -71.5 -11.5s-34.167 -18.167 -45.5 -31.5s-19.333 -29.5 -24 -48.5
s-7 -39.5 -7 -61.5h-126c0 36.667 4.66699 71.167 14 103.5s24.833 60.833 46.5 85.5s49.834 44.167 84.501 58.5s77.667 21.5 129 21.5z" />
    <glyph glyph-name="f_f_uni1E2F.liga" unicode="ff&#x1e2f;" horiz-adv-x="1774" 
d="M1445 0l0.00292969 864.001h-428v-864h-178v864h-452v-864h-178v861l-112 13c-14.667 3.33301 -26.334 8.5 -35.001 15.5s-13 17.167 -13 30.5v73h160v83c0 58 8.16699 109.5 24.5 154.5s39.5 83 69.5 114s66.333 54.5 109 70.5s90.667 24 144 24
c45.333 0 87.333 -6.66699 126 -20l-5 -90c-1.33301 -16 -10 -24.667 -26 -26s-38 -2 -66 -2c-30.667 0 -58.5 -3.83301 -83.5 -11.5s-46.333 -20.5 -64 -38.5s-31.334 -41.833 -41.001 -71.5s-14.5 -66.167 -14.5 -109.5v-77h457v133c0 110.667 25.167 194.5 75.5 251.5
s121.166 85.5 212.499 85.5c30.667 0 57 -3.33301 79 -10v-98c0 -10.667 -4.83301 -17.334 -14.5 -20.001s-23.167 -4 -40.5 -4c-47.333 0 -82.333 -16 -105 -48s-34 -84 -34 -156v-134h612v-993h-179zM1849 1591l-218.001 -222c-10 -9.33301 -20.667 -16.333 -32 -21
s-24.666 -7 -39.999 -7h-96l133 206c9.33301 15.333 19.333 26.5 30 33.5s27 10.5 49 10.5h174zM1806 1207c0 -14 -2.83301 -27 -8.5 -39s-13.167 -22.5 -22.5 -31.5s-20.166 -16.167 -32.499 -21.5s-25.5 -8 -39.5 -8s-27.167 2.66699 -39.5 8s-23.333 12.5 -33 21.5
s-17.167 19.5 -22.5 31.5s-8 25 -8 39s2.66699 27.5 8 40.5s12.833 24.167 22.5 33.5s20.667 16.833 33 22.5s25.5 8.5 39.5 8.5s27.167 -2.83301 39.5 -8.5s23.166 -13.167 32.499 -22.5s16.833 -20.5 22.5 -33.5s8.5 -26.5 8.5 -40.5zM1477 1207
c0 -14 -2.83301 -27 -8.5 -39s-13.167 -22.5 -22.5 -31.5s-20.333 -16.167 -33 -21.5s-26 -8 -40 -8c-13.333 0 -26.166 2.66699 -38.499 8s-23.166 12.5 -32.499 21.5s-16.666 19.5 -21.999 31.5s-8 25 -8 39s2.66699 27.5 8 40.5s12.666 24.167 21.999 33.5
s20.166 16.833 32.499 22.5s25.166 8.5 38.499 8.5c14 0 27.333 -2.83301 40 -8.5s23.667 -13.167 33 -22.5s16.833 -20.5 22.5 -33.5s8.5 -26.5 8.5 -40.5z" />
    <glyph glyph-name="f_uni0237.liga" unicode="f&#x237;" horiz-adv-x="1145" 
d="M209 0l0.00195312 861l-112 13c-14.667 3.33301 -26.334 8.5 -35.001 15.5s-13 17.167 -13 30.5v73h160v133c0 110.667 25.167 194.5 75.5 251.5s121.166 85.5 212.499 85.5c30.667 0 57 -3.33301 79 -10v-98c0 -10.667 -4.83301 -17.334 -14.5 -20.001
s-23.167 -4 -40.5 -4c-47.333 0 -82.333 -16 -105 -48s-34 -84 -34 -156v-134h612v-1068c0 -40.667 -5.5 -78.5 -16.5 -113.5s-28 -65.5 -51 -91.5s-52.667 -46.5 -89 -61.5s-79.833 -22.5 -130.5 -22.5c-22 0 -41.833 1.66699 -59.5 5s-35.5 8.33301 -53.5 15l7 96
c1.33301 6 3.5 10.5 6.5 13.5s7 4.83301 12 5.5s11.667 0.833984 20 0.500977s18.833 -0.5 31.5 -0.5c52 0 89 12.167 111 36.5s33 63.5 33 117.5v939h-428v-864h-178z" />
    <glyph glyph-name="f_f_uni0237.liga" unicode="ff&#x237;" horiz-adv-x="1775" 
d="M209 0l0.00292969 861l-112 13c-14.667 3.33301 -26.334 8.5 -35.001 15.5s-13 17.167 -13 30.5v73h160v83c0 58 8.16699 109.5 24.5 154.5s39.5 83 69.5 114s66.333 54.5 109 70.5s90.667 24 144 24c45.333 0 87.333 -6.66699 126 -20l-5 -90
c-1.33301 -16 -10 -24.667 -26 -26s-38 -2 -66 -2c-30.667 0 -58.5 -3.83301 -83.5 -11.5s-46.333 -20.5 -64 -38.5s-31.334 -41.833 -41.001 -71.5s-14.5 -66.167 -14.5 -109.5v-77h457v133c0 110.667 25.167 194.5 75.5 251.5s121.166 85.5 212.499 85.5
c30.667 0 57 -3.33301 79 -10v-98c0 -10.667 -4.83301 -17.334 -14.5 -20.001s-23.167 -4 -40.5 -4c-47.333 0 -82.333 -16 -105 -48s-34 -84 -34 -156v-134h612v-1068c0 -40.667 -5.5 -78.5 -16.5 -113.5s-28 -65.5 -51 -91.5s-52.667 -46.5 -89 -61.5
s-79.833 -22.5 -130.5 -22.5c-22 0 -41.833 1.66699 -59.5 5s-35.5 8.33301 -53.5 15l7 96c1.33301 6 3.5 10.5 6.5 13.5s7 4.83301 12 5.5s11.667 0.833984 20 0.500977s18.833 -0.5 31.5 -0.5c52 0 89 12.167 111 36.5s33 63.5 33 117.5v939h-428v-864h-178v864h-452v-864
h-178z" />
    <glyph glyph-name="f_jcircumflex.liga" unicode="f&#x135;" horiz-adv-x="1145" 
d="M209 0l0.00195312 861l-112 13c-14.667 3.33301 -26.334 8.5 -35.001 15.5s-13 17.167 -13 30.5v73h160v133c0 110.667 25.167 194.5 75.5 251.5s121.166 85.5 212.499 85.5c30.667 0 57 -3.33301 79 -10v-98c0 -10.667 -4.83301 -17.334 -14.5 -20.001
s-23.167 -4 -40.5 -4c-47.333 0 -82.333 -16 -105 -48s-34 -84 -34 -156v-134h612v-1068c0 -40.667 -5.5 -78.5 -16.5 -113.5s-28 -65.5 -51 -91.5s-52.667 -46.5 -89 -61.5s-79.833 -22.5 -130.5 -22.5c-22 0 -41.833 1.66699 -59.5 5s-35.5 8.33301 -53.5 15l7 96
c1.33301 6 3.5 10.5 6.5 13.5s7 4.83301 12 5.5s11.667 0.833984 20 0.500977s18.833 -0.5 31.5 -0.5c52 0 89 12.167 111 36.5s33 63.5 33 117.5v939h-428v-864h-178zM1213 1169l-119 0.000976562c-7.33301 0 -14.833 1.33301 -22.5 4s-15.167 7.66699 -22.5 15l-123 132
c-6 5.33301 -11.333 11.666 -16 18.999l-17 -19l-124 -132c-14 -12.667 -29 -19 -45 -19h-123l223 264h166z" />
    <glyph glyph-name="f_lcaron.liga" unicode="f&#x13e;" horiz-adv-x="1178" 
d="M209 0l-0.000976562 861.001l-112 13c-14.667 3.33301 -26.334 8.5 -35.001 15.5s-13 17.167 -13 30.5v73h160v54c0 56 8.5 109.167 25.5 159.5s42.833 94.166 77.5 131.499s78 67 130 89s112.667 33 182 33c51.333 0 100.833 -2 148.5 -6s93.834 -6.33301 138.501 -7
h121v-1447h-177v1322c-36 1.33301 -72.167 3 -108.5 5s-68.166 3 -95.499 3c-86.667 0 -153.167 -24.833 -199.5 -74.5s-69.5 -119.167 -69.5 -208.5v-54h263v-129h-258v-864h-178zM1327 1475c14.667 0 23.835 -3.49902 27.502 -10.499s5.5 -14.5 5.5 -22.5
c0 -6.66699 -1.16699 -15.5 -3.5 -26.5s-6.5 -26.333 -12.5 -46s-14.333 -44.5 -25 -74.5l-41 -111c-6.66699 -14.667 -14.834 -24.334 -24.501 -29.001s-22.834 -7 -39.501 -7h-62l57 327h118z" />
    <glyph glyph-name="f_lcommaaccent.liga" unicode="f&#x13c;" horiz-adv-x="1179" 
d="M209 0l-0.000976562 861.001l-112 13c-14.667 3.33301 -26.334 8.5 -35.001 15.5s-13 17.167 -13 30.5v73h160v54c0 56 8.5 109.167 25.5 159.5s42.833 94.166 77.5 131.499s78 67 130 89s112.667 33 182 33c51.333 0 100.833 -2 148.5 -6s93.834 -6.33301 138.501 -7
h121v-1447h-177v1322c-36 1.33301 -72.167 3 -108.5 5s-68.166 3 -95.499 3c-86.667 0 -153.167 -24.833 -199.5 -74.5s-69.5 -119.167 -69.5 -208.5v-54h263v-129h-258v-864h-178zM990.999 -95.999c15.333 0 24.835 -3.49902 28.502 -10.499s5.5 -14.5 5.5 -22.5
c0 -6 -0.833008 -14.667 -2.5 -26s-5 -25.833 -10 -43.5s-11.667 -39.167 -20 -64.5s-18.833 -55.333 -31.5 -90c-6.66699 -14.667 -14.834 -24.334 -24.501 -29.001s-22.834 -7 -39.501 -7h-62l49 293h107z" />
    <glyph glyph-name="f_uni021B.liga" unicode="f&#x21b;" horiz-adv-x="1369" 
d="M1033 864l-0.000976562 -608c0 -42.667 10.333 -74.334 31 -95.001s47 -31 79 -31c19.333 0 35.833 2.5 49.5 7.5s25.5 10.5 35.5 16.5s18.333 11.5 25 16.5s12.667 7.5 18 7.5c6 0 10.833 -1.33301 14.5 -4s7.5 -7 11.5 -13l52 -85
c-30.667 -28.667 -67.667 -51.167 -111 -67.5s-88.333 -24.5 -135 -24.5c-79.333 0 -140.5 22.333 -183.5 67s-64.5 109 -64.5 193v620h-469v-864h-179v861l-112 13c-14 3.33301 -25.5 8.5 -34.5 15.5s-13.5 17.167 -13.5 30.5v73h160v98c0 58 8.16699 109.5 24.5 154.5
s39.666 83 69.999 114s66.833 54.5 109.5 70.5s90.667 24 144 24c45.333 0 87 -6.66699 125 -20l-4 -89c-1.33301 -16 -10.166 -24.667 -26.499 -26s-38.166 -2 -65.499 -2c-30.667 0 -58.5 -4 -83.5 -12s-46.5 -21 -64.5 -39s-31.833 -41.667 -41.5 -71
s-14.5 -65.666 -14.5 -108.999v-93h481l40 315c2.66699 10 7.5 18.167 14.5 24.5s16.167 9.5 27.5 9.5h90v-349h292v-129h-292zM1132 -96c15.333 0 24.835 -3.49902 28.502 -10.499s5.5 -14.5 5.5 -22.5c0 -6 -0.833008 -14.667 -2.5 -26s-5 -25.833 -10 -43.5
s-11.667 -39.167 -20 -64.5s-18.833 -55.333 -31.5 -90c-6.66699 -14.667 -14.834 -24.334 -24.501 -29.001s-22.834 -7 -39.501 -7h-62l49 293h107z" />
    <glyph glyph-name="f_tcaron.liga" unicode="f&#x165;" horiz-adv-x="1369" 
d="M1033 864l-0.000976562 -608c0 -42.667 10.333 -74.334 31 -95.001s47 -31 79 -31c19.333 0 35.833 2.5 49.5 7.5s25.5 10.5 35.5 16.5s18.333 11.5 25 16.5s12.667 7.5 18 7.5c6 0 10.833 -1.33301 14.5 -4s7.5 -7 11.5 -13l52 -85
c-30.667 -28.667 -67.667 -51.167 -111 -67.5s-88.333 -24.5 -135 -24.5c-79.333 0 -140.5 22.333 -183.5 67s-64.5 109 -64.5 193v620h-469v-864h-179v861l-112 13c-14 3.33301 -25.5 8.5 -34.5 15.5s-13.5 17.167 -13.5 30.5v73h160v98c0 58 8.16699 109.5 24.5 154.5
s39.666 83 69.999 114s66.833 54.5 109.5 70.5s90.667 24 144 24c45.333 0 87 -6.66699 125 -20l-4 -89c-1.33301 -16 -10.166 -24.667 -26.499 -26s-38.166 -2 -65.499 -2c-30.667 0 -58.5 -4 -83.5 -12s-46.5 -21 -64.5 -39s-31.833 -41.667 -41.5 -71
s-14.5 -65.666 -14.5 -108.999v-93h481l40 315c2.66699 10 7.5 18.167 14.5 24.5s16.167 9.5 27.5 9.5h90v-349h292v-129h-292zM1424 1475c14.667 0 23.835 -3.49902 27.502 -10.499s5.5 -14.5 5.5 -22.5c0 -6.66699 -1.16699 -15.5 -3.5 -26.5s-6.5 -26.333 -12.5 -46
s-14.333 -44.5 -25 -74.5l-41 -111c-6.66699 -14.667 -14.834 -24.334 -24.501 -29.001s-22.834 -7 -39.501 -7h-62l57 327h118z" />
    <glyph glyph-name="f_uni1ECB.liga" unicode="f&#x1ecb;" horiz-adv-x="1145" 
d="M209 0l-0.000976562 861.003l-112 13c-14.667 3.33301 -26.334 8.5 -35.001 15.5s-13 17.167 -13 30.5v73h160v56c0 62 9.66699 118.833 29 170.5s48.333 96.167 87 133.5s86.834 66.333 144.501 87s124.5 31 200.5 31c25.333 0 51.333 -1.66699 78 -5
s49.667 -8.33301 69 -15l-7 -93c-0.666992 -6.66699 -3.16699 -11.334 -7.5 -14.001s-10.166 -4.33398 -17.499 -5.00098s-16.5 -0.833984 -27.5 -0.500977s-23.5 0.5 -37.5 0.5c-118.667 0 -204.667 -24.5 -258 -73.5s-80 -122.833 -80 -221.5v-51h612v-993h-179v864h-428
v-864h-178zM1019 -248.997c0 -15.333 -3.16699 -29.833 -9.5 -43.5s-14.666 -25.5 -24.999 -35.5s-22.5 -18 -36.5 -24s-28.667 -9 -44 -9s-29.833 3 -43.5 9s-25.5 14 -35.5 24s-18 21.833 -24 35.5s-9 28.167 -9 43.5c0 16 3 30.833 9 44.5s14 25.834 24 36.501
s21.833 19 35.5 25s28.167 9 43.5 9s30 -3 44 -9s26.167 -14.333 36.5 -25s18.666 -22.834 24.999 -36.501s9.5 -28.5 9.5 -44.5z" />
    <glyph glyph-name="f_uni1E2D.liga" unicode="f&#x1e2d;" horiz-adv-x="1145" 
d="M209 0l-0.000976562 861.003l-112 13c-14.667 3.33301 -26.334 8.5 -35.001 15.5s-13 17.167 -13 30.5v73h160v56c0 62 9.66699 118.833 29 170.5s48.333 96.167 87 133.5s86.834 66.333 144.501 87s124.5 31 200.5 31c25.333 0 51.333 -1.66699 78 -5
s49.667 -8.33301 69 -15l-7 -93c-0.666992 -6.66699 -3.16699 -11.334 -7.5 -14.001s-10.166 -4.33398 -17.499 -5.00098s-16.5 -0.833984 -27.5 -0.500977s-23.5 0.5 -37.5 0.5c-118.667 0 -204.667 -24.5 -258 -73.5s-80 -122.833 -80 -221.5v-51h612v-993h-179v864h-428
v-864h-178zM1009 -177.997c24 0 42.502 6.99902 55.502 20.999s19.833 35.667 20.5 65h108c0 -31.333 -4.16699 -60.166 -12.5 -86.499s-20.333 -48.833 -36 -67.5s-34.334 -33.167 -56.001 -43.5s-45.834 -15.5 -72.501 -15.5c-23.333 0 -45.166 4.83301 -65.499 14.5
s-39.5 20.167 -57.5 31.5l-51 31.5c-16 9.66699 -31.667 14.5 -47 14.5c-48 0 -72.667 -29.333 -74 -88h-111c0 32 4.33301 61.167 13 87.5s21 49 37 68s35 33.667 57 44s46 15.5 72 15.5c23.333 0 45.166 -4.83301 65.499 -14.5s39.5 -20.167 57.5 -31.5l50.5 -31.5
c15.667 -9.66699 31.167 -14.5 46.5 -14.5z" />
    <glyph glyph-name="f_uni0268.liga" unicode="f&#x268;" horiz-adv-x="1182" 
d="M815 564l-0.000976562 300.003h-428v-864h-178v861l-112 13c-14.667 3.33301 -26.334 8.5 -35.001 15.5s-13 17.167 -13 30.5v73h160v56c0 62 9.66699 118.833 29 170.5s48.333 96.167 87 133.5s86.834 66.333 144.501 87s124.5 31 200.5 31
c25.333 0 51.333 -1.66699 78 -5s49.667 -8.33301 69 -15l-7 -93c-0.666992 -6.66699 -3.16699 -11.334 -7.5 -14.001s-10.166 -4.33398 -17.499 -5.00098s-16.5 -0.833984 -27.5 -0.500977s-23.5 0.5 -37.5 0.5c-118.667 0 -204.667 -24.5 -258 -73.5
s-80 -122.833 -80 -221.5v-51h612v-429h153v-129h-153v-435h-179v435h-153v129h153z" />
    <glyph glyph-name="f_iacute.liga" unicode="f&#xed;" horiz-adv-x="1144" 
d="M209 0l0.00195312 861.001l-112 13c-14.667 3.33301 -26.334 8.5 -35.001 15.5s-13 17.167 -13 30.5v73h160v133c0 110.667 25.167 194.5 75.5 251.5s121.166 85.5 212.499 85.5c30.667 0 57 -3.33301 79 -10v-98c0 -10.667 -4.83301 -17.334 -14.5 -20.001
s-23.167 -4 -40.5 -4c-47.333 0 -82.333 -16 -105 -48s-34 -84 -34 -156v-134h612v-993h-179v864h-428v-864h-178zM1194 1449l-233 -258c-9.33301 -10 -18.5 -17.167 -27.5 -21.5s-20.5 -6.5 -34.5 -6.5h-106l148 242c9.33301 15.333 19.5 26.5 30.5 33.5
s27.167 10.5 48.5 10.5h174z" />
    <glyph glyph-name="f_uni1EC9.liga" unicode="f&#x1ec9;" horiz-adv-x="1145" 
d="M209 0l0.00195312 861.001l-112 13c-14.667 3.33301 -26.334 8.5 -35.001 15.5s-13 17.167 -13 30.5v73h160v133c0 110.667 25.167 194.5 75.5 251.5s121.166 85.5 212.499 85.5c30.667 0 57 -3.33301 79 -10v-98c0 -10.667 -4.83301 -17.334 -14.5 -20.001
s-23.167 -4 -40.5 -4c-47.333 0 -82.333 -16 -105 -48s-34 -84 -34 -156v-134h612v-993h-179v864h-428v-864h-178zM718.002 1418c20 15.333 45.833 27.499 77.5 36.499s65.5 13.5 101.5 13.5c30 0 56.167 -3.16699 78.5 -9.5s40.666 -15.166 54.999 -26.499
s25.166 -24.666 32.499 -39.999s11 -32 11 -50c0 -32.667 -11 -60.834 -33 -84.501s-50 -42.167 -84 -55.5l-17 -82h-87v132c36 4.66699 60.667 13.5 74 26.5s20 27.833 20 44.5c0 15.333 -5.5 28.833 -16.5 40.5s-29.833 17.5 -56.5 17.5c-13.333 0 -25 -1.5 -35 -4.5
s-19 -6.16699 -27 -9.5s-15 -6.5 -21 -9.5s-11.333 -4.5 -16 -4.5c-5.33301 0 -9.66602 1.5 -12.999 4.5s-6.66602 7.16699 -9.99902 12.5z" />
    <glyph glyph-name="f_f_uni1ECB.liga" unicode="ff&#x1ecb;" horiz-adv-x="1775" 
d="M209 0v861.003l-112 13c-14.667 3.33301 -26.334 8.5 -35.001 15.5s-13 17.167 -13 30.5v73h160v83c0 58 8.16699 109.5 24.5 154.5s39.5 83 69.5 114s66.333 54.5 109 70.5s90.667 24 144 24c45.333 0 87.333 -6.66699 126 -20l-5 -90c-1.33301 -16 -10 -24.667 -26 -26
s-38 -2 -66 -2c-30.667 0 -58.5 -3.83301 -83.5 -11.5s-46.333 -20.5 -64 -38.5s-31.334 -41.833 -41.001 -71.5s-14.5 -66.167 -14.5 -109.5v-77h457v56c0 62 9.66699 118.833 29 170.5s48.333 96.167 87 133.5s86.834 66.333 144.501 87s124.5 31 200.5 31
c25.333 0 51.333 -1.66699 78 -5s49.667 -8.33301 69 -15l-7 -93c-0.666992 -6.66699 -3.16699 -11.334 -7.5 -14.001s-10.166 -4.33398 -17.499 -5.00098s-16.5 -0.833984 -27.5 -0.500977s-23.5 0.5 -37.5 0.5c-118.667 0 -204.667 -24.5 -258 -73.5
s-80 -122.833 -80 -221.5v-51h612v-993h-179v864h-428v-864h-178v864h-452v-864h-178zM1652 -248.997c0 -15.333 -3.16699 -29.833 -9.5 -43.5s-14.666 -25.5 -24.999 -35.5s-22.5 -18 -36.5 -24s-28.667 -9 -44 -9s-29.833 3 -43.5 9s-25.5 14 -35.5 24
s-18 21.833 -24 35.5s-9 28.167 -9 43.5c0 16 3 30.833 9 44.5s14 25.834 24 36.501s21.833 19 35.5 25s28.167 9 43.5 9s30 -3 44 -9s26.167 -14.333 36.5 -25s18.666 -22.834 24.999 -36.501s9.5 -28.5 9.5 -44.5z" />
    <glyph glyph-name="f_f_uni1E2D.liga" unicode="ff&#x1e2d;" horiz-adv-x="1775" 
d="M209 0v861.003l-112 13c-14.667 3.33301 -26.334 8.5 -35.001 15.5s-13 17.167 -13 30.5v73h160v83c0 58 8.16699 109.5 24.5 154.5s39.5 83 69.5 114s66.333 54.5 109 70.5s90.667 24 144 24c45.333 0 87.333 -6.66699 126 -20l-5 -90c-1.33301 -16 -10 -24.667 -26 -26
s-38 -2 -66 -2c-30.667 0 -58.5 -3.83301 -83.5 -11.5s-46.333 -20.5 -64 -38.5s-31.334 -41.833 -41.001 -71.5s-14.5 -66.167 -14.5 -109.5v-77h457v56c0 62 9.66699 118.833 29 170.5s48.333 96.167 87 133.5s86.834 66.333 144.501 87s124.5 31 200.5 31
c25.333 0 51.333 -1.66699 78 -5s49.667 -8.33301 69 -15l-7 -93c-0.666992 -6.66699 -3.16699 -11.334 -7.5 -14.001s-10.166 -4.33398 -17.499 -5.00098s-16.5 -0.833984 -27.5 -0.500977s-23.5 0.5 -37.5 0.5c-118.667 0 -204.667 -24.5 -258 -73.5
s-80 -122.833 -80 -221.5v-51h612v-993h-179v864h-428v-864h-178v864h-452v-864h-178zM1642 -177.997c24 0 42.502 6.99902 55.502 20.999s19.833 35.667 20.5 65h108c0 -31.333 -4.16699 -60.166 -12.5 -86.499s-20.333 -48.833 -36 -67.5s-34.334 -33.167 -56.001 -43.5
s-45.834 -15.5 -72.501 -15.5c-23.333 0 -45.166 4.83301 -65.499 14.5s-39.5 20.167 -57.5 31.5l-51 31.5c-16 9.66699 -31.667 14.5 -47 14.5c-48 0 -72.667 -29.333 -74 -88h-111c0 32 4.33301 61.167 13 87.5s21 49 37 68s35 33.667 57 44s46 15.5 72 15.5
c23.333 0 45.166 -4.83301 65.499 -14.5s39.5 -20.167 57.5 -31.5l50.5 -31.5c15.667 -9.66699 31.167 -14.5 46.5 -14.5z" />
    <glyph glyph-name="f_f_uni0268.liga" unicode="ff&#x268;" horiz-adv-x="1815" 
d="M1445 564v300.003h-428v-864h-178v864h-452v-864h-178v861l-112 13c-14.667 3.33301 -26.334 8.5 -35.001 15.5s-13 17.167 -13 30.5v73h160v83c0 58 8.16699 109.5 24.5 154.5s39.5 83 69.5 114s66.333 54.5 109 70.5s90.667 24 144 24
c45.333 0 87.333 -6.66699 126 -20l-5 -90c-1.33301 -16 -10 -24.667 -26 -26s-38 -2 -66 -2c-30.667 0 -58.5 -3.83301 -83.5 -11.5s-46.333 -20.5 -64 -38.5s-31.334 -41.833 -41.001 -71.5s-14.5 -66.167 -14.5 -109.5v-77h457v56c0 62 9.66699 118.833 29 170.5
s48.333 96.167 87 133.5s86.834 66.333 144.501 87s124.5 31 200.5 31c25.333 0 51.333 -1.66699 78 -5s49.667 -8.33301 69 -15l-7 -93c-0.666992 -6.66699 -3.16699 -11.334 -7.5 -14.001s-10.166 -4.33398 -17.499 -5.00098s-16.5 -0.833984 -27.5 -0.500977
s-23.5 0.5 -37.5 0.5c-118.667 0 -204.667 -24.5 -258 -73.5s-80 -122.833 -80 -221.5v-51h612v-429h155v-129h-155v-435h-179v435h-151v129h151z" />
    <glyph glyph-name="f_f_iacute.liga" unicode="ff&#xed;" horiz-adv-x="1774" 
d="M209 0l0.00292969 861.001l-112 13c-14.667 3.33301 -26.334 8.5 -35.001 15.5s-13 17.167 -13 30.5v73h160v83c0 58 8.16699 109.5 24.5 154.5s39.5 83 69.5 114s66.333 54.5 109 70.5s90.667 24 144 24c45.333 0 87.333 -6.66699 126 -20l-5 -90
c-1.33301 -16 -10 -24.667 -26 -26s-38 -2 -66 -2c-30.667 0 -58.5 -3.83301 -83.5 -11.5s-46.333 -20.5 -64 -38.5s-31.334 -41.833 -41.001 -71.5s-14.5 -66.167 -14.5 -109.5v-77h457v133c0 110.667 25.167 194.5 75.5 251.5s121.166 85.5 212.499 85.5
c30.667 0 57 -3.33301 79 -10v-98c0 -10.667 -4.83301 -17.334 -14.5 -20.001s-23.167 -4 -40.5 -4c-47.333 0 -82.333 -16 -105 -48s-34 -84 -34 -156v-134h612v-993h-179v864h-428v-864h-178v864h-452v-864h-178zM1828 1449l-233 -258
c-9.33301 -10 -18.5 -17.167 -27.5 -21.5s-20.5 -6.5 -34.5 -6.5h-106l148 242c9.33301 15.333 19.5 26.5 30.5 33.5s27.167 10.5 48.5 10.5h174z" />
    <glyph glyph-name="f_f_uni1EC9.liga" unicode="ff&#x1ec9;" horiz-adv-x="1764" 
d="M209 0l0.00292969 861.001l-112 13c-14.667 3.33301 -26.334 8.5 -35.001 15.5s-13 17.167 -13 30.5v73h160v83c0 58 8.16699 109.5 24.5 154.5s39.5 83 69.5 114s66.333 54.5 109 70.5s90.667 24 144 24c45.333 0 87.333 -6.66699 126 -20l-5 -90
c-1.33301 -16 -10 -24.667 -26 -26s-38 -2 -66 -2c-30.667 0 -58.5 -3.83301 -83.5 -11.5s-46.333 -20.5 -64 -38.5s-31.334 -41.833 -41.001 -71.5s-14.5 -66.167 -14.5 -109.5v-77h457v133c0 110.667 25.167 194.5 75.5 251.5s121.166 85.5 212.499 85.5
c30.667 0 57 -3.33301 79 -10v-98c0 -10.667 -4.83301 -17.334 -14.5 -20.001s-23.167 -4 -40.5 -4c-47.333 0 -82.333 -16 -105 -48s-34 -84 -34 -156v-134h612v-993h-179v864h-428v-864h-178v864h-452v-864h-178zM1351 1418c20 15.333 45.833 27.499 77.5 36.499
s65.5 13.5 101.5 13.5c30 0 56.167 -3.16699 78.5 -9.5s40.666 -15.166 54.999 -26.499s25.166 -24.666 32.499 -39.999s11 -32 11 -50c0 -32.667 -11 -60.834 -33 -84.501s-50 -42.167 -84 -55.5l-17 -82h-87v132c36 4.66699 60.667 13.5 74 26.5s20 27.833 20 44.5
c0 15.333 -5.5 28.833 -16.5 40.5s-29.833 17.5 -56.5 17.5c-13.333 0 -25 -1.5 -35 -4.5s-19 -6.16699 -27 -9.5s-15 -6.5 -21 -9.5s-11.333 -4.5 -16 -4.5c-5.33301 0 -9.66602 1.5 -12.999 4.5s-6.66602 7.16699 -9.99902 12.5z" />
    <glyph glyph-name="f_lacute.liga" unicode="f&#x13a;" horiz-adv-x="1179" 
d="M209 0l-0.000976562 861.001l-112 13c-14.667 3.33301 -26.334 8.5 -35.001 15.5s-13 17.167 -13 30.5v73h160v54c0 56 8.5 109.167 25.5 159.5s42.833 94.166 77.5 131.499s78 67 130 89s112.667 33 182 33c51.333 0 100.833 -2 148.5 -6s93.834 -6.33301 138.501 -7
h121v-1447h-177v1322c-36 1.33301 -72.167 3 -108.5 5s-68.166 3 -95.499 3c-86.667 0 -153.167 -24.833 -199.5 -74.5s-69.5 -119.167 -69.5 -208.5v-54h263v-129h-258v-864h-178zM1325 1852l-326.001 -286c-10 -9.33301 -19.667 -15 -29 -17s-20.666 -3 -33.999 -3h-128
l231 274c11.333 14.667 22.833 23.667 34.5 27s28.5 5 50.5 5h201z" />
    <glyph glyph-name="t_i.liga" unicode="ti" horiz-adv-x="1232" 
d="M1081 0l-178.001 0.00195312v864h-522v-608c0 -42.667 10.333 -74.334 31 -95.001s47.334 -31 80.001 -31c18.667 0 34.834 2.5 48.501 7.5s25.5 10.5 35.5 16.5s18.5 11.5 25.5 16.5s13.167 7.5 18.5 7.5c9.33301 0 17.666 -5.66699 24.999 -17l52 -85
c-30.667 -28.667 -67.667 -51.167 -111 -67.5s-88 -24.5 -134 -24.5c-80 0 -141.5 22.333 -184.5 67s-64.5 109 -64.5 193v620h-122c-10.667 0 -19.667 3.16699 -27 9.5s-11 16.166 -11 29.499v71l166 22l41 312c2 10 6.5 18.167 13.5 24.5s16.167 9.5 27.5 9.5h90v-349h700
v-993zM1125 1338c0 -17.333 -3.5 -33.5 -10.5 -48.5s-16.333 -28.167 -28 -39.5s-25.167 -20.333 -40.5 -27s-31.666 -10 -48.999 -10s-33.5 3.33301 -48.5 10s-28.167 15.667 -39.5 27s-20.333 24.5 -27 39.5s-10 31.167 -10 48.5s3.33301 33.833 10 49.5
s15.667 29.334 27 41.001s24.5 20.834 39.5 27.501s31.167 10 48.5 10s33.666 -3.33301 48.999 -10s28.833 -15.834 40.5 -27.501s21 -25.334 28 -41.001s10.5 -32.167 10.5 -49.5z" />
    <glyph glyph-name="t_igrave.liga" unicode="t&#xec;" horiz-adv-x="1232" 
d="M1081 0l-178.001 0.00195312v864h-522v-608c0 -42.667 10.333 -74.334 31 -95.001s47.334 -31 80.001 -31c18.667 0 34.834 2.5 48.501 7.5s25.5 10.5 35.5 16.5s18.5 11.5 25.5 16.5s13.167 7.5 18.5 7.5c9.33301 0 17.666 -5.66699 24.999 -17l52 -85
c-30.667 -28.667 -67.667 -51.167 -111 -67.5s-88 -24.5 -134 -24.5c-80 0 -141.5 22.333 -184.5 67s-64.5 109 -64.5 193v620h-122c-10.667 0 -19.667 3.16699 -27 9.5s-11 16.166 -11 29.499v71l166 22l41 312c2 10 6.5 18.167 13.5 24.5s16.167 9.5 27.5 9.5h90v-349h700
v-993zM897.999 1449c22 0 38.333 -3.5 49 -10.5s20.667 -18.167 30 -33.5l149 -242h-102c-14 0 -25.333 2.16699 -34 6.5s-17.667 11.5 -27 21.5l-234 258h169z" />
    <glyph glyph-name="t_iacute.liga" unicode="t&#xed;" horiz-adv-x="1230" 
d="M1079 0l-178.001 0.00195312v864h-522v-608c0 -42.667 10.333 -74.334 31 -95.001s47.334 -31 80.001 -31c18.667 0 34.834 2.5 48.501 7.5s25.5 10.5 35.5 16.5s18.5 11.5 25.5 16.5s13.167 7.5 18.5 7.5c9.33301 0 17.666 -5.66699 24.999 -17l52 -85
c-30.667 -28.667 -67.667 -51.167 -111 -67.5s-88 -24.5 -134 -24.5c-80 0 -141.5 22.333 -184.5 67s-64.5 109 -64.5 193v620h-122c-10.667 0 -19.667 3.16699 -27 9.5s-11 16.166 -11 29.499v71l166 22l41 312c2 10 6.5 18.167 13.5 24.5s16.167 9.5 27.5 9.5h90v-349h700
v-993zM1287 1449l-233 -258c-9.33301 -10 -18.5 -17.167 -27.5 -21.5s-20.5 -6.5 -34.5 -6.5h-106l148 242c9.33301 15.333 19.5 26.5 30.5 33.5s27.167 10.5 48.5 10.5h174z" />
    <glyph glyph-name="t_icircumflex.liga" unicode="t&#xee;" horiz-adv-x="1232" 
d="M1081 0l-178.001 0.00195312v864h-522v-608c0 -42.667 10.333 -74.334 31 -95.001s47.334 -31 80.001 -31c18.667 0 34.834 2.5 48.501 7.5s25.5 10.5 35.5 16.5s18.5 11.5 25.5 16.5s13.167 7.5 18.5 7.5c9.33301 0 17.666 -5.66699 24.999 -17l52 -85
c-30.667 -28.667 -67.667 -51.167 -111 -67.5s-88 -24.5 -134 -24.5c-80 0 -141.5 22.333 -184.5 67s-64.5 109 -64.5 193v620h-122c-10.667 0 -19.667 3.16699 -27 9.5s-11 16.166 -11 29.499v71l166 22l41 312c2 10 6.5 18.167 13.5 24.5s16.167 9.5 27.5 9.5h90v-349h700
v-993zM1304 1169h-118.999c-7.33301 0 -14.833 1.33301 -22.5 4s-15.167 7.66699 -22.5 15l-123 132c-6 5.33301 -11.333 11.666 -16 18.999c-3.33301 -3.33301 -6.33301 -6.66602 -9 -9.99902s-5.33398 -6.33301 -8.00098 -9l-124 -132c-14 -12.667 -29 -19 -45 -19h-123
l223 264h166z" />
    <glyph glyph-name="t_idieresis.liga" unicode="t&#xef;" horiz-adv-x="1232" 
d="M1081 0l-178.001 0.00195312v864h-522v-608c0 -42.667 10.333 -74.334 31 -95.001s47.334 -31 80.001 -31c18.667 0 34.834 2.5 48.501 7.5s25.5 10.5 35.5 16.5s18.5 11.5 25.5 16.5s13.167 7.5 18.5 7.5c9.33301 0 17.666 -5.66699 24.999 -17l52 -85
c-30.667 -28.667 -67.667 -51.167 -111 -67.5s-88 -24.5 -134 -24.5c-80 0 -141.5 22.333 -184.5 67s-64.5 109 -64.5 193v620h-122c-10.667 0 -19.667 3.16699 -27 9.5s-11 16.166 -11 29.499v71l166 22l41 312c2 10 6.5 18.167 13.5 24.5s16.167 9.5 27.5 9.5h90v-349h700
v-993zM954.999 1289c0 -15.333 -3 -29.666 -9 -42.999s-14.333 -25 -25 -35s-22.834 -18 -36.501 -24s-28.167 -9 -43.5 -9s-29.666 3 -42.999 9s-25.166 14 -35.499 24s-18.5 21.667 -24.5 35s-9 27.666 -9 42.999s3 30 9 44s14.167 26.167 24.5 36.5
s22.166 18.5 35.499 24.5s27.666 9 42.999 9s29.833 -3 43.5 -9s25.834 -14.167 36.501 -24.5s19 -22.5 25 -36.5s9 -28.667 9 -44zM1267 1289c0 -15.333 -3 -29.666 -9 -42.999s-14.167 -25 -24.5 -35s-22.5 -18 -36.5 -24s-28.667 -9 -44 -9s-29.833 3 -43.5 9
s-25.5 14 -35.5 24s-18 21.667 -24 35s-9 27.666 -9 42.999s3 30 9 44s14 26.167 24 36.5s21.833 18.5 35.5 24.5s28.167 9 43.5 9s30 -3 44 -9s26.167 -14.167 36.5 -24.5s18.5 -22.5 24.5 -36.5s9 -28.667 9 -44z" />
    <glyph glyph-name="t_imacron.liga" unicode="t&#x12b;" horiz-adv-x="1232" 
d="M1081 0l-178.001 0.00195312v864h-522v-608c0 -42.667 10.333 -74.334 31 -95.001s47.334 -31 80.001 -31c18.667 0 34.834 2.5 48.501 7.5s25.5 10.5 35.5 16.5s18.5 11.5 25.5 16.5s13.167 7.5 18.5 7.5c9.33301 0 17.666 -5.66699 24.999 -17l52 -85
c-30.667 -28.667 -67.667 -51.167 -111 -67.5s-88 -24.5 -134 -24.5c-80 0 -141.5 22.333 -184.5 67s-64.5 109 -64.5 193v620h-122c-10.667 0 -19.667 3.16699 -27 9.5s-11 16.166 -11 29.499v71l166 22l41 312c2 10 6.5 18.167 13.5 24.5s16.167 9.5 27.5 9.5h90v-349h700
v-993zM710.999 1348h574v-117h-574v117z" />
    <glyph glyph-name="t_itilde.liga" unicode="t&#x129;" horiz-adv-x="1230" 
d="M1079 0l-178.001 0.00195312v864h-522v-608c0 -42.667 10.333 -74.334 31 -95.001s47.334 -31 80.001 -31c18.667 0 34.834 2.5 48.501 7.5s25.5 10.5 35.5 16.5s18.5 11.5 25.5 16.5s13.167 7.5 18.5 7.5c9.33301 0 17.666 -5.66699 24.999 -17l52 -85
c-30.667 -28.667 -67.667 -51.167 -111 -67.5s-88 -24.5 -134 -24.5c-80 0 -141.5 22.333 -184.5 67s-64.5 109 -64.5 193v620h-122c-10.667 0 -19.667 3.16699 -27 9.5s-11 16.166 -11 29.499v71l166 22l41 312c2 10 6.5 18.167 13.5 24.5s16.167 9.5 27.5 9.5h90v-349h700
v-993zM1106 1325c24 0 42.502 6.99902 55.502 20.999s19.833 35.667 20.5 65h108c0 -31.333 -4.16699 -60.166 -12.5 -86.499s-20.333 -48.833 -36 -67.5s-34.334 -33.167 -56.001 -43.5s-45.834 -15.5 -72.501 -15.5c-23.333 0 -45.166 4.83301 -65.499 14.5
s-39.5 20.167 -57.5 31.5l-51 31.5c-16 9.66699 -31.667 14.5 -47 14.5c-48 0 -72.667 -29.333 -74 -88h-111c0 32 4.33301 61.167 13 87.5s21 49 37 68s35 33.667 57 44s46 15.5 72 15.5c23.333 0 45.166 -4.83301 65.499 -14.5s39.5 -20.167 57.5 -31.5l50.5 -31.5
c15.667 -9.66699 31.167 -14.5 46.5 -14.5z" />
    <glyph glyph-name="t_ibreve.liga" unicode="t&#x12d;" horiz-adv-x="1232" 
d="M1081 0l-178.001 0.00195312v864h-522v-608c0 -42.667 10.333 -74.334 31 -95.001s47.334 -31 80.001 -31c18.667 0 34.834 2.5 48.501 7.5s25.5 10.5 35.5 16.5s18.5 11.5 25.5 16.5s13.167 7.5 18.5 7.5c9.33301 0 17.666 -5.66699 24.999 -17l52 -85
c-30.667 -28.667 -67.667 -51.167 -111 -67.5s-88 -24.5 -134 -24.5c-80 0 -141.5 22.333 -184.5 67s-64.5 109 -64.5 193v620h-122c-10.667 0 -19.667 3.16699 -27 9.5s-11 16.166 -11 29.499v71l166 22l41 312c2 10 6.5 18.167 13.5 24.5s16.167 9.5 27.5 9.5h90v-349h700
v-993zM997.999 1164c-51.333 0 -94.332 7.16699 -128.999 21.5s-62.834 33.666 -84.501 57.999s-37.167 52.833 -46.5 85.5s-14 67.334 -14 104.001h126c0 -22 2.33301 -42.5 7 -61.5s12.667 -35.167 24 -48.5s26.5 -23.833 45.5 -31.5s42.833 -11.5 71.5 -11.5
s52.5 3.83301 71.5 11.5s34.167 18.167 45.5 31.5s19.333 29.5 24 48.5s7 39.5 7 61.5h126c0 -36.667 -4.66699 -71.334 -14 -104.001s-24.833 -61.167 -46.5 -85.5s-50 -43.666 -85 -57.999s-77.833 -21.5 -128.5 -21.5z" />
    <glyph glyph-name="t_uni01D0.liga" unicode="t&#x1d0;" horiz-adv-x="1232" 
d="M1081 0l-178.001 0.00195312v864h-522v-608c0 -42.667 10.333 -74.334 31 -95.001s47.334 -31 80.001 -31c18.667 0 34.834 2.5 48.501 7.5s25.5 10.5 35.5 16.5s18.5 11.5 25.5 16.5s13.167 7.5 18.5 7.5c9.33301 0 17.666 -5.66699 24.999 -17l52 -85
c-30.667 -28.667 -67.667 -51.167 -111 -67.5s-88 -24.5 -134 -24.5c-80 0 -141.5 22.333 -184.5 67s-64.5 109 -64.5 193v620h-122c-10.667 0 -19.667 3.16699 -27 9.5s-11 16.166 -11 29.499v71l166 22l41 312c2 10 6.5 18.167 13.5 24.5s16.167 9.5 27.5 9.5h90v-349h700
v-993zM1304 1433l-222.995 -264h-166l-223 264h123c8 0 15.667 -1.66699 23 -5s13 -6.66602 17 -9.99902l128 -136c3.33301 -3.33301 6.16602 -6.66602 8.49902 -9.99902s5.16602 -6.66602 8.49902 -9.99902c3.33301 3.33301 6.16602 6.66602 8.49902 9.99902
s5.16602 6.66602 8.49902 9.99902l128 136c4.66699 3.33301 10.667 6.66602 18 9.99902s14.666 5 21.999 5h119z" />
    <glyph glyph-name="t_uni1E2D.liga" unicode="t&#x1e2d;" horiz-adv-x="1230" 
d="M1079 0l-178.001 0.00195312v864h-522v-608c0 -42.667 10.333 -74.334 31 -95.001s47.334 -31 80.001 -31c18.667 0 34.834 2.5 48.501 7.5s25.5 10.5 35.5 16.5s18.5 11.5 25.5 16.5s13.167 7.5 18.5 7.5c9.33301 0 17.666 -5.66699 24.999 -17l52 -85
c-30.667 -28.667 -67.667 -51.167 -111 -67.5s-88 -24.5 -134 -24.5c-80 0 -141.5 22.333 -184.5 67s-64.5 109 -64.5 193v620h-122c-10.667 0 -19.667 3.16699 -27 9.5s-11 16.166 -11 29.499v71l166 22l41 312c2 10 6.5 18.167 13.5 24.5s16.167 9.5 27.5 9.5h90v-349h700
v-993zM1123 1338c0 -17.333 -3.5 -33.5 -10.5 -48.5s-16.333 -28.167 -28 -39.5s-25.167 -20.333 -40.5 -27s-31.666 -10 -48.999 -10s-33.5 3.33301 -48.5 10s-28.167 15.667 -39.5 27s-20.333 24.5 -27 39.5s-10 31.167 -10 48.5s3.33301 33.833 10 49.5
s15.667 29.334 27 41.001s24.5 20.834 39.5 27.501s31.167 10 48.5 10s33.666 -3.33301 48.999 -10s28.833 -15.834 40.5 -27.501s21 -25.334 28 -41.001s10.5 -32.167 10.5 -49.5zM1100 -177.998c24 0 42.502 6.99902 55.502 20.999s19.833 35.667 20.5 65h108
c0 -31.333 -4.16699 -60.166 -12.5 -86.499s-20.333 -48.833 -36 -67.5s-34.334 -33.167 -56.001 -43.5s-45.834 -15.5 -72.501 -15.5c-23.333 0 -45.166 4.83301 -65.499 14.5s-39.5 20.167 -57.5 31.5l-51 31.5c-16 9.66699 -31.667 14.5 -47 14.5
c-48 0 -72.667 -29.333 -74 -88h-111c0 32 4.33301 61.167 13 87.5s21 49 37 68s35 33.667 57 44s46 15.5 72 15.5c23.333 0 45.166 -4.83301 65.499 -14.5s39.5 -20.167 57.5 -31.5l50.5 -31.5c15.667 -9.66699 31.167 -14.5 46.5 -14.5z" />
    <glyph glyph-name="t_uni1E2F.liga" unicode="t&#x1e2f;" horiz-adv-x="1230" 
d="M1079 0l-178.001 0.00195312v864h-522v-608c0 -42.667 10.333 -74.334 31 -95.001s47.334 -31 80.001 -31c18.667 0 34.834 2.5 48.501 7.5s25.5 10.5 35.5 16.5s18.5 11.5 25.5 16.5s13.167 7.5 18.5 7.5c9.33301 0 17.666 -5.66699 24.999 -17l52 -85
c-30.667 -28.667 -67.667 -51.167 -111 -67.5s-88 -24.5 -134 -24.5c-80 0 -141.5 22.333 -184.5 67s-64.5 109 -64.5 193v620h-122c-10.667 0 -19.667 3.16699 -27 9.5s-11 16.166 -11 29.499v71l166 22l41 312c2 10 6.5 18.167 13.5 24.5s16.167 9.5 27.5 9.5h90v-349h700
v-993zM1331 1763l-233 -258c-9.33301 -10 -18.5 -17.167 -27.5 -21.5s-20.5 -6.5 -34.5 -6.5h-106l148 242c9.33301 15.333 19.5 26.5 30.5 33.5s27.167 10.5 48.5 10.5h174zM917.999 1289c0 -15.333 -3 -29.666 -9 -42.999s-14.333 -25 -25 -35s-22.834 -18 -36.501 -24
s-28.167 -9 -43.5 -9c-14.667 0 -28.667 3 -42 9s-25.166 14 -35.499 24s-18.5 21.667 -24.5 35s-9 27.666 -9 42.999s3 30 9 44s14.167 26.167 24.5 36.5s22.166 18.5 35.499 24.5s27.333 9 42 9c15.333 0 29.833 -3 43.5 -9s25.834 -14.167 36.501 -24.5
s19 -22.5 25 -36.5s9 -28.667 9 -44zM1299 1289c0 -15.333 -3 -29.666 -9 -42.999s-14.167 -25 -24.5 -35s-22.333 -18 -36 -24s-28.167 -9 -43.5 -9s-29.833 3 -43.5 9s-25.5 14 -35.5 24s-18 21.667 -24 35s-9 27.666 -9 42.999s3 30 9 44s14 26.167 24 36.5
s21.833 18.5 35.5 24.5s28.167 9 43.5 9s29.833 -3 43.5 -9s25.667 -14.167 36 -24.5s18.5 -22.5 24.5 -36.5s9 -28.667 9 -44z" />
    <glyph glyph-name="t_uni0268.liga" unicode="t&#x268;" horiz-adv-x="1279" 
d="M997 1213c-17.333 0 -33.5 3.33301 -48.5 10s-28.167 15.667 -39.5 27s-20.333 24.5 -27 39.5s-10 31.167 -10 48.5s3.33301 33.833 10 49.5s15.667 29.334 27 41.001s24.5 20.834 39.5 27.501s31.167 10 48.5 10s33.666 -3.33301 48.999 -10
s28.833 -15.834 40.5 -27.501s21 -25.334 28 -41.001s10.5 -32.167 10.5 -49.5s-3.5 -33.5 -10.5 -48.5s-16.333 -28.167 -28 -39.5s-25.167 -20.333 -40.5 -27s-31.666 -10 -48.999 -10zM1240 435l-159.001 0.00195312v-435h-178v435h-148v129h148v300h-522v-608
c0 -42.667 10.333 -74.334 31 -95.001s47.334 -31 80.001 -31c18.667 0 34.834 2.5 48.501 7.5s25.5 10.5 35.5 16.5s18.5 11.5 25.5 16.5s13.167 7.5 18.5 7.5c9.33301 0 17.666 -5.66699 24.999 -17l52 -85c-30.667 -28.667 -67.667 -51.167 -111 -67.5
s-88 -24.5 -134 -24.5c-80 0 -141.5 22.333 -184.5 67s-64.5 109 -64.5 193v620h-122c-10.667 0 -19.667 3.16699 -27 9.5s-11 16.166 -11 29.499v71l166 22l41 312c2 10 6.5 18.167 13.5 24.5s16.167 9.5 27.5 9.5h90v-349h700v-429h159v-129z" />
    <glyph glyph-name="t_uni020B.liga" unicode="t&#x20b;" horiz-adv-x="1232" 
d="M1081 0l-178.001 0.00195312v864h-522v-608c0 -42.667 10.333 -74.334 31 -95.001s47.334 -31 80.001 -31c18.667 0 34.834 2.5 48.501 7.5s25.5 10.5 35.5 16.5s18.5 11.5 25.5 16.5s13.167 7.5 18.5 7.5c9.33301 0 17.666 -5.66699 24.999 -17l52 -85
c-30.667 -28.667 -67.667 -51.167 -111 -67.5s-88 -24.5 -134 -24.5c-80 0 -141.5 22.333 -184.5 67s-64.5 109 -64.5 193v620h-122c-10.667 0 -19.667 3.16699 -27 9.5s-11 16.166 -11 29.499v71l166 22l41 312c2 10 6.5 18.167 13.5 24.5s16.167 9.5 27.5 9.5h90v-349h700
v-993zM997.999 1448c50.667 0 93.499 -7.16699 128.499 -21.5s63.333 -33.833 85 -58.5s37.167 -53.167 46.5 -85.5s14 -66.833 14 -103.5h-126c0 22 -2.33301 42.5 -7 61.5s-12.667 35.167 -24 48.5s-26.5 23.833 -45.5 31.5s-42.833 11.5 -71.5 11.5
s-52.5 -3.83301 -71.5 -11.5s-34.167 -18.167 -45.5 -31.5s-19.333 -29.5 -24 -48.5s-7 -39.5 -7 -61.5h-126c0 36.667 4.66699 71.167 14 103.5s24.833 60.833 46.5 85.5s49.834 44.167 84.501 58.5s77.667 21.5 129 21.5z" />
    <glyph glyph-name="t_uni0209.liga" unicode="t&#x209;" horiz-adv-x="1232" 
d="M1081 0l-178.001 0.00195312v864h-522v-608c0 -42.667 10.333 -74.334 31 -95.001s47.334 -31 80.001 -31c18.667 0 34.834 2.5 48.501 7.5s25.5 10.5 35.5 16.5s18.5 11.5 25.5 16.5s13.167 7.5 18.5 7.5c9.33301 0 17.666 -5.66699 24.999 -17l52 -85
c-30.667 -28.667 -67.667 -51.167 -111 -67.5s-88 -24.5 -134 -24.5c-80 0 -141.5 22.333 -184.5 67s-64.5 109 -64.5 193v620h-122c-10.667 0 -19.667 3.16699 -27 9.5s-11 16.166 -11 29.499v71l166 22l41 312c2 10 6.5 18.167 13.5 24.5s16.167 9.5 27.5 9.5h90v-349h700
v-993zM999.999 1449c22 0 38.667 -3.5 50 -10.5s21 -18.167 29 -33.5l138 -242h-74c-14 0 -25.833 2 -35.5 6s-18.5 11.333 -26.5 22l-199 258h118zM698.999 1449c22 0 38.167 -3.66699 48.5 -11s20.5 -18.333 30.5 -33l180 -242h-86c-13.333 0 -24.5 2.16699 -33.5 6.5
s-18.167 11.5 -27.5 21.5l-242 258h130z" />
    <glyph glyph-name="t_t_i.liga" unicode="tti" horiz-adv-x="1861" 
d="M1710 0l-178.004 0.00292969v864h-502v-608c0 -42.667 10.5 -74.334 31.5 -95.001s47.5 -31 79.5 -31c18.667 0 34.834 2.5 48.501 7.5s25.5 10.5 35.5 16.5s18.5 11.5 25.5 16.5s13.167 7.5 18.5 7.5c10 0 18.333 -5.66699 25 -17l53 -85
c-31.333 -28.667 -68.666 -51.167 -111.999 -67.5s-88 -24.5 -134 -24.5c-79.333 0 -140.666 22.333 -183.999 67s-65 109 -65 193v620h-471v-608c0 -42.667 10.333 -74.334 31 -95.001s47.334 -31 80.001 -31c18.667 0 34.834 2.5 48.501 7.5s25.5 10.5 35.5 16.5
s18.5 11.5 25.5 16.5s13.167 7.5 18.5 7.5c9.33301 0 17.666 -5.66699 24.999 -17l52 -85c-30.667 -28.667 -67.667 -51.167 -111 -67.5s-88 -24.5 -134 -24.5c-80 0 -141.5 22.333 -184.5 67s-64.5 109 -64.5 193v620h-122c-10.667 0 -19.667 3.16699 -27 9.5
s-11 16.166 -11 29.499v71l166 22l41 312c2 10 6.5 18.167 13.5 24.5s16.167 9.5 27.5 9.5h90v-349h477l41 315c2 10 6.5 18.167 13.5 24.5s16.167 9.5 27.5 9.5h90v-349h680v-993zM1751 1338c0 -17.333 -3.5 -33.5 -10.5 -48.5s-16.333 -28.167 -28 -39.5
s-25.167 -20.333 -40.5 -27s-31.666 -10 -48.999 -10s-33.5 3.33301 -48.5 10s-28.167 15.667 -39.5 27s-20.333 24.5 -27 39.5s-10 31.167 -10 48.5s3.33301 33.833 10 49.5s15.667 29.334 27 41.001s24.5 20.834 39.5 27.501s31.167 10 48.5 10
s33.666 -3.33301 48.999 -10s28.833 -15.834 40.5 -27.501s21 -25.334 28 -41.001s10.5 -32.167 10.5 -49.5z" />
    <glyph glyph-name="t_t_igrave.liga" unicode="tt&#xec;" horiz-adv-x="1861" 
d="M1710 0l-178.004 0.00292969v864h-502v-608c0 -42.667 10.5 -74.334 31.5 -95.001s47.5 -31 79.5 -31c18.667 0 34.834 2.5 48.501 7.5s25.5 10.5 35.5 16.5s18.5 11.5 25.5 16.5s13.167 7.5 18.5 7.5c10 0 18.333 -5.66699 25 -17l53 -85
c-31.333 -28.667 -68.666 -51.167 -111.999 -67.5s-88 -24.5 -134 -24.5c-79.333 0 -140.666 22.333 -183.999 67s-65 109 -65 193v620h-471v-608c0 -42.667 10.333 -74.334 31 -95.001s47.334 -31 80.001 -31c18.667 0 34.834 2.5 48.501 7.5s25.5 10.5 35.5 16.5
s18.5 11.5 25.5 16.5s13.167 7.5 18.5 7.5c9.33301 0 17.666 -5.66699 24.999 -17l52 -85c-30.667 -28.667 -67.667 -51.167 -111 -67.5s-88 -24.5 -134 -24.5c-80 0 -141.5 22.333 -184.5 67s-64.5 109 -64.5 193v620h-122c-10.667 0 -19.667 3.16699 -27 9.5
s-11 16.166 -11 29.499v71l166 22l41 312c2 10 6.5 18.167 13.5 24.5s16.167 9.5 27.5 9.5h90v-349h477l41 315c2 10 6.5 18.167 13.5 24.5s16.167 9.5 27.5 9.5h90v-349h680v-993zM1524 1449c22 0 38.333 -3.5 49 -10.5s20.667 -18.167 30 -33.5l149 -242h-102
c-14 0 -25.333 2.16699 -34 6.5s-17.667 11.5 -27 21.5l-234 258h169z" />
    <glyph glyph-name="t_t_iacute.liga" unicode="tt&#xed;" horiz-adv-x="1859" 
d="M1708 0l-178.004 0.00292969v864h-502v-608c0 -42.667 10.5 -74.334 31.5 -95.001s47.5 -31 79.5 -31c18.667 0 34.834 2.5 48.501 7.5s25.5 10.5 35.5 16.5s18.5 11.5 25.5 16.5s13.167 7.5 18.5 7.5c10 0 18.333 -5.66699 25 -17l53 -85
c-31.333 -28.667 -68.666 -51.167 -111.999 -67.5s-88 -24.5 -134 -24.5c-79.333 0 -140.666 22.333 -183.999 67s-65 109 -65 193v620h-471v-608c0 -42.667 10.333 -74.334 31 -95.001s47.334 -31 80.001 -31c18.667 0 34.834 2.5 48.501 7.5s25.5 10.5 35.5 16.5
s18.5 11.5 25.5 16.5s13.167 7.5 18.5 7.5c9.33301 0 17.666 -5.66699 24.999 -17l52 -85c-30.667 -28.667 -67.667 -51.167 -111 -67.5s-88 -24.5 -134 -24.5c-80 0 -141.5 22.333 -184.5 67s-64.5 109 -64.5 193v620h-122c-10.667 0 -19.667 3.16699 -27 9.5
s-11 16.166 -11 29.499v71l166 22l41 312c2 10 6.5 18.167 13.5 24.5s16.167 9.5 27.5 9.5h90v-349h477l41 315c2 10 6.5 18.167 13.5 24.5s16.167 9.5 27.5 9.5h90v-349h680v-993zM1913 1449l-233 -258c-9.33301 -10 -18.5 -17.167 -27.5 -21.5s-20.5 -6.5 -34.5 -6.5h-106
l148 242c9.33301 15.333 19.5 26.5 30.5 33.5s27.167 10.5 48.5 10.5h174z" />
    <glyph glyph-name="t_t_icircumflex.liga" unicode="tt&#xee;" horiz-adv-x="1861" 
d="M1710 0l-178.004 0.00292969v864h-502v-608c0 -42.667 10.5 -74.334 31.5 -95.001s47.5 -31 79.5 -31c18.667 0 34.834 2.5 48.501 7.5s25.5 10.5 35.5 16.5s18.5 11.5 25.5 16.5s13.167 7.5 18.5 7.5c10 0 18.333 -5.66699 25 -17l53 -85
c-31.333 -28.667 -68.666 -51.167 -111.999 -67.5s-88 -24.5 -134 -24.5c-79.333 0 -140.666 22.333 -183.999 67s-65 109 -65 193v620h-471v-608c0 -42.667 10.333 -74.334 31 -95.001s47.334 -31 80.001 -31c18.667 0 34.834 2.5 48.501 7.5s25.5 10.5 35.5 16.5
s18.5 11.5 25.5 16.5s13.167 7.5 18.5 7.5c9.33301 0 17.666 -5.66699 24.999 -17l52 -85c-30.667 -28.667 -67.667 -51.167 -111 -67.5s-88 -24.5 -134 -24.5c-80 0 -141.5 22.333 -184.5 67s-64.5 109 -64.5 193v620h-122c-10.667 0 -19.667 3.16699 -27 9.5
s-11 16.166 -11 29.499v71l166 22l41 312c2 10 6.5 18.167 13.5 24.5s16.167 9.5 27.5 9.5h90v-349h477l41 315c2 10 6.5 18.167 13.5 24.5s16.167 9.5 27.5 9.5h90v-349h680v-993zM1930 1169h-118.999c-7.33301 0 -14.833 1.33301 -22.5 4s-15.167 7.66699 -22.5 15
l-123 132c-6 5.33301 -11.333 11.666 -16 18.999c-3.33301 -3.33301 -6.33301 -6.66602 -9 -9.99902s-5.33398 -6.33301 -8.00098 -9l-124 -132c-14 -12.667 -29 -19 -45 -19h-123l223 264h166z" />
    <glyph glyph-name="t_t_idieresis.liga" unicode="tt&#xef;" horiz-adv-x="1861" 
d="M1710 0l-178.004 0.00292969v864h-502v-608c0 -42.667 10.5 -74.334 31.5 -95.001s47.5 -31 79.5 -31c18.667 0 34.834 2.5 48.501 7.5s25.5 10.5 35.5 16.5s18.5 11.5 25.5 16.5s13.167 7.5 18.5 7.5c10 0 18.333 -5.66699 25 -17l53 -85
c-31.333 -28.667 -68.666 -51.167 -111.999 -67.5s-88 -24.5 -134 -24.5c-79.333 0 -140.666 22.333 -183.999 67s-65 109 -65 193v620h-471v-608c0 -42.667 10.333 -74.334 31 -95.001s47.334 -31 80.001 -31c18.667 0 34.834 2.5 48.501 7.5s25.5 10.5 35.5 16.5
s18.5 11.5 25.5 16.5s13.167 7.5 18.5 7.5c9.33301 0 17.666 -5.66699 24.999 -17l52 -85c-30.667 -28.667 -67.667 -51.167 -111 -67.5s-88 -24.5 -134 -24.5c-80 0 -141.5 22.333 -184.5 67s-64.5 109 -64.5 193v620h-122c-10.667 0 -19.667 3.16699 -27 9.5
s-11 16.166 -11 29.499v71l166 22l41 312c2 10 6.5 18.167 13.5 24.5s16.167 9.5 27.5 9.5h90v-349h477l41 315c2 10 6.5 18.167 13.5 24.5s16.167 9.5 27.5 9.5h90v-349h680v-993zM1581 1289c0 -15.333 -3 -29.666 -9 -42.999s-14.333 -25 -25 -35s-22.834 -18 -36.501 -24
s-28.167 -9 -43.5 -9s-29.666 3 -42.999 9s-25.166 14 -35.499 24s-18.5 21.667 -24.5 35s-9 27.666 -9 42.999s3 30 9 44s14.167 26.167 24.5 36.5s22.166 18.5 35.499 24.5s27.666 9 42.999 9s29.833 -3 43.5 -9s25.834 -14.167 36.501 -24.5s19 -22.5 25 -36.5
s9 -28.667 9 -44zM1893 1289c0 -15.333 -3 -29.666 -9 -42.999s-14.167 -25 -24.5 -35s-22.5 -18 -36.5 -24s-28.667 -9 -44 -9s-29.833 3 -43.5 9s-25.5 14 -35.5 24s-18 21.667 -24 35s-9 27.666 -9 42.999s3 30 9 44s14 26.167 24 36.5s21.833 18.5 35.5 24.5
s28.167 9 43.5 9s30 -3 44 -9s26.167 -14.167 36.5 -24.5s18.5 -22.5 24.5 -36.5s9 -28.667 9 -44z" />
    <glyph glyph-name="t_t_imacron.liga" unicode="tt&#x12b;" horiz-adv-x="1861" 
d="M1710 0l-178.004 0.00292969v864h-502v-608c0 -42.667 10.5 -74.334 31.5 -95.001s47.5 -31 79.5 -31c18.667 0 34.834 2.5 48.501 7.5s25.5 10.5 35.5 16.5s18.5 11.5 25.5 16.5s13.167 7.5 18.5 7.5c10 0 18.333 -5.66699 25 -17l53 -85
c-31.333 -28.667 -68.666 -51.167 -111.999 -67.5s-88 -24.5 -134 -24.5c-79.333 0 -140.666 22.333 -183.999 67s-65 109 -65 193v620h-471v-608c0 -42.667 10.333 -74.334 31 -95.001s47.334 -31 80.001 -31c18.667 0 34.834 2.5 48.501 7.5s25.5 10.5 35.5 16.5
s18.5 11.5 25.5 16.5s13.167 7.5 18.5 7.5c9.33301 0 17.666 -5.66699 24.999 -17l52 -85c-30.667 -28.667 -67.667 -51.167 -111 -67.5s-88 -24.5 -134 -24.5c-80 0 -141.5 22.333 -184.5 67s-64.5 109 -64.5 193v620h-122c-10.667 0 -19.667 3.16699 -27 9.5
s-11 16.166 -11 29.499v71l166 22l41 312c2 10 6.5 18.167 13.5 24.5s16.167 9.5 27.5 9.5h90v-349h477l41 315c2 10 6.5 18.167 13.5 24.5s16.167 9.5 27.5 9.5h90v-349h680v-993zM1337 1348h574v-117h-574v117z" />
    <glyph glyph-name="t_t_itilde.liga" unicode="tt&#x129;" horiz-adv-x="1859" 
d="M1708 0l-178.004 0.00292969v864h-502v-608c0 -42.667 10.5 -74.334 31.5 -95.001s47.5 -31 79.5 -31c18.667 0 34.834 2.5 48.501 7.5s25.5 10.5 35.5 16.5s18.5 11.5 25.5 16.5s13.167 7.5 18.5 7.5c10 0 18.333 -5.66699 25 -17l53 -85
c-31.333 -28.667 -68.666 -51.167 -111.999 -67.5s-88 -24.5 -134 -24.5c-79.333 0 -140.666 22.333 -183.999 67s-65 109 -65 193v620h-471v-608c0 -42.667 10.333 -74.334 31 -95.001s47.334 -31 80.001 -31c18.667 0 34.834 2.5 48.501 7.5s25.5 10.5 35.5 16.5
s18.5 11.5 25.5 16.5s13.167 7.5 18.5 7.5c9.33301 0 17.666 -5.66699 24.999 -17l52 -85c-30.667 -28.667 -67.667 -51.167 -111 -67.5s-88 -24.5 -134 -24.5c-80 0 -141.5 22.333 -184.5 67s-64.5 109 -64.5 193v620h-122c-10.667 0 -19.667 3.16699 -27 9.5
s-11 16.166 -11 29.499v71l166 22l41 312c2 10 6.5 18.167 13.5 24.5s16.167 9.5 27.5 9.5h90v-349h477l41 315c2 10 6.5 18.167 13.5 24.5s16.167 9.5 27.5 9.5h90v-349h680v-993zM1732 1325c24 0 42.502 6.99902 55.502 20.999s19.833 35.667 20.5 65h108
c0 -31.333 -4.16699 -60.166 -12.5 -86.499s-20.333 -48.833 -36 -67.5s-34.334 -33.167 -56.001 -43.5s-45.834 -15.5 -72.501 -15.5c-23.333 0 -45.166 4.83301 -65.499 14.5s-39.5 20.167 -57.5 31.5l-51 31.5c-16 9.66699 -31.667 14.5 -47 14.5
c-48 0 -72.667 -29.333 -74 -88h-111c0 32 4.33301 61.167 13 87.5s21 49 37 68s35 33.667 57 44s46 15.5 72 15.5c23.333 0 45.166 -4.83301 65.499 -14.5s39.5 -20.167 57.5 -31.5l50.5 -31.5c15.667 -9.66699 31.167 -14.5 46.5 -14.5z" />
    <glyph glyph-name="t_t_ibreve.liga" unicode="tt&#x12d;" horiz-adv-x="1861" 
d="M1710 0l-178.004 0.00292969v864h-502v-608c0 -42.667 10.5 -74.334 31.5 -95.001s47.5 -31 79.5 -31c18.667 0 34.834 2.5 48.501 7.5s25.5 10.5 35.5 16.5s18.5 11.5 25.5 16.5s13.167 7.5 18.5 7.5c10 0 18.333 -5.66699 25 -17l53 -85
c-31.333 -28.667 -68.666 -51.167 -111.999 -67.5s-88 -24.5 -134 -24.5c-79.333 0 -140.666 22.333 -183.999 67s-65 109 -65 193v620h-471v-608c0 -42.667 10.333 -74.334 31 -95.001s47.334 -31 80.001 -31c18.667 0 34.834 2.5 48.501 7.5s25.5 10.5 35.5 16.5
s18.5 11.5 25.5 16.5s13.167 7.5 18.5 7.5c9.33301 0 17.666 -5.66699 24.999 -17l52 -85c-30.667 -28.667 -67.667 -51.167 -111 -67.5s-88 -24.5 -134 -24.5c-80 0 -141.5 22.333 -184.5 67s-64.5 109 -64.5 193v620h-122c-10.667 0 -19.667 3.16699 -27 9.5
s-11 16.166 -11 29.499v71l166 22l41 312c2 10 6.5 18.167 13.5 24.5s16.167 9.5 27.5 9.5h90v-349h477l41 315c2 10 6.5 18.167 13.5 24.5s16.167 9.5 27.5 9.5h90v-349h680v-993zM1624 1164c-51.333 0 -94.332 7.16699 -128.999 21.5s-62.834 33.666 -84.501 57.999
s-37.167 52.833 -46.5 85.5s-14 67.334 -14 104.001h126c0 -22 2.33301 -42.5 7 -61.5s12.667 -35.167 24 -48.5s26.5 -23.833 45.5 -31.5s42.833 -11.5 71.5 -11.5s52.5 3.83301 71.5 11.5s34.167 18.167 45.5 31.5s19.333 29.5 24 48.5s7 39.5 7 61.5h126
c0 -36.667 -4.66699 -71.334 -14 -104.001s-24.833 -61.167 -46.5 -85.5s-50 -43.666 -85 -57.999s-77.833 -21.5 -128.5 -21.5z" />
    <glyph glyph-name="t_t_uni01D0.liga" unicode="tt&#x1d0;" horiz-adv-x="1861" 
d="M1710 0l-178.004 0.00292969v864h-502v-608c0 -42.667 10.5 -74.334 31.5 -95.001s47.5 -31 79.5 -31c18.667 0 34.834 2.5 48.501 7.5s25.5 10.5 35.5 16.5s18.5 11.5 25.5 16.5s13.167 7.5 18.5 7.5c10 0 18.333 -5.66699 25 -17l53 -85
c-31.333 -28.667 -68.666 -51.167 -111.999 -67.5s-88 -24.5 -134 -24.5c-79.333 0 -140.666 22.333 -183.999 67s-65 109 -65 193v620h-471v-608c0 -42.667 10.333 -74.334 31 -95.001s47.334 -31 80.001 -31c18.667 0 34.834 2.5 48.501 7.5s25.5 10.5 35.5 16.5
s18.5 11.5 25.5 16.5s13.167 7.5 18.5 7.5c9.33301 0 17.666 -5.66699 24.999 -17l52 -85c-30.667 -28.667 -67.667 -51.167 -111 -67.5s-88 -24.5 -134 -24.5c-80 0 -141.5 22.333 -184.5 67s-64.5 109 -64.5 193v620h-122c-10.667 0 -19.667 3.16699 -27 9.5
s-11 16.166 -11 29.499v71l166 22l41 312c2 10 6.5 18.167 13.5 24.5s16.167 9.5 27.5 9.5h90v-349h477l41 315c2 10 6.5 18.167 13.5 24.5s16.167 9.5 27.5 9.5h90v-349h680v-993zM1930 1433l-222.995 -264h-166l-223 264h123c8 0 15.667 -1.66699 23 -5
s13 -6.66602 17 -9.99902l128 -136c3.33301 -3.33301 6.16602 -6.66602 8.49902 -9.99902s5.16602 -6.66602 8.49902 -9.99902c3.33301 3.33301 6.16602 6.66602 8.49902 9.99902s5.16602 6.66602 8.49902 9.99902l128 136c4.66699 3.33301 10.667 6.66602 18 9.99902
s14.666 5 21.999 5h119z" />
    <glyph glyph-name="t_t_uni1E2D.liga" unicode="tt&#x1e2d;" horiz-adv-x="1859" 
d="M1708 0l-178.004 0.00292969v864h-502v-608c0 -42.667 10.5 -74.334 31.5 -95.001s47.5 -31 79.5 -31c18.667 0 34.834 2.5 48.501 7.5s25.5 10.5 35.5 16.5s18.5 11.5 25.5 16.5s13.167 7.5 18.5 7.5c10 0 18.333 -5.66699 25 -17l53 -85
c-31.333 -28.667 -68.666 -51.167 -111.999 -67.5s-88 -24.5 -134 -24.5c-79.333 0 -140.666 22.333 -183.999 67s-65 109 -65 193v620h-471v-608c0 -42.667 10.333 -74.334 31 -95.001s47.334 -31 80.001 -31c18.667 0 34.834 2.5 48.501 7.5s25.5 10.5 35.5 16.5
s18.5 11.5 25.5 16.5s13.167 7.5 18.5 7.5c9.33301 0 17.666 -5.66699 24.999 -17l52 -85c-30.667 -28.667 -67.667 -51.167 -111 -67.5s-88 -24.5 -134 -24.5c-80 0 -141.5 22.333 -184.5 67s-64.5 109 -64.5 193v620h-122c-10.667 0 -19.667 3.16699 -27 9.5
s-11 16.166 -11 29.499v71l166 22l41 312c2 10 6.5 18.167 13.5 24.5s16.167 9.5 27.5 9.5h90v-349h477l41 315c2 10 6.5 18.167 13.5 24.5s16.167 9.5 27.5 9.5h90v-349h680v-993zM1728 -177.997c24 0 42.502 6.99902 55.502 20.999s19.833 35.667 20.5 65h108
c0 -31.333 -4.16699 -60.166 -12.5 -86.499s-20.333 -48.833 -36 -67.5s-34.334 -33.167 -56.001 -43.5s-45.834 -15.5 -72.501 -15.5c-23.333 0 -45.166 4.83301 -65.499 14.5s-39.5 20.167 -57.5 31.5l-51 31.5c-16 9.66699 -31.667 14.5 -47 14.5
c-48 0 -72.667 -29.333 -74 -88h-111c0 32 4.33301 61.167 13 87.5s21 49 37 68s35 33.667 57 44s46 15.5 72 15.5c23.333 0 45.166 -4.83301 65.499 -14.5s39.5 -20.167 57.5 -31.5l50.5 -31.5c15.667 -9.66699 31.167 -14.5 46.5 -14.5zM1749 1338
c0 -17.333 -3.5 -33.5 -10.5 -48.5s-16.333 -28.167 -28 -39.5s-25.167 -20.333 -40.5 -27s-31.666 -10 -48.999 -10s-33.5 3.33301 -48.5 10s-28.167 15.667 -39.5 27s-20.333 24.5 -27 39.5s-10 31.167 -10 48.5s3.33301 33.833 10 49.5s15.667 29.334 27 41.001
s24.5 20.834 39.5 27.501s31.167 10 48.5 10s33.666 -3.33301 48.999 -10s28.833 -15.834 40.5 -27.501s21 -25.334 28 -41.001s10.5 -32.167 10.5 -49.5z" />
    <glyph glyph-name="t_t_uni1E2F.liga" unicode="tt&#x1e2f;" horiz-adv-x="1859" 
d="M1708 0l-178.004 0.00292969v864h-502v-608c0 -42.667 10.5 -74.334 31.5 -95.001s47.5 -31 79.5 -31c18.667 0 34.834 2.5 48.501 7.5s25.5 10.5 35.5 16.5s18.5 11.5 25.5 16.5s13.167 7.5 18.5 7.5c10 0 18.333 -5.66699 25 -17l53 -85
c-31.333 -28.667 -68.666 -51.167 -111.999 -67.5s-88 -24.5 -134 -24.5c-79.333 0 -140.666 22.333 -183.999 67s-65 109 -65 193v620h-471v-608c0 -42.667 10.333 -74.334 31 -95.001s47.334 -31 80.001 -31c18.667 0 34.834 2.5 48.501 7.5s25.5 10.5 35.5 16.5
s18.5 11.5 25.5 16.5s13.167 7.5 18.5 7.5c9.33301 0 17.666 -5.66699 24.999 -17l52 -85c-30.667 -28.667 -67.667 -51.167 -111 -67.5s-88 -24.5 -134 -24.5c-80 0 -141.5 22.333 -184.5 67s-64.5 109 -64.5 193v620h-122c-10.667 0 -19.667 3.16699 -27 9.5
s-11 16.166 -11 29.499v71l166 22l41 312c2 10 6.5 18.167 13.5 24.5s16.167 9.5 27.5 9.5h90v-349h477l41 315c2 10 6.5 18.167 13.5 24.5s16.167 9.5 27.5 9.5h90v-349h680v-993zM1957 1763l-233 -258c-9.33301 -10 -18.5 -17.167 -27.5 -21.5s-20.5 -6.5 -34.5 -6.5h-106
l148 242c9.33301 15.333 19.5 26.5 30.5 33.5s27.167 10.5 48.5 10.5h174zM1544 1289c0 -15.333 -3 -29.666 -9 -42.999s-14.333 -25 -25 -35s-22.834 -18 -36.501 -24s-28.167 -9 -43.5 -9c-14.667 0 -28.667 3 -42 9s-25.166 14 -35.499 24s-18.5 21.667 -24.5 35
s-9 27.666 -9 42.999s3 30 9 44s14.167 26.167 24.5 36.5s22.166 18.5 35.499 24.5s27.333 9 42 9c15.333 0 29.833 -3 43.5 -9s25.834 -14.167 36.501 -24.5s19 -22.5 25 -36.5s9 -28.667 9 -44zM1925 1289c0 -15.333 -3 -29.666 -9 -42.999s-14.167 -25 -24.5 -35
s-22.333 -18 -36 -24s-28.167 -9 -43.5 -9s-29.833 3 -43.5 9s-25.5 14 -35.5 24s-18 21.667 -24 35s-9 27.666 -9 42.999s3 30 9 44s14 26.167 24 36.5s21.833 18.5 35.5 24.5s28.167 9 43.5 9s29.833 -3 43.5 -9s25.667 -14.167 36 -24.5s18.5 -22.5 24.5 -36.5
s9 -28.667 9 -44z" />
    <glyph glyph-name="t_t_uni0268.liga" unicode="tt&#x268;" horiz-adv-x="1905" 
d="M1623 1213c-17.333 0 -33.5 3.33301 -48.5 10s-28.167 15.667 -39.5 27s-20.333 24.5 -27 39.5s-10 31.167 -10 48.5s3.33301 33.833 10 49.5s15.667 29.334 27 41.001s24.5 20.834 39.5 27.501s31.167 10 48.5 10s33.666 -3.33301 48.999 -10
s28.833 -15.834 40.5 -27.501s21 -25.334 28 -41.001s10.5 -32.167 10.5 -49.5s-3.5 -33.5 -10.5 -48.5s-16.333 -28.167 -28 -39.5s-25.167 -20.333 -40.5 -27s-31.666 -10 -48.999 -10zM1868 435l-158.004 0.00292969v-435h-178v435h-149v129h149v300h-502v-608
c0 -42.667 10.5 -74.334 31.5 -95.001s47.5 -31 79.5 -31c18.667 0 34.834 2.5 48.501 7.5s25.5 10.5 35.5 16.5s18.5 11.5 25.5 16.5s13.167 7.5 18.5 7.5c10 0 18.333 -5.66699 25 -17l53 -85c-31.333 -28.667 -68.666 -51.167 -111.999 -67.5s-88 -24.5 -134 -24.5
c-79.333 0 -140.666 22.333 -183.999 67s-65 109 -65 193v620h-471v-608c0 -42.667 10.333 -74.334 31 -95.001s47.334 -31 80.001 -31c18.667 0 34.834 2.5 48.501 7.5s25.5 10.5 35.5 16.5s18.5 11.5 25.5 16.5s13.167 7.5 18.5 7.5c9.33301 0 17.666 -5.66699 24.999 -17
l52 -85c-30.667 -28.667 -67.667 -51.167 -111 -67.5s-88 -24.5 -134 -24.5c-80 0 -141.5 22.333 -184.5 67s-64.5 109 -64.5 193v620h-122c-10.667 0 -19.667 3.16699 -27 9.5s-11 16.166 -11 29.499v71l166 22l41 312c2 10 6.5 18.167 13.5 24.5s16.167 9.5 27.5 9.5h90
v-349h477l41 315c2 10 6.5 18.167 13.5 24.5s16.167 9.5 27.5 9.5h90v-349h680v-429h158v-129z" />
    <glyph glyph-name="t_t_uni020B.liga" unicode="tt&#x20b;" horiz-adv-x="1861" 
d="M1710 0l-178.004 0.00292969v864h-502v-608c0 -42.667 10.5 -74.334 31.5 -95.001s47.5 -31 79.5 -31c18.667 0 34.834 2.5 48.501 7.5s25.5 10.5 35.5 16.5s18.5 11.5 25.5 16.5s13.167 7.5 18.5 7.5c10 0 18.333 -5.66699 25 -17l53 -85
c-31.333 -28.667 -68.666 -51.167 -111.999 -67.5s-88 -24.5 -134 -24.5c-79.333 0 -140.666 22.333 -183.999 67s-65 109 -65 193v620h-471v-608c0 -42.667 10.333 -74.334 31 -95.001s47.334 -31 80.001 -31c18.667 0 34.834 2.5 48.501 7.5s25.5 10.5 35.5 16.5
s18.5 11.5 25.5 16.5s13.167 7.5 18.5 7.5c9.33301 0 17.666 -5.66699 24.999 -17l52 -85c-30.667 -28.667 -67.667 -51.167 -111 -67.5s-88 -24.5 -134 -24.5c-80 0 -141.5 22.333 -184.5 67s-64.5 109 -64.5 193v620h-122c-10.667 0 -19.667 3.16699 -27 9.5
s-11 16.166 -11 29.499v71l166 22l41 312c2 10 6.5 18.167 13.5 24.5s16.167 9.5 27.5 9.5h90v-349h477l41 315c2 10 6.5 18.167 13.5 24.5s16.167 9.5 27.5 9.5h90v-349h680v-993zM1624 1448c50.667 0 93.499 -7.16699 128.499 -21.5s63.333 -33.833 85 -58.5
s37.167 -53.167 46.5 -85.5s14 -66.833 14 -103.5h-126c0 22 -2.33301 42.5 -7 61.5s-12.667 35.167 -24 48.5s-26.5 23.833 -45.5 31.5s-42.833 11.5 -71.5 11.5s-52.5 -3.83301 -71.5 -11.5s-34.167 -18.167 -45.5 -31.5s-19.333 -29.5 -24 -48.5s-7 -39.5 -7 -61.5h-126
c0 36.667 4.66699 71.167 14 103.5s24.833 60.833 46.5 85.5s49.834 44.167 84.501 58.5s77.667 21.5 129 21.5z" />
    <glyph glyph-name="t_t_uni0209.liga" unicode="tt&#x209;" horiz-adv-x="1861" 
d="M1710 0l-178.004 0.00292969v864h-502v-608c0 -42.667 10.5 -74.334 31.5 -95.001s47.5 -31 79.5 -31c18.667 0 34.834 2.5 48.501 7.5s25.5 10.5 35.5 16.5s18.5 11.5 25.5 16.5s13.167 7.5 18.5 7.5c10 0 18.333 -5.66699 25 -17l53 -85
c-31.333 -28.667 -68.666 -51.167 -111.999 -67.5s-88 -24.5 -134 -24.5c-79.333 0 -140.666 22.333 -183.999 67s-65 109 -65 193v620h-471v-608c0 -42.667 10.333 -74.334 31 -95.001s47.334 -31 80.001 -31c18.667 0 34.834 2.5 48.501 7.5s25.5 10.5 35.5 16.5
s18.5 11.5 25.5 16.5s13.167 7.5 18.5 7.5c9.33301 0 17.666 -5.66699 24.999 -17l52 -85c-30.667 -28.667 -67.667 -51.167 -111 -67.5s-88 -24.5 -134 -24.5c-80 0 -141.5 22.333 -184.5 67s-64.5 109 -64.5 193v620h-122c-10.667 0 -19.667 3.16699 -27 9.5
s-11 16.166 -11 29.499v71l166 22l41 312c2 10 6.5 18.167 13.5 24.5s16.167 9.5 27.5 9.5h90v-349h477l41 315c2 10 6.5 18.167 13.5 24.5s16.167 9.5 27.5 9.5h90v-349h680v-993zM1626 1449c22 0 38.667 -3.5 50 -10.5s21 -18.167 29 -33.5l138 -242h-74
c-14 0 -25.833 2 -35.5 6s-18.5 11.333 -26.5 22l-199 258h118zM1325 1449c22 0 38.167 -3.66699 48.5 -11s20.5 -18.333 30.5 -33l180 -242h-86c-13.333 0 -24.5 2.16699 -33.5 6.5s-18.167 11.5 -27.5 21.5l-242 258h130z" />
    <glyph glyph-name=".notdef" horiz-adv-x="1063" 
d="M250 1141c16.667 14.667 34.5 28.333 53.5 41s39.833 23.834 62.5 33.501s47.167 17.334 73.5 23.001s54.833 8.5 85.5 8.5c42 0 80.167 -5.83301 114.5 -17.5s63.666 -28.167 87.999 -49.5s43.333 -47.166 57 -77.499s20.5 -64.166 20.5 -101.499
c0 -36.667 -5 -68.334 -15 -95.001s-22.5 -49.834 -37.5 -69.501s-31.5 -36.667 -49.5 -51l-51 -40.5c-16 -12.667 -29.833 -25.167 -41.5 -37.5s-18.834 -26.166 -21.501 -41.499l-17 -105h-122l-12 117c-2.66699 22.667 0.333008 42.5 9 59.5s20.5 32.667 35.5 47
s31.667 28.166 50 41.499s35.5 27.666 51.5 42.999s29.333 32.666 40 51.999s16 42.333 16 69c0 34 -12.167 61 -36.5 81s-55.5 30 -93.5 30c-27.333 0 -50.333 -3 -69 -9s-34.667 -12.667 -48 -20s-24.666 -14 -33.999 -20s-17.666 -9 -24.999 -9
c-16.667 0 -29 7.33301 -37 22zM396 291.999c0 31.333 10.333 57.666 31 78.999s47 32 79 32c14.667 0 28.667 -2.83301 42 -8.5s24.833 -13.5 34.5 -23.5s17.334 -21.833 23.001 -35.5s8.5 -28.167 8.5 -43.5s-2.83301 -29.666 -8.5 -42.999s-13.334 -25 -23.001 -35
s-21.167 -17.833 -34.5 -23.5s-27.333 -8.5 -42 -8.5c-32 0 -58.333 10.5 -79 31.5s-31 47.167 -31 78.5zM45 1433h974v-1433h-974v1433zM95 53.999h867v1324h-867v-1324z" />
    <glyph glyph-name="glyph1" horiz-adv-x="0" 
 />
    <glyph glyph-name="glyph1" horiz-adv-x="0" 
 />
    <glyph glyph-name="space" unicode=" " horiz-adv-x="512" 
 />
    <glyph glyph-name="space" unicode="&#xa0;" horiz-adv-x="512" 
 />
    <glyph glyph-name="exclam" unicode="!" horiz-adv-x="538" 
d="M355 1433v-572c0 -30 -0.666992 -59.333 -2 -88s-3 -57.5 -5 -86.5s-4.5 -58.667 -7.5 -89s-6.5 -62.833 -10.5 -97.5h-120c-4 34.667 -7.5 67.167 -10.5 97.5s-5.5 60 -7.5 89s-3.66699 57.833 -5 86.5s-2 58 -2 88v572h170zM142 110
c0 17.333 3.16699 33.666 9.5 48.999s15.166 28.666 26.499 39.999s24.5 20.333 39.5 27s31.5 10 49.5 10c17.333 0 33.5 -3.33301 48.5 -10s28.167 -15.667 39.5 -27s20.333 -24.666 27 -39.999s10 -31.666 10 -48.999c0 -18 -3.33301 -34.5 -10 -49.5
s-15.667 -28.167 -27 -39.5s-24.5 -20.166 -39.5 -26.499s-31.167 -9.5 -48.5 -9.5c-18 0 -34.5 3.16699 -49.5 9.5s-28.167 15.166 -39.5 26.499s-20.166 24.5 -26.499 39.5s-9.5 31.5 -9.5 49.5z" />
    <glyph glyph-name="quotedbl" unicode="&#x22;" horiz-adv-x="741" 
d="M282 1433v-290l-16 -155c-3.33301 -21.333 -9.5 -37.833 -18.5 -49.5s-23.5 -17.5 -43.5 -17.5c-18 0 -31.833 5.83301 -41.5 17.5s-16.167 28.167 -19.5 49.5l-16 155v290h155zM615 1433v-290l-16 -155c-3.33301 -21.333 -9.5 -37.833 -18.5 -49.5
s-23.5 -17.5 -43.5 -17.5c-18 0 -31.833 5.83301 -41.5 17.5s-16.167 28.167 -19.5 49.5l-16 155v290h155z" />
    <glyph glyph-name="numbersign" unicode="#" horiz-adv-x="1160" 
d="M730 880h-247l-65 -326h247zM1108 1011l-13 -74.998c-3.33301 -19.333 -11.166 -33.5 -23.499 -42.5s-31.166 -13.5 -56.499 -13.5h-138l-65 -326h179c19.333 0 33.166 -5.5 41.499 -16.5s10.5 -30.167 6.5 -57.5l-9 -57h-237l-84 -423h-81c-8.66699 0 -16.667 2 -24 6
s-13.5 9.33301 -18.5 16s-8.5 14.667 -10.5 24s-2 19.666 0 30.999l71 346h-247l-71 -355c-4 -24.667 -13.667 -42.167 -29 -52.5s-32.666 -15.5 -51.999 -15.5h-80l85 423h-146c-18.667 0 -32.167 5.5 -40.5 16.5s-10.5 30.167 -6.5 57.5l8 57h204l65 326h-232l13 74
c3.33301 19.333 11.166 33.666 23.499 42.999s31.166 14 56.499 14h158l72 358c4 20 13.167 35.667 27.5 47s31.5 17 51.5 17h80l-84 -422h247l84 422h79c19.333 0 34.5 -6.33301 45.5 -19s14.833 -28.667 11.5 -48l-73 -355h212z" />
    <glyph glyph-name="dollar" unicode="$" horiz-adv-x="1160" 
d="M613 137c44 4 82.667 13.5 116 28.5s61.5 34.167 84.5 57.5s40.333 50.5 52 81.5s17.5 65.167 17.5 102.5c0 33.333 -6.16699 62 -18.5 86s-29.166 44.833 -50.499 62.5s-46.333 32.667 -75 45s-59.334 23.833 -92.001 34.5zM580 1293
c-43.333 -4 -80.832 -12.667 -112.499 -26s-57.834 -30 -78.501 -50s-36 -42.5 -46 -67.5s-15 -51.167 -15 -78.5c0 -32 5.66699 -59.833 17 -83.5s27 -44.5 47 -62.5s43.333 -33.667 70 -47s55.667 -25.333 87 -36zM659.001 807
c48 -15.333 95.335 -31.6709 142.002 -49.0039s88.667 -39.666 126 -66.999s67.5 -61.5 90.5 -102.5s34.5 -92.167 34.5 -153.5c0 -60 -10 -116.333 -30 -169s-49.167 -99 -87.5 -139s-85.333 -72.5 -141 -97.5s-119.167 -39.833 -190.5 -44.5l-12 -175
c-0.666992 -12.667 -5.66699 -23.834 -15 -33.501s-21 -14.5 -35 -14.5h-66l15 225c-80.667 8 -154.167 28.167 -220.5 60.5s-123.5 73.5 -171.5 123.5l54 82c5.33301 7.33301 12 13.333 20 18s16.667 7 26 7c12.667 0 27 -6.33301 43 -19s35.833 -27 59.5 -43
s51.667 -31.667 84 -47s71.166 -25.666 116.499 -30.999l36 531c-46.667 14 -92.5 29.667 -137.5 47s-85.333 40.333 -121 69s-64.334 64.334 -86.001 107.001s-32.5 96.334 -32.5 161.001c0 48.667 9.5 96.167 28.5 142.5s46.833 87.5 83.5 123.5s81.667 65.5 135 88.5
s114.333 35.833 183 38.5l10 144c0.666992 12.667 5.5 24 14.5 34s20.833 15 35.5 15h66l-13 -197c69.333 -8.66699 129.5 -26.667 180.5 -54s96.167 -60.666 135.5 -99.999l-43 -66c-13.333 -20 -28.666 -30 -45.999 -30c-9.33301 0 -20.833 4.16699 -34.5 12.5l-49 29.5
c-19 11.333 -41.333 22.333 -67 33s-54.834 18.667 -87.501 24z" />
    <glyph glyph-name="percent" unicode="%" horiz-adv-x="1603" 
d="M722 1087c0 -56 -8.66797 -106.167 -26.001 -150.5s-40.5 -81.666 -69.5 -111.999s-62.667 -53.5 -101 -69.5s-78.833 -24 -121.5 -24c-44.667 0 -86.334 8 -125.001 24s-72.167 39.167 -100.5 69.5s-50.5 67.666 -66.5 111.999s-24 94.5 -24 150.5
c0 57.333 8 108.333 24 153s38.167 82.334 66.5 113.001s61.833 54 100.5 70s80.334 24 125.001 24c45.333 0 87.333 -8 126 -24s72.334 -39.333 101.001 -70s51 -68.334 67 -113.001s24 -95.667 24 -153zM583.999 1087c0 44 -4.66699 81.333 -14 112
s-22.166 55.834 -38.499 75.501s-35.5 33.834 -57.5 42.501s-45.333 13 -70 13s-47.667 -4.33301 -69 -13s-40 -22.834 -56 -42.501s-28.667 -44.834 -38 -75.501s-14 -68 -14 -112c0 -43.333 4.66699 -80.166 14 -110.499s22 -55 38 -74s34.667 -32.667 56 -41
s44.333 -12.5 69 -12.5s48 4.16699 70 12.5s41.167 22 57.5 41s29.166 43.667 38.499 74s14 67.166 14 110.499zM1229 1403c6.66699 8 14.499 15 23.499 21s21.167 9 36.5 9h129l-1048 -1404c-6 -8.66699 -13.667 -15.667 -23 -21s-20.666 -8 -33.999 -8h-131zM1515 338
c0 -56 -8.66602 -106 -25.999 -150s-40.5 -81.167 -69.5 -111.5s-62.667 -53.5 -101 -69.5s-78.833 -24 -121.5 -24c-45.333 0 -87.166 8 -125.499 24s-71.666 39.167 -99.999 69.5s-50.5 67.5 -66.5 111.5s-24 94 -24 150c0 57.333 8 108.5 24 153.5
s38.167 82.833 66.5 113.5s61.666 54 99.999 70s80.166 24 125.499 24c44.667 0 86.5 -8 125.5 -24s72.667 -39.333 101 -70s50.666 -68.5 66.999 -113.5s24.5 -96.167 24.5 -153.5zM1377 338c0 44 -4.66699 81.5 -14 112.5s-22.166 56.167 -38.499 75.5
s-35.5 33.333 -57.5 42s-45.333 13 -70 13s-47.834 -4.33301 -69.501 -13s-40.5 -22.667 -56.5 -42s-28.5 -44.5 -37.5 -75.5s-13.5 -68.5 -13.5 -112.5c0 -43.333 4.5 -80 13.5 -110s21.5 -54.5 37.5 -73.5s34.833 -32.667 56.5 -41s44.834 -12.5 69.501 -12.5
s48 4.16699 70 12.5s41.167 22 57.5 41s29.166 43.5 38.499 73.5s14 66.667 14 110z" />
    <glyph glyph-name="ampersand" unicode="&#x26;" horiz-adv-x="1424" 
d="M483 706c-70.667 -37.333 -123.835 -82.666 -159.502 -135.999s-53.5 -111.333 -53.5 -174c0 -43.333 8 -81.5 24 -114.5s37 -60.833 63 -83.5s55.667 -39.834 89 -51.501s67.333 -17.5 102 -17.5c74.667 0 141.834 13.667 201.501 41s111.834 64 156.501 110zM1407 0
l-172.996 -0.000976562c-19.333 0 -35 2.33301 -47 7s-25 14.334 -39 29.001l-145 146c-62.667 -60.667 -134.834 -108.834 -216.501 -144.501s-171.5 -53.5 -269.5 -53.5c-53.333 0 -105.5 9 -156.5 27s-96.833 44.167 -137.5 78.5s-73.334 76.166 -98.001 125.499
s-37 105 -37 167c0 46.667 7.83301 90.834 23.5 132.501s37.5 80.167 65.5 115.5s61 67 99 95s79.667 52 125 72c-40.667 52 -70.667 102.167 -90 150.5s-29 98.5 -29 150.5c0 48.667 8.83301 94.334 26.5 137.001s43.167 79.834 76.5 111.501s73.833 56.667 121.5 75
s101.167 27.5 160.5 27.5c52.667 0 100.667 -8.5 144 -25.5s80.666 -39.5 111.999 -67.5s56.166 -60.5 74.499 -97.5s28.833 -75.5 31.5 -115.5l-111 -22c-22 -5.33301 -38.333 5 -49 31c-4.66699 17.333 -12.167 35.333 -22.5 54s-23.666 35.667 -39.999 51s-36 28 -59 38
s-49.833 15 -80.5 15c-33.333 0 -63.5 -5.33301 -90.5 -16s-50 -25.5 -69 -44.5s-33.5 -41.333 -43.5 -67s-15 -53.5 -15 -83.5c0 -23.333 2.66699 -45.666 8 -66.999s13.833 -43 25.5 -65s26.5 -44.333 44.5 -67s39.667 -46.667 65 -72l412 -419
c25.333 45.333 45.666 92.5 60.999 141.5s25.333 97.833 30 146.5c1.33301 12.667 5.33301 22.667 12 30s16 11 28 11h109c-0.666992 -76.667 -12.667 -151.834 -36 -225.501s-57 -142.834 -101 -207.501z" />
    <glyph glyph-name="quotesingle" unicode="'" horiz-adv-x="408" 
d="M282 1433v-290l-16 -155c-3.33301 -21.333 -9.5 -37.833 -18.5 -49.5s-23.5 -17.5 -43.5 -17.5c-18 0 -31.833 5.83301 -41.5 17.5s-16.167 28.167 -19.5 49.5l-16 155v290h155z" />
    <glyph glyph-name="parenleft" unicode="(" horiz-adv-x="534" 
d="M245 629c0 -142.667 18.167 -281.331 54.5 -415.998s89.5 -262.667 159.5 -384c10.667 -20.667 13.334 -36.5 8.00098 -47.5s-13 -19.833 -23 -26.5l-79 -48c-50 76.667 -92.5 152.667 -127.5 228s-63.333 151 -85 227s-37.5 152.5 -47.5 229.5s-15 156.167 -15 237.5
c0 80.667 5 159.667 15 237s25.833 153.833 47.5 229.5s50 151.167 85 226.5s77.5 151.666 127.5 228.999l79 -49c10 -6.66699 17.667 -15.5 23 -26.5s2.66602 -26.5 -8.00098 -46.5c-70 -121.333 -123.167 -249.333 -159.5 -384s-54.5 -273.334 -54.5 -416.001z" />
    <glyph glyph-name="parenright" unicode=")" horiz-adv-x="534" 
d="M289 629c0 142.667 -18.167 281.332 -54.5 415.999s-89.5 262.667 -159.5 384c-5.33301 10 -8.66602 18.833 -9.99902 26.5s-1 14.334 1 20.001s5.16699 10.667 9.5 15s9.16602 8.16602 14.499 11.499l79 49c50 -77.333 92.5 -153.666 127.5 -228.999
s63.333 -150.833 85 -226.5s37.5 -152.167 47.5 -229.5s15 -156.333 15 -237c0 -81.333 -5 -160.5 -15 -237.5s-25.833 -153.5 -47.5 -229.5s-50 -151.667 -85 -227s-77.5 -151.333 -127.5 -228l-79 48c-5.33301 3.33301 -10.166 7.16602 -14.499 11.499
s-7.5 9.33301 -9.5 15s-2.33301 12.5 -1 20.5s4.66602 17 9.99902 27c70 121.333 123.167 249.333 159.5 384s54.5 273.334 54.5 416.001z" />
    <glyph glyph-name="asterisk" unicode="*" horiz-adv-x="850" 
d="M727 1059l-44 -74.9951l-173 100c-12 7.33301 -22.667 14.666 -32 21.999s-17.666 16.666 -24.999 27.999c10.667 -22 16 -46.333 16 -73v-198h-88v197c0 13.333 0.833008 25.666 2.5 36.999s5.16699 22.333 10.5 33c-7.33301 -9.33301 -15.333 -17.666 -24 -24.999
s-18.667 -14.333 -30 -21l-172 -99l-44 75l172 100c25.333 15.333 50.666 23.333 75.999 24c-13.333 1.33301 -26.166 3.83301 -38.499 7.5s-24.833 9.5 -37.5 17.5l-173 101l44 75l173 -100c12 -7.33301 22.667 -15 32 -23s17.666 -17.667 24.999 -29
c-10.667 23.333 -16 48.333 -16 75v198h88v-197c0 -13.333 -0.833008 -25.833 -2.5 -37.5s-5.16699 -22.834 -10.5 -33.501c7.33301 9.33301 15.333 17.666 24 24.999s18.667 14.666 30 21.999l172 99l44 -75l-172 -100c-11.333 -7.33301 -22.666 -13 -33.999 -17
s-23.333 -6.66699 -36 -8c12.667 -1.33301 24.667 -3.83301 36 -7.5s22.666 -9.16699 33.999 -16.5z" />
    <glyph glyph-name="plus" unicode="+" horiz-adv-x="1160" 
d="M1060 604h-408v-430h-145v430h-406v135h406v427h145v-427h408v-135z" />
    <glyph glyph-name="comma" unicode="," horiz-adv-x="454" 
d="M130 -242c-5.33301 4.66699 -8.99902 8.99902 -10.999 12.999s-3 9 -3 15c0 4.66699 1.5 9.33398 4.5 14.001s6.5 9 10.5 13l25.5 29c10.333 12 20.833 26.167 31.5 42.5s20.5 34.333 29.5 54s15.5 40.5 19.5 62.5c-2 -0.666992 -4.16699 -1 -6.5 -1h-6.5
c-34.667 0 -62.834 11.5 -84.501 34.5s-32.5 52.5 -32.5 88.5c0 31.333 10.833 58 32.5 80s50.5 33 86.5 33c20 0 37.667 -3.66699 53 -11s28.166 -17.5 38.499 -30.5s18.166 -28 23.499 -45s8 -35.5 8 -55.5c0 -30 -4.16699 -61.167 -12.5 -93.5
s-20.666 -64.333 -36.999 -96s-36.166 -62.5 -59.499 -92.5s-50 -57.667 -80 -83z" />
    <glyph glyph-name="hyphen" unicode="-" horiz-adv-x="743" 
d="M125 675h494v-151h-494v151z" />
    <glyph glyph-name="hyphen" unicode="&#x2010;" horiz-adv-x="743" 
d="M125 675h494v-151h-494v151z" />
    <glyph glyph-name="hyphen" unicode="&#xad;" horiz-adv-x="743" 
d="M125 675h494v-151h-494v151z" />
    <glyph glyph-name="period" unicode="." horiz-adv-x="472" 
d="M111 110c0 17.333 3.16699 33.666 9.5 48.999s15 28.666 26 39.999s24.167 20.333 39.5 27s31.666 10 48.999 10s33.666 -3.33301 48.999 -10s28.666 -15.667 39.999 -27s20.333 -24.666 27 -39.999s10 -31.666 10 -48.999c0 -18 -3.33301 -34.5 -10 -49.5
s-15.667 -28.167 -27 -39.5s-24.666 -20.166 -39.999 -26.499s-31.666 -9.5 -48.999 -9.5s-33.666 3.16699 -48.999 9.5s-28.5 15.166 -39.5 26.499s-19.667 24.5 -26 39.5s-9.5 31.5 -9.5 49.5z" />
    <glyph glyph-name="slash" unicode="/" horiz-adv-x="904" 
d="M239 -21c-8.66699 -23.333 -22.167 -40.666 -40.5 -51.999s-37.166 -17 -56.499 -17h-75l601 1497c8 21.333 20.167 37.666 36.5 48.999s35.166 17 56.499 17h76z" />
    <glyph glyph-name="zero" unicode="0" horiz-adv-x="1160" 
d="M1100 716c0 -125.333 -13.5 -233.833 -40.5 -325.5s-63.833 -167.5 -110.5 -227.5s-101.834 -104.667 -165.501 -134s-131.834 -44 -204.501 -44c-73.333 0 -141.5 14.667 -204.5 44s-117.833 74 -164.5 134s-83.334 135.833 -110.001 227.5s-40 200.167 -40 325.5
s13.333 234 40 326s63.334 168.167 110.001 228.5s101.5 105.166 164.5 134.499s131.167 44 204.5 44c72.667 0 140.834 -14.667 204.501 -44s118.834 -74.166 165.501 -134.499s83.5 -136.5 110.5 -228.5s40.5 -200.667 40.5 -326zM915 716
c0 109.333 -9.16699 201.166 -27.5 275.499s-43 134.166 -74 179.499s-66.833 77.833 -107.5 97.5s-83 29.5 -127 29.5s-86.333 -9.83301 -127 -29.5s-76.334 -52.167 -107.001 -97.5s-55.167 -105.166 -73.5 -179.499s-27.5 -166.166 -27.5 -275.499
s9.16699 -201 27.5 -275s42.833 -133.667 73.5 -179s66.334 -77.833 107.001 -97.5s83 -29.5 127 -29.5s86.333 9.83301 127 29.5s76.5 52.167 107.5 97.5s55.667 105 74 179s27.5 165.667 27.5 275z" />
    <glyph glyph-name="one" unicode="1" horiz-adv-x="1160" 
d="M1018 136l-0.000976562 -135.999h-768v136h307v977c0 29.333 1 59 3 89l-255 -219c-8.66699 -7.33301 -17.334 -11.833 -26.001 -13.5s-16.667 -1.83398 -24 -0.500977s-14.166 4 -20.499 8s-11.166 8.33301 -14.499 13l-56 77l427 369h145v-1300h282z" />
    <glyph glyph-name="two" unicode="2" horiz-adv-x="1160" 
d="M987 169c19.333 0 34.6699 -5.66699 46.0029 -17s17 -26 17 -44v-108h-956v61c0 12.667 2.66699 25.667 8 39s13.666 25.666 24.999 36.999l459 461c38 38.667 72.667 75.834 104 111.501s58 71.5 80 107.5s39 72.5 51 109.5s18 76.5 18 118.5s-6.66699 78.833 -20 110.5
s-31.5 57.834 -54.5 78.501s-50.167 36.167 -81.5 46.5s-65 15.5 -101 15.5c-36.667 0 -70.334 -5.33301 -101.001 -16s-57.834 -25.5 -81.501 -44.5s-43.5 -41.5 -59.5 -67.5s-27.333 -54.667 -34 -86c-8 -23.333 -18.833 -38.833 -32.5 -46.5
s-32.834 -9.83398 -57.501 -6.50098l-93 16c9.33301 65.333 27.5 123.166 54.5 173.499s61 92.5 102 126.5s87.833 59.833 140.5 77.5s109.667 26.5 171 26.5c60.667 0 117.334 -9 170.001 -27s98.334 -44.167 137.001 -78.5s69 -76.166 91 -125.499s33 -105.333 33 -168
c0 -53.333 -8 -102.833 -24 -148.5s-37.667 -89.167 -65 -130.5s-58.833 -81.666 -94.5 -120.999s-73.5 -79 -113.5 -119l-378 -386c26.667 7.33301 53.667 13.166 81 17.499s53.666 6.5 78.999 6.5h480z" />
    <glyph glyph-name="three" unicode="3" horiz-adv-x="1160" 
d="M130 1045c9.33301 65.333 27.3359 123.168 54.0029 173.501s60.5 92.5 101.5 126.5s88 59.833 141 77.5s110.167 26.5 171.5 26.5c60.667 0 116.667 -8.66699 168 -26s95.5 -42 132.5 -74s65.833 -70.667 86.5 -116s31 -95.666 31 -150.999
c0 -45.333 -5.83301 -85.833 -17.5 -121.5s-28.334 -66.834 -50.001 -93.501s-47.834 -49.334 -78.501 -68.001s-65 -34 -103 -46c93.333 -24 163.5 -65.167 210.5 -123.5s70.5 -131.166 70.5 -218.499c0 -66 -12.5 -125.333 -37.5 -178s-59.167 -97.5 -102.5 -134.5
s-93.833 -65.333 -151.5 -85s-119.5 -29.5 -185.5 -29.5c-76 0 -141 9.5 -195 28.5s-99.667 45.167 -137 78.5s-68 72.833 -92 118.5s-44.333 95.167 -61 148.5l77 32c20 8.66699 39.5 11 58.5 7s32.833 -15 41.5 -33l32.5 -67c13 -26 30.833 -51 53.5 -75
s51.5 -44.333 86.5 -61s79.5 -25 133.5 -25c50 0 93.833 8.16699 131.5 24.5s69 37.5 94 63.5s43.833 55 56.5 87s19 63.667 19 95c0 38.667 -5 74 -15 106s-28.667 59.667 -56 83s-64.833 41.666 -112.5 54.999s-108.834 20 -183.501 20v129
c61.333 0.666992 113.5 7.33398 156.5 20.001s78 30 105 52s46.667 48.333 59 79s18.5 64.667 18.5 102c0 41.333 -6.5 77.333 -19.5 108s-30.833 56 -53.5 76s-49.5 35 -80.5 45s-64.5 15 -100.5 15s-69.5 -5.33301 -100.5 -16s-58.333 -25.5 -82 -44.5
s-43.5 -41.5 -59.5 -67.5s-27.333 -54.667 -34 -86c-8.66699 -23.333 -19.5 -38.833 -32.5 -46.5s-31.833 -9.83398 -56.5 -6.50098z" />
    <glyph glyph-name="four" unicode="4" horiz-adv-x="1160" 
d="M730 517v591c0 17.333 0.666992 36.333 2 57s3.33301 41.667 6 63l-522 -711h514zM1103 517v-102c0 -10.667 -3.16699 -19.667 -9.5 -27s-16.166 -11 -29.499 -11h-178v-377h-156v377h-636c-13.333 0 -24.833 3.83301 -34.5 11.5s-15.834 17.167 -18.501 28.5l-18 91
l697 925h166v-916h217z" />
    <glyph glyph-name="five" unicode="5" horiz-adv-x="1160" 
d="M362 892c74.667 16 143.335 24.001 206.002 24.001c74.667 0 140.667 -11 198 -33s105.166 -52.333 143.499 -91s67.333 -84.334 87 -137.001s29.5 -110 29.5 -172c0 -76 -13.167 -144.667 -39.5 -206s-62.666 -113.833 -108.999 -157.5s-100.833 -77.167 -163.5 -100.5
s-130.334 -35 -203.001 -35c-42 0 -82.333 4.16699 -121 12.5s-74.834 19.5 -108.501 33.5s-64.834 30 -93.501 48s-54 37 -76 57l55 76c12 17.333 27.667 26 47 26c13.333 0 28.333 -5.16699 45 -15.5s37 -21.833 61 -34.5s52.167 -24.167 84.5 -34.5
s70.833 -15.5 115.5 -15.5c50 0 95 8 135 24s74.333 38.833 103 68.5s50.667 65.167 66 106.5s23 87.666 23 138.999c0 44.667 -6.5 85 -19.5 121s-32.667 66.667 -59 92s-59.166 45 -98.499 59s-85.333 21 -138 21c-36 0 -73.5 -3 -112.5 -9s-78.833 -15.667 -119.5 -29
l-112 33l115 670h679v-78c0 -25.333 -7.83301 -46.166 -23.5 -62.499s-42.5 -24.5 -80.5 -24.5h-450z" />
    <glyph glyph-name="six" unicode="6" horiz-adv-x="1160" 
d="M578 132c48 0 91.5 7.66699 130.5 23s72.333 36.666 100 63.999s49 59.666 64 96.999s22.5 78 22.5 122c0 46.667 -7.33301 88.834 -22 126.501s-35.5 69.667 -62.5 96s-59.167 46.5 -96.5 60.5s-78.333 21 -123 21c-48 0 -91.333 -8.16699 -130 -24.5
s-71.5 -38.333 -98.5 -66s-47.667 -59.667 -62 -96s-21.5 -74.166 -21.5 -113.499c0 -46 6.66699 -88 20 -126s32.833 -70.667 58.5 -98s57 -48.5 94 -63.5s79.167 -22.5 126.5 -22.5zM474 896l-36.498 -46.499l-33.5 -44.5c34 23.333 71.333 41.333 112 54s85 19 133 19
c58 0 112.667 -9.5 164 -28.5s96.166 -46.667 134.499 -83s68.833 -81 91.5 -134s34 -113.5 34 -181.5c0 -66 -12 -127.333 -36 -184s-57.5 -106 -100.5 -148s-94.667 -75 -155 -99s-126.833 -36 -199.5 -36c-72 0 -137.333 11.5 -196 34.5s-108.5 55.667 -149.5 98
s-72.667 93.666 -95 153.999s-33.5 127.833 -33.5 202.5c0 62.667 13.833 129.5 41.5 200.5s71.834 146.833 132.501 227.5l364 489c9.33301 12 22.166 22.167 38.499 30.5s35.166 12.5 56.499 12.5h158z" />
    <glyph glyph-name="seven" unicode="7" horiz-adv-x="1160" 
d="M1081 1433l-0.000976562 -80c0 -22.667 -2.5 -41.334 -7.5 -56.001s-9.83301 -27 -14.5 -37l-594 -1197c-8.66699 -17.333 -20.667 -32.166 -36 -44.499s-35.666 -18.5 -60.999 -18.5h-128l602 1182c8.66699 16.667 17.667 32 27 46s19.333 27.333 30 40h-748
c-11.333 0 -21.333 4.5 -30 13.5s-13 19.167 -13 30.5v121h973z" />
    <glyph glyph-name="eight" unicode="8" horiz-adv-x="1160" 
d="M580 126c46.667 0 88.498 6.5 125.498 19.5s68.333 31.333 94 55s45.334 52 59.001 85s20.5 69.5 20.5 109.5c0 49.333 -8.16699 91.5 -24.5 126.5s-38.333 63.5 -66 85.5s-59.5 38.167 -95.5 48.5s-73.667 15.5 -113 15.5s-77 -5.16699 -113 -15.5
s-67.833 -26.5 -95.5 -48.5s-49.667 -50.5 -66 -85.5s-24.5 -77.167 -24.5 -126.5c0 -40 6.83301 -76.5 20.5 -109.5s33.334 -61.333 59.001 -85s57 -42 94 -55s78.833 -19.5 125.5 -19.5zM579.998 1311c-42.667 0 -80.167 -6.33301 -112.5 -19s-59.333 -30 -81 -52
s-38 -47.667 -49 -77s-16.5 -60.666 -16.5 -93.999c0 -32.667 4.66699 -64.334 14 -95.001s24.333 -57.834 45 -81.501s47.5 -42.667 80.5 -57s72.833 -21.5 119.5 -21.5s86.5 7.16699 119.5 21.5s59.833 33.333 80.5 57s35.667 50.834 45 81.501s14 62.334 14 95.001
c0 33.333 -5.5 64.666 -16.5 93.999s-27.333 55 -49 77s-48.667 39.333 -81 52s-69.833 19 -112.5 19zM784.998 747c89.333 -25.333 157.995 -67.666 205.995 -126.999s72 -135.333 72 -228c0 -62.667 -11.833 -119.167 -35.5 -169.5s-56.667 -93.166 -99 -128.499
s-93.166 -62.5 -152.499 -81.5s-124.666 -28.5 -195.999 -28.5s-136.666 9.5 -195.999 28.5s-110.333 46.167 -153 81.5s-75.667 78.166 -99 128.499s-35 106.833 -35 169.5c0 92.667 24 168.667 72 228s116.667 101.666 206 126.999
c-75.333 28 -132.166 69.833 -170.499 125.5s-57.5 122.167 -57.5 199.5c0 52.667 10.333 102 31 148s50 86 88 120s83.5 60.667 136.5 80s112.167 29 177.5 29c64.667 0 123.667 -9.66699 177 -29s99 -46 137 -80s67.333 -74 88 -120s31 -95.333 31 -148
c0 -77.333 -19.167 -143.833 -57.5 -199.5s-95.166 -97.5 -170.499 -125.5z" />
    <glyph glyph-name="nine" unicode="9" horiz-adv-x="1160" 
d="M283 1012c0 -45.333 6.5 -85.832 19.5 -121.499s31.667 -65.834 56 -90.501s54 -43.334 89 -56.001s74.167 -19 117.5 -19c48 0 90.5 7.83301 127.5 23.5s68.167 36.5 93.5 62.5s44.666 56 57.999 90s20 69.333 20 106c0 44.667 -7.16699 85.167 -21.5 121.5
s-34.166 67.166 -59.499 92.499s-55.5 44.833 -90.5 58.5s-73.5 20.5 -115.5 20.5c-44 0 -84 -7.16699 -120 -21.5s-67 -34.166 -93 -59.499s-46 -55.666 -60 -90.999s-21 -74 -21 -116zM699 571.001l41.001 55.002c12.667 17.333 24.667 34.666 36 51.999
c-36.667 -29.333 -78 -51.666 -124 -66.999s-94.667 -23 -146 -23c-54 0 -105.167 9 -153.5 27s-90.833 44.5 -127.5 79.5s-65.834 78 -87.501 129s-32.5 109.5 -32.5 175.5c0 62.667 11.667 121.334 35 176.001s56 102.334 98 143.001s92 72.667 150 96s121.667 35 191 35
c68.667 0 131 -11.333 187 -34s104 -54.334 144 -95.001s70.833 -89.334 92.5 -146.001s32.5 -119.334 32.5 -188.001c0 -41.333 -3.83301 -80.5 -11.5 -117.5s-18.667 -73.333 -33 -109s-31.833 -71 -52.5 -106s-44 -70.833 -70 -107.5l-349 -504
c-8.66699 -12.667 -21 -22.834 -37 -30.501s-34.333 -11.5 -55 -11.5h-164z" />
    <glyph glyph-name="colon" unicode=":" horiz-adv-x="500" 
d="M125 110c0 17.333 3.16699 33.666 9.5 48.999s15 28.666 26 39.999s24.167 20.333 39.5 27s31.666 10 48.999 10s33.666 -3.33301 48.999 -10s28.666 -15.667 39.999 -27s20.333 -24.666 27 -39.999s10 -31.666 10 -48.999c0 -18 -3.33301 -34.5 -10 -49.5
s-15.667 -28.167 -27 -39.5s-24.666 -20.166 -39.999 -26.499s-31.666 -9.5 -48.999 -9.5s-33.666 3.16699 -48.999 9.5s-28.5 15.166 -39.5 26.499s-19.667 24.5 -26 39.5s-9.5 31.5 -9.5 49.5zM125 860c0 17.333 3.16699 33.666 9.5 48.999s15 28.666 26 39.999
s24.167 20.333 39.5 27s31.666 10 48.999 10s33.666 -3.33301 48.999 -10s28.666 -15.667 39.999 -27s20.333 -24.666 27 -39.999s10 -31.666 10 -48.999c0 -18 -3.33301 -34.5 -10 -49.5s-15.667 -28.167 -27 -39.5s-24.666 -20.166 -39.999 -26.499
s-31.666 -9.5 -48.999 -9.5s-33.666 3.16699 -48.999 9.5s-28.5 15.166 -39.5 26.499s-19.667 24.5 -26 39.5s-9.5 31.5 -9.5 49.5z" />
    <glyph glyph-name="semicolon" unicode=";" horiz-adv-x="523" 
d="M164 -242c-5.33301 4.66699 -8.99902 8.99902 -10.999 12.999s-3 9 -3 15c0 4.66699 1.5 9.33398 4.5 14.001s6.5 9 10.5 13l25.5 29c10.333 12 20.833 26.167 31.5 42.5s20.5 34.333 29.5 54s15.5 40.5 19.5 62.5c-2 -0.666992 -4.16699 -1 -6.5 -1h-6.5
c-34.667 0 -62.834 11.5 -84.501 34.5s-32.5 52.5 -32.5 88.5c0 31.333 10.833 58 32.5 80s50.5 33 86.5 33c20 0 37.667 -3.66699 53 -11s28.166 -17.5 38.499 -30.5s18.166 -28 23.499 -45s8 -35.5 8 -55.5c0 -30 -4.16699 -61.167 -12.5 -93.5
s-20.666 -64.333 -36.999 -96s-36.166 -62.5 -59.499 -92.5s-50 -57.667 -80 -83zM136.001 859.999c0 17.333 3.16699 33.666 9.5 48.999s15 28.666 26 39.999s24.167 20.333 39.5 27s31.666 10 48.999 10s33.666 -3.33301 48.999 -10s28.666 -15.667 39.999 -27
s20.333 -24.666 27 -39.999s10 -31.666 10 -48.999c0 -18 -3.33301 -34.5 -10 -49.5s-15.667 -28.167 -27 -39.5s-24.666 -20.166 -39.999 -26.499s-31.666 -9.5 -48.999 -9.5s-33.666 3.16699 -48.999 9.5s-28.5 15.166 -39.5 26.499s-19.667 24.5 -26 39.5
s-9.5 31.5 -9.5 49.5z" />
    <glyph glyph-name="less" unicode="&#x3c;" horiz-adv-x="1160" 
d="M450 704c-13.333 -6.66699 -27.5 -12.667 -42.5 -18s-31.167 -9.66602 -48.5 -12.999c17.333 -4 33.5 -8.5 48.5 -13.5s29.167 -11.167 42.5 -18.5l449 -227c13.333 -6.66699 22.666 -14.334 27.999 -23.001s8 -18.334 8 -29.001v-128l-773 402v74l773 401v-127
c0 -11.333 -2.66699 -21.166 -8 -29.499s-14.666 -15.833 -27.999 -22.5z" />
    <glyph glyph-name="equal" unicode="=" horiz-adv-x="1160" 
d="M150 574h860v-135h-860v135zM150 909h860v-135h-860v135z" />
    <glyph glyph-name="greater" unicode="&#x3e;" horiz-adv-x="1160" 
d="M998 710v-74l-773 -402v128c0 10.667 2.66699 20.334 8 29.001s14.666 16.334 27.999 23.001l449 227c13.333 7.33301 27.5 13.5 42.5 18.5s30.833 9.5 47.5 13.5c-34 7.33301 -64 17.666 -90 30.999l-449 228c-13.333 6.66699 -22.666 14.167 -27.999 22.5
s-8 18.166 -8 29.499v127z" />
    <glyph glyph-name="question" unicode="?" horiz-adv-x="895" 
d="M81 1305c20.667 19.333 43.4971 37.6709 68.4971 55.0039s52.333 32.666 82 45.999s61.667 23.833 96 31.5s71.5 11.5 111.5 11.5c52.667 0 101.5 -7.66699 146.5 -23s83.833 -37 116.5 -65s58.334 -62 77.001 -102s28 -85 28 -135
c0 -50.667 -7.5 -94.334 -22.5 -131.001s-34 -68.834 -57 -96.501s-48 -51.667 -75 -72l-76.5 -57.5c-24 -18 -44.5 -36 -61.5 -54s-26.833 -38 -29.5 -60l-18 -153h-122l-12 166c-2.66699 30 3 56.167 17 78.5s32.333 43.333 55 63s47.667 39 75 58
s52.833 40.167 76.5 63.5s43.5 49.833 59.5 79.5s24 65.167 24 106.5c0 28.667 -5.66699 54.667 -17 78s-26.666 43.166 -45.999 59.499s-42.166 28.833 -68.499 37.5s-54.5 13 -84.5 13c-40.667 0 -75.5 -5 -104.5 -15s-53.5 -21 -73.5 -33s-36.167 -23 -48.5 -33
s-22.5 -15 -30.5 -15c-16.667 0 -29.667 7.66699 -39 23zM275.997 110.005c0 17.333 3.16699 33.666 9.5 48.999s15 28.666 26 39.999s24.167 20.333 39.5 27s31.666 10 48.999 10s33.666 -3.33301 48.999 -10s28.666 -15.667 39.999 -27s20.333 -24.666 27 -39.999
s10 -31.666 10 -48.999c0 -18 -3.33301 -34.5 -10 -49.5s-15.667 -28.167 -27 -39.5s-24.666 -20.166 -39.999 -26.499s-31.666 -9.5 -48.999 -9.5s-33.666 3.16699 -48.999 9.5s-28.5 15.166 -39.5 26.499s-19.667 24.5 -26 39.5s-9.5 31.5 -9.5 49.5z" />
    <glyph glyph-name="at" unicode="@" horiz-adv-x="1673" 
d="M1055 822c-26 6 -54.668 8.99805 -86.001 8.99805c-50 0 -95.833 -10.5 -137.5 -31.5s-77.5 -48.5 -107.5 -82.5s-53.5 -73 -70.5 -117s-25.5 -89 -25.5 -135c0 -48 11 -86.5 33 -115.5s54.667 -43.5 98 -43.5c20.667 0 41.5 3.33301 62.5 10s41.333 18.334 61 35.001
s37.834 39.334 54.501 68.001s30.667 64.667 42 108zM1117 542.998c-13.333 -50.667 -19.666 -91.8291 -18.999 -123.496s5.83398 -56.5 15.501 -74.5s23.167 -30.167 40.5 -36.5s36.333 -9.5 57 -9.5c32.667 0 63.667 9.33301 93 28s55.166 45 77.499 79
s40 74.833 53 122.5s19.5 100.5 19.5 158.5c0 92 -14.667 172.667 -44 242s-69.833 127.166 -121.5 173.499s-112.667 81 -183 104s-146.166 34.5 -227.499 34.5c-89.333 0 -173 -17 -251 -51s-146 -81 -204 -141s-103.833 -131 -137.5 -213s-50.5 -171.333 -50.5 -268
c0 -113.333 17.833 -212.833 53.5 -298.5s84.334 -157.5 146.001 -215.5s134.167 -101.667 217.5 -131s172.666 -44 267.999 -44c101.333 0 190.833 11 268.5 33s144.834 50 201.501 84c13.333 8 25 10.5 35 7.5s17.333 -10.5 22 -22.5l26 -66
c-72 -48 -153.5 -85.667 -244.5 -113s-193.833 -41 -308.5 -41c-116 0 -223.667 18.333 -323 55s-185.5 89.5 -258.5 158.5s-130.333 153.5 -172 253.5s-62.5 213.333 -62.5 340c0 72.667 9.16699 142.667 27.5 210s44.166 130.166 77.499 188.499
s73.333 111.666 120 159.999s98.667 89.666 156 123.999s119.166 61 185.499 80s135.5 28.5 207.5 28.5c61.333 0 121.333 -6.66699 180 -20s114.167 -33 166.5 -59s100.333 -58.167 144 -96.5s81.5 -82.333 113.5 -132s56.833 -105 74.5 -166s26.5 -127.167 26.5 -198.5
c0 -72 -10.167 -138.5 -30.5 -199.5s-48.333 -113.833 -84 -158.5s-77.834 -79.667 -126.501 -105s-101 -38 -157 -38c-50.667 0 -92.5 12.5 -125.5 37.5s-54.167 63.167 -63.5 114.5c-38 -53.333 -79.667 -91.666 -125 -114.999s-94.333 -35 -147 -35
c-39.333 0 -73.833 6.83301 -103.5 20.5s-54.167 32.667 -73.5 57s-33.833 53.166 -43.5 86.499s-14.5 69.333 -14.5 108c0 56.667 10.833 113.834 32.5 171.501s53.834 109.667 96.501 156s95.667 84.166 159 113.499s136.666 44 219.999 44c44.667 0 84 -3.5 118 -10.5
s66 -17.167 96 -30.5z" />
    <glyph glyph-name="A" unicode="A" horiz-adv-x="1354" 
d="M944 532l-225 583c-6.66699 17.333 -13.667 37.5 -21 60.5s-14.333 47.5 -21 73.5c-14 -54 -28.333 -99 -43 -135l-225 -582h535zM1348 0h-150c-17.333 -0 -31.333 4.33301 -42 13s-18.667 19.667 -24 33l-134 346h-643l-134 -346c-4 -12 -11.667 -22.667 -23 -32
s-25.333 -14 -42 -14h-150l573 1433h196z" />
    <glyph glyph-name="B" unicode="B" horiz-adv-x="1293" 
d="M686 154c55.333 0 103 6.33301 143 19s72.833 30.5 98.5 53.5s44.5 50.333 56.5 82s18 66.5 18 104.5c0 74 -26.333 132.5 -79 175.5s-131.667 64.5 -237 64.5h-310v-499h310zM376 1280l0.00195312 -488.999h256c54.667 0 102.167 6 142.5 18s73.666 28.667 99.999 50
s45.833 47.166 58.5 77.499s19 63.5 19 99.5c0 84.667 -25.333 146.5 -76 185.5s-129.334 58.5 -236.001 58.5h-264zM640.002 1433c88 0 163.833 -8.66797 227.5 -26.001s116 -42 157 -74s71.167 -71.167 90.5 -117.5s29 -98.5 29 -156.5
c0 -35.333 -5.5 -69.166 -16.5 -101.499s-27.5 -62.5 -49.5 -90.5s-49.833 -53.167 -83.5 -75.5s-73.167 -40.5 -118.5 -54.5c105.333 -20 184.5 -57.5 237.5 -112.5s79.5 -127.167 79.5 -216.5c0 -60.667 -11.167 -116 -33.5 -166s-55 -93 -98 -129
s-95.833 -63.833 -158.5 -83.5s-134 -29.5 -214 -29.5h-506v1433h457z" />
    <glyph glyph-name="C" unicode="C" horiz-adv-x="1336" 
d="M1189 296c10.667 0 20.0029 -4.33398 28.0029 -13.001l77 -83c-58.667 -68 -129.834 -121 -213.501 -159s-184.834 -57 -303.501 -57c-102.667 0 -196 17.833 -280 53.5s-155.667 85.667 -215 150s-105.333 141.5 -138 231.5s-49 189 -49 297s17 207 51 297
s81.833 167.333 143.5 232s135.5 114.834 221.5 150.501s181 53.5 285 53.5c102 0 192 -16.333 270 -49s146.667 -77 206 -133l-64 -89c-4 -6.66699 -9.16699 -12.167 -15.5 -16.5s-14.833 -6.5 -25.5 -6.5c-12 0 -26.667 6.5 -44 19.5s-40 27.5 -68 43.5
s-63 30.5 -105 43.5s-93.667 19.5 -155 19.5c-74 0 -141.667 -12.833 -203 -38.5s-114.166 -62.834 -158.499 -111.501s-78.833 -108 -103.5 -178s-37 -149 -37 -237c0 -89.333 12.833 -169 38.5 -239s60.667 -129.167 105 -177.5s96.666 -85.166 156.999 -110.499
s125.5 -38 195.5 -38c42.667 0 81.167 2.5 115.5 7.5s66 12.833 95 23.5s56 24.167 81 40.5s49.833 35.833 74.5 58.5c11.333 10 22.666 15 33.999 15z" />
    <glyph glyph-name="D" unicode="D" horiz-adv-x="1521" 
d="M1425 716c0 -107.333 -17 -205 -51 -293s-82 -163.333 -144 -226s-136.5 -111.167 -223.5 -145.5s-183.167 -51.5 -288.5 -51.5h-535v1433h535c105.333 0 201.5 -17.167 288.5 -51.5s161.5 -83 223.5 -146s110 -138.5 144 -226.5s51 -185.667 51 -293zM1226 716
c0 88 -12 166.667 -36 236s-58 128 -102 176s-97.333 84.667 -160 110s-132.667 38 -210 38h-341v-1119h341c77.333 0 147.333 12.667 210 38s116 61.833 160 109.5s78 106.167 102 175.5s36 148 36 236z" />
    <glyph glyph-name="E" unicode="E" horiz-adv-x="1155" 
d="M1067 158l-1 -158h-883v1433h883v-158h-689v-476h558v-152h-558v-489h690z" />
    <glyph glyph-name="F" unicode="F" horiz-adv-x="1131" 
d="M377 1275v-501h589v-158h-589v-616h-194v1433h883v-158h-689z" />
    <glyph glyph-name="G" unicode="G" horiz-adv-x="1461" 
d="M1347 689l0.00292969 -549.996c-72 -52 -148.833 -90.833 -230.5 -116.5s-171.167 -38.5 -268.5 -38.5c-115.333 0 -219.333 17.833 -312 53.5s-171.834 85.667 -237.501 150s-116.167 141.5 -151.5 231.5s-53 189 -53 297c0 109.333 17.167 209 51.5 299
s83.166 167.167 146.499 231.5s140.333 114.166 231 149.499s192 53 304 53c56.667 0 109.334 -4.16699 158.001 -12.5s93.667 -20.333 135 -36s79.666 -34.667 114.999 -57s68.333 -47.5 99 -75.5l-55 -88c-8.66699 -13.333 -19.834 -21.833 -33.501 -25.5
s-28.834 -0.5 -45.501 9.5c-16 9.33301 -34.333 20.666 -55 33.999s-45.834 26.166 -75.501 38.499s-64.667 22.833 -105 31.5s-88.166 13 -143.499 13c-80.667 0 -153.667 -13.167 -219 -39.5s-121 -64 -167 -113s-81.333 -108.333 -106 -178s-37 -147.834 -37 -234.501
c0 -90 12.833 -170.5 38.5 -241.5s62.334 -131.333 110.001 -181s105.5 -87.5 173.5 -113.5s144.333 -39 229 -39c66.667 0 125.834 7.5 177.501 22.5s102.167 35.833 151.5 62.5v315h-223c-12.667 0 -22.834 3.66699 -30.501 11s-11.5 16.333 -11.5 27v110h440z" />
    <glyph glyph-name="H" unicode="H" horiz-adv-x="1527" 
d="M1344 1433v-1433h-194v652h-773v-652h-194v1433h194v-639h773v639h194z" />
    <glyph glyph-name="I" unicode="I" horiz-adv-x="560" 
d="M377 0h-194v1433h194v-1433z" />
    <glyph glyph-name="J" unicode="J" horiz-adv-x="845" 
d="M677 495c0 -80 -9.83203 -151.667 -29.499 -215s-48.667 -116.833 -87 -160.5s-85.5 -77.167 -141.5 -100.5s-120.333 -35 -193 -35c-66 0 -133.333 9.33301 -202 28c1.33301 19.333 3 38.5 5 57.5s3.66699 37.833 5 56.5c1.33301 11.333 5.5 20.5 12.5 27.5
s17.833 10.5 32.5 10.5c12 0 27.833 -3 47.5 -9s46.167 -9 79.5 -9c44 0 83.333 6.66699 118 20s63.667 34 87 62s41.166 63.833 53.499 107.5s18.5 95.5 18.5 155.5v942h194v-938z" />
    <glyph glyph-name="K" unicode="K" horiz-adv-x="1325" 
d="M376 805l72.998 0.000976562c25.333 0 45.666 3.16699 60.999 9.5s29.333 17.166 42 32.499l477 540c13.333 17.333 27.333 29.333 42 36s32.667 10 54 10h164l-546 -617c-13.333 -16 -26.166 -29.167 -38.499 -39.5s-25.5 -18.833 -39.5 -25.5
c18 -6 34.333 -14.833 49 -26.5s29 -26.834 43 -45.501l570 -679h-168c-12.667 0 -23.5 0.833008 -32.5 2.5s-16.833 4.33398 -23.5 8.00098s-12.5 8 -17.5 13s-9.83301 10.833 -14.5 17.5l-494 569c-13.333 16.667 -27.666 28.5 -42.999 35.5s-38.666 10.5 -69.999 10.5
h-88v-656h-193v1433h193v-628z" />
    <glyph glyph-name="L" unicode="L" horiz-adv-x="1027" 
d="M996 163v-163h-813v1433h193v-1270h620z" />
    <glyph glyph-name="M" unicode="M" horiz-adv-x="1857" 
d="M1674 1433l-0.00195312 -1433h-170v1053c0 14 0.5 29 1.5 45s2.16699 32.333 3.5 49l-492 -896c-15.333 -30 -38.666 -45 -69.999 -45h-28c-31.333 0 -54.666 15 -69.999 45l-502 900c4 -35.333 6 -68 6 -98v-1053h-170v1433h143c17.333 0 30.666 -1.66699 39.999 -5
s18.333 -12.666 27 -27.999l495 -882c8 -16 15.833 -32.667 23.5 -50s14.834 -35 21.501 -53c6.66699 18 13.667 35.833 21 53.5s15.333 34.5 24 50.5l486 881c8 15.333 16.833 24.666 26.5 27.999s23.167 5 40.5 5h143z" />
    <glyph glyph-name="N" unicode="N" horiz-adv-x="1527" 
d="M1344 1433l-0.00195312 -1433h-97c-15.333 0 -28.166 2.66699 -38.499 8s-20.5 14.333 -30.5 27l-829 1080c1.33301 -16.667 2.33301 -33 3 -49s1 -31 1 -45v-1021h-170v1433h100c8.66699 0 16 -0.5 22 -1.5s11.333 -2.66699 16 -5s9.33398 -5.66602 14.001 -9.99902
s9.66699 -9.83301 15 -16.5l829 -1079c-1.33301 17.333 -2.5 34.166 -3.5 50.499s-1.5 31.833 -1.5 46.5v1015h170z" />
    <glyph glyph-name="O" unicode="O" horiz-adv-x="1601" 
d="M1507 716c0 -107.333 -17 -205.833 -51 -295.5s-82 -166.834 -144 -231.501s-136.5 -114.834 -223.5 -150.501s-183.167 -53.5 -288.5 -53.5s-201.333 17.833 -288 53.5s-161 85.834 -223 150.501s-110 141.834 -144 231.501s-51 188.167 -51 295.5s17 205.833 51 295.5
s82 167 144 232s136.333 115.5 223 151.5s182.667 54 288 54s201.5 -18 288.5 -54s161.5 -86.5 223.5 -151.5s110 -142.333 144 -232s51 -188.167 51 -295.5zM1308 716c0 88 -12 167 -36 237s-58 129.167 -102 177.5s-97.333 85.5 -160 111.5s-132.667 39 -210 39
c-76.667 0 -146.334 -13 -209.001 -39s-116.167 -63.167 -160.5 -111.5s-78.5 -107.5 -102.5 -177.5s-36 -149 -36 -237s12 -166.833 36 -236.5s58.167 -128.667 102.5 -177s97.833 -85.333 160.5 -111s132.334 -38.5 209.001 -38.5c77.333 0 147.333 12.833 210 38.5
s116 62.667 160 111s78 107.333 102 177s36 148.5 36 236.5z" />
    <glyph glyph-name="P" unicode="P" horiz-adv-x="1201" 
d="M606 690c55.333 0 104.167 7.33398 146.5 22.001s78 35.167 107 61.5s50.833 57.833 65.5 94.5s22 77 22 121c0 91.333 -28.167 162.666 -84.5 213.999s-141.833 77 -256.5 77h-230v-590h230zM606.001 1433c90.667 0 169.5 -10.499 236.5 -31.499
s122.5 -50.833 166.5 -89.5s76.833 -85.334 98.5 -140.001s32.5 -115.667 32.5 -183c0 -66.667 -11.667 -127.667 -35 -183s-57.5 -103 -102.5 -143s-100.667 -71.167 -167 -93.5s-142.833 -33.5 -229.5 -33.5h-230v-536h-193v1433h423z" />
    <glyph glyph-name="Q" unicode="Q" horiz-adv-x="1601" 
d="M293 716c0 -88 12 -166.833 36 -236.5s58.167 -128.667 102.5 -177s97.833 -85.333 160.5 -111s132.334 -38.5 209.001 -38.5c77.333 0 147.333 12.833 210 38.5s116 62.667 160 111s78 107.333 102 177s36 148.5 36 236.5s-12 167 -36 237s-58 129.167 -102 177.5
s-97.333 85.5 -160 111.5s-132.667 39 -210 39c-76.667 0 -146.334 -13 -209.001 -39s-116.167 -63.167 -160.5 -111.5s-78.5 -107.5 -102.5 -177.5s-36 -149 -36 -237zM1574 -296l-160 -0.00292969c-24 0 -45.333 3.33301 -64 10s-35.667 18.334 -51 35.001l-251 274
c-76 -25.333 -158.333 -38 -247 -38c-105.333 0 -201.333 17.833 -288 53.5s-161 85.834 -223 150.501s-110 141.834 -144 231.501s-51 188.167 -51 295.5s17 205.833 51 295.5s82 167 144 232s136.333 115.5 223 151.5s182.667 54 288 54s201.5 -18 288.5 -54
s161.5 -86.5 223.5 -151.5s110 -142.333 144 -232s51 -188.167 51 -295.5c0 -67.333 -6.83301 -131.333 -20.5 -192s-33.5 -117.167 -59.5 -169.5s-57.667 -99.833 -95 -142.5s-79.333 -79.667 -126 -111z" />
    <glyph glyph-name="R" unicode="R" horiz-adv-x="1253" 
d="M580 739c56 0 105.5 6.83398 148.5 20.501s79 33 108 58s50.833 54.833 65.5 89.5s22 73 22 115c0 85.333 -28 149.666 -84 192.999s-140 65 -252 65h-212v-541h204zM1242 0.000976562l-172 0.000976562c-35.333 0 -61.333 13.667 -78 41l-372 512
c-11.333 16 -23.5 27.5 -36.5 34.5s-33.167 10.5 -60.5 10.5h-147v-598h-193v1433h405c90.667 0 169 -9.16699 235 -27.5s120.5 -44.833 163.5 -79.5s74.833 -76.5 95.5 -125.5s31 -103.833 31 -164.5c0 -50.667 -8 -98 -24 -142s-39.167 -83.5 -69.5 -118.5
s-67.333 -64.833 -111 -89.5s-93.167 -43.334 -148.5 -56.001c24.667 -14 46 -34.333 64 -61z" />
    <glyph glyph-name="S" unicode="S" horiz-adv-x="1085" 
d="M916 1209c-6 -10 -12.5029 -17.499 -19.5029 -22.499s-15.5 -7.5 -25.5 -7.5c-11.333 0 -24.666 5.66699 -39.999 17s-34.5 23.833 -57.5 37.5s-50.667 26.167 -83 37.5s-71.5 17 -117.5 17c-43.333 0 -81.5 -5.83301 -114.5 -17.5s-60.667 -27.5 -83 -47.5
s-39.166 -43.5 -50.499 -70.5s-17 -56.167 -17 -87.5c0 -40 9.83301 -73.167 29.5 -99.5s45.667 -48.833 78 -67.5s69 -34.834 110 -48.501l126 -42.5c43 -14.667 85 -31.167 126 -49.5s77.667 -41.5 110 -69.5s58.333 -62.333 78 -103s29.5 -90.667 29.5 -150
c0 -62.667 -10.667 -121.5 -32 -176.5s-52.5 -102.833 -93.5 -143.5s-91.333 -72.667 -151 -96s-127.5 -35 -203.5 -35c-93.333 0 -178 16.833 -254 50.5s-141 79.167 -195 136.5l56 92c5.33301 7.33301 11.833 13.5 19.5 18.5s16.167 7.5 25.5 7.5
c8.66699 0 18.5 -3.5 29.5 -10.5s23.5 -15.833 37.5 -26.5l48 -35c18 -12.667 38.5 -24.334 61.5 -35.001s49.167 -19.5 78.5 -26.5s62.333 -10.5 99 -10.5c46 0 87 6.33301 123 19s66.5 30.5 91.5 53.5s44.167 50.5 57.5 82.5s20 67.667 20 107
c0 43.333 -9.83301 78.833 -29.5 106.5s-45.5 50.834 -77.5 69.501s-68.667 34.5 -110 47.5l-126 40c-42.667 13.667 -84.667 29.5 -126 47.5s-78 41.333 -110 70s-57.833 64.5 -77.5 107.5s-29.5 96.167 -29.5 159.5c0 50.667 9.83301 99.667 29.5 147
s48.334 89.333 86.001 126s84 66 139 88s118.167 33 189.5 33c80 0 152.833 -12.667 218.5 -38s123.5 -62 173.5 -110z" />
    <glyph glyph-name="T" unicode="T" horiz-adv-x="1181" 
d="M1152 1270h-464v-1270h-193v1270h-465v163h1122v-163z" />
    <glyph glyph-name="U" unicode="U" horiz-adv-x="1471" 
d="M736 154c59.333 0 112.332 10 158.999 30s86.167 48 118.5 84s57 79 74 129s25.5 105 25.5 165v871h193v-871c0 -82.667 -13.167 -159.334 -39.5 -230.001s-64 -131.834 -113 -183.501s-108.833 -92.167 -179.5 -121.5s-150 -44 -238 -44s-167.333 14.667 -238 44
s-130.667 69.833 -180 121.5s-87.166 112.834 -113.499 183.501s-39.5 147.334 -39.5 230.001v871h193v-870c0 -60 8.5 -115 25.5 -165s41.667 -93 74 -129s72 -64.167 119 -84.5s100.167 -30.5 159.5 -30.5z" />
    <glyph glyph-name="V" unicode="V" horiz-adv-x="1354" 
d="M1348 1433l-584.001 -1433h-174l-584 1433h155c17.333 0 31.333 -4.33301 42 -13s18.667 -19.667 24 -33l404 -1011c8.66699 -22.667 17.167 -47.334 25.5 -74.001s15.833 -54.667 22.5 -84c6.66699 29.333 13.667 57.333 21 84s15.333 51.334 24 74.001l403 1011
c4 11.333 11.833 21.833 23.5 31.5s25.834 14.5 42.501 14.5h155z" />
    <glyph glyph-name="W" unicode="W" horiz-adv-x="2071" 
d="M2040 1433l-447.004 -1433h-174l-363 1093c-3.33301 10.667 -6.5 22 -9.5 34l-9.5 38c-3.33301 -13.333 -6.66602 -26 -9.99902 -38s-6.66602 -23.333 -9.99902 -34l-365 -1093h-174l-447 1433h161c17.333 0 31.833 -4.33301 43.5 -13s19.167 -19.667 22.5 -33l296 -996
c4.66699 -18 9.16699 -37.333 13.5 -58s8.5 -42.667 12.5 -66c4.66699 23.333 9.5 45.5 14.5 66.5s10.5 40.167 16.5 57.5l337 996c4 11.333 11.833 21.833 23.5 31.5s25.834 14.5 42.501 14.5h56c17.333 0 31.333 -4.33301 42 -13s18.667 -19.667 24 -33l336 -996
c6 -17.333 11.5 -36 16.5 -56s9.83301 -41 14.5 -63c3.33301 22 7 43 11 63s8.33301 38.667 13 56l297 996c3.33301 12 10.833 22.667 22.5 32s25.834 14 42.501 14h151z" />
    <glyph glyph-name="X" unicode="X" horiz-adv-x="1298" 
d="M1276 0l-191.999 0.000976562c-14.667 0 -26.167 3.83301 -34.5 11.5s-15.166 16.167 -20.499 25.5l-384 602c-5.33301 -16 -11.333 -29.667 -18 -41l-374 -561c-6.66699 -9.33301 -13.834 -17.833 -21.501 -25.5s-18.167 -11.5 -31.5 -11.5h-180l493 736l-473 697h193
c14 0 24.333 -2.33301 31 -7s12.667 -11.334 18 -20.001l374 -574c4.66699 14 11.667 29.333 21 46l353 524c5.33301 9.33301 11.666 16.833 18.999 22.5s16 8.5 26 8.5h185l-475 -688z" />
    <glyph glyph-name="Y" unicode="Y" horiz-adv-x="1248" 
d="M721 571v-571h-194v571l-525 862h170c17.333 0 31 -4.16699 41 -12.5s18.667 -19.166 26 -32.499l328 -557l33 -65.5c10 -20.333 18.667 -40.833 26 -61.5c7.33301 20.667 15.666 41.167 24.999 61.5l31 65.5l327 557c6 11.333 14.333 21.666 25 30.999
s24.334 14 41.001 14h171z" />
    <glyph glyph-name="Z" unicode="Z" horiz-adv-x="1204" 
d="M1139 1361c0 -22 -6.66699 -43.333 -20 -64l-811 -1139h819v-158h-1074v76c0 10.667 1.83301 20.667 5.5 30s8.16699 18.333 13.5 27l813 1142h-794v158h1048v-72z" />
    <glyph glyph-name="bracketleft" unicode="[" horiz-adv-x="612" 
d="M332 1416v-1587h169c14.667 0 26.5 -4.66699 35.5 -14s13.5 -20.666 13.5 -33.999v-70h-368v1822h368v-70c0 -13.333 -4.5 -24.5 -13.5 -33.5s-20.833 -13.5 -35.5 -13.5h-169z" />
    <glyph glyph-name="backslash" unicode="\" horiz-adv-x="904" 
d="M67 1473h76.001c21.333 0 40.166 -5.66699 56.499 -17s28.5 -27.666 36.5 -48.999l601 -1497h-75c-19.333 0 -38.333 5.66699 -57 17s-32 28.666 -40 51.999z" />
    <glyph glyph-name="bracketright" unicode="]" horiz-adv-x="612" 
d="M430 -289l-368 0.000976562v70c0 13.333 4.5 24.666 13.5 33.999s20.833 14 35.5 14h169v1587h-169c-14.667 0 -26.5 4.5 -35.5 13.5s-13.5 20.167 -13.5 33.5v70h368v-1822z" />
    <glyph glyph-name="asciicircum" unicode="^" horiz-adv-x="1160" 
d="M1028 696l-130.002 0.000976562c-11.333 0 -21.166 3.16699 -29.499 9.5s-14.833 14.5 -19.5 24.5l-230 443c-17.333 35.333 -30.666 67.666 -39.999 96.999c-4.66699 -15.333 -10 -31 -16 -47s-12.667 -32.667 -20 -50l-223 -443c-4 -9.33301 -10.333 -17.333 -19 -24
s-19.667 -10 -33 -10h-136l388 737h115z" />
    <glyph glyph-name="underscore" unicode="_" horiz-adv-x="918" 
d="M853 -165v-120h-788v120h788z" />
    <glyph glyph-name="grave" unicode="`" 
d="M300 1449c22 0 38.333 -3.5 49 -10.5s20.667 -18.167 30 -33.5l149 -242h-102c-14 0 -25.333 2.16699 -34 6.5s-17.667 11.5 -27 21.5l-234 258h169z" />
    <glyph glyph-name="a" unicode="a" horiz-adv-x="994" 
d="M690 456c-82 -2.66699 -151.833 -9.16699 -209.5 -19.5s-104.667 -23.833 -141 -40.5s-62.666 -36.334 -78.999 -59.001s-24.5 -48 -24.5 -76c0 -26.667 4.33301 -49.667 13 -69s20.5 -35.166 35.5 -47.499s32.667 -21.333 53 -27s42.166 -8.5 65.499 -8.5
c31.333 0 60 3.16699 86 9.5s50.5 15.5 73.5 27.5s45 26.333 66 43s41.5 35.667 61.5 57v210zM115 870c56 54 116.336 94.332 181.003 120.999s136.334 40 215.001 40c56.667 0 107 -9.33301 151 -28s81 -44.667 111 -78s52.667 -73.666 68 -120.999s23 -99.333 23 -156
v-648h-79c-17.333 -0 -30.666 2.83301 -39.999 8.5s-16.666 16.834 -21.999 33.501l-20 96c-26.667 -24.667 -52.667 -46.5 -78 -65.5s-52 -35 -80 -48s-57.833 -23 -89.5 -30s-66.834 -10.5 -105.501 -10.5c-39.333 0 -76.333 5.5 -111 16.5s-64.834 27.5 -90.501 49.5
s-46 49.833 -61 83.5s-22.5 73.5 -22.5 119.5c0 40 11 78.5 33 115.5s57.667 69.833 107 98.5s113.666 52.167 192.999 70.5s176.666 28.833 291.999 31.5v79c0 78.667 -17 138.167 -51 178.5s-83.667 60.5 -149 60.5c-44 0 -80.833 -5.5 -110.5 -16.5
s-55.334 -23.333 -77.001 -37s-40.334 -26 -56.001 -37s-31.167 -16.5 -46.5 -16.5c-12 0 -22.333 3.16699 -31 9.5s-16 14.166 -22 23.499z" />
    <glyph glyph-name="b" unicode="b" horiz-adv-x="1120" 
d="M320 244c32.667 -44 68.5 -74.998 107.5 -92.998s81.833 -27 128.5 -27c95.333 0 168.333 33.667 219 101s76 167.666 76 300.999c0 124 -22.5 215.167 -67.5 273.5s-109.167 87.5 -192.5 87.5c-58 0 -108.5 -13.333 -151.5 -40s-82.833 -64.334 -119.5 -113.001v-490z
M320 867.002c42.667 49.333 90.833 88.667 144.5 118s115.5 44 185.5 44c59.333 0 112.833 -11.333 160.5 -34s88.167 -55.5 121.5 -98.5s58.833 -95.167 76.5 -156.5s26.5 -130.333 26.5 -207c0 -82 -10 -156.667 -30 -224s-48.833 -124.833 -86.5 -172.5
s-83.5 -84.667 -137.5 -111s-114.667 -39.5 -182 -39.5c-66.667 0 -122.834 12.5 -168.501 37.5s-85.5 60.5 -119.5 106.5l-9 -92c-5.33301 -25.333 -20.666 -38 -45.999 -38h-115v1473h179v-606z" />
    <glyph glyph-name="c" unicode="c" horiz-adv-x="955" 
d="M846 833c-5.33301 -7.33301 -10.666 -13.002 -15.999 -17.002s-12.666 -6 -21.999 -6c-10 0 -21 4.16699 -33 12.5s-26.833 17.5 -44.5 27.5s-39.334 19.167 -65.001 27.5s-57.167 12.5 -94.5 12.5c-50 0 -94 -8.83301 -132 -26.5s-69.833 -43.167 -95.5 -76.5
s-45 -73.666 -58 -120.999s-19.5 -100.333 -19.5 -159c0 -61.333 7 -115.833 21 -163.5s33.833 -87.667 59.5 -120s56.667 -57 93 -74s77.166 -25.5 122.499 -25.5c43.333 0 79 5.16699 107 15.5s51.167 21.833 69.5 34.5s33.666 24.167 45.999 34.5s24.5 15.5 36.5 15.5
c14.667 0 26 -5.66699 34 -17l50 -65c-22 -27.333 -47 -50.666 -75 -69.999s-58.167 -35.5 -90.5 -48.5s-66.166 -22.5 -101.499 -28.5s-71.333 -9 -108 -9c-63.333 0 -122.166 11.667 -176.499 35s-101.5 57.166 -141.5 101.499s-71.333 98.833 -94 163.5
s-34 138.334 -34 221.001c0 75.333 10.5 145 31.5 209s51.667 119.167 92 165.5s90 82.5 149 108.5s126.833 39 203.5 39c71.333 0 134.166 -11.5 188.499 -34.5s102.5 -55.5 144.5 -97.5z" />
    <glyph glyph-name="d" unicode="d" horiz-adv-x="1120" 
d="M801 772c-33.333 44.667 -69.335 75.832 -108.002 93.499s-82 26.5 -130 26.5c-94 0 -166.333 -33.667 -217 -101s-76 -163.333 -76 -288c0 -66 5.66699 -122.5 17 -169.5s28 -85.667 50 -116s49 -52.5 81 -66.5s68.333 -21 109 -21c58.667 0 109.834 13.333 153.501 40
s83.834 64.334 120.501 113.001v489zM978.998 1473l-0.000976562 -1473h-106c-25.333 -0 -41.333 12.333 -48 37l-16 123c-43.333 -52 -92.666 -94 -147.999 -126s-119.333 -48 -192 -48c-58 0 -110.667 11.167 -158 33.5s-87.666 55.166 -120.999 98.499
s-59 97.333 -77 162s-27 139 -27 223c0 74.667 10 144.167 30 208.5s48.667 120.166 86 167.499s83.166 84.5 137.499 111.5s115.5 40.5 183.5 40.5c62 0 115.167 -10.5 159.5 -31.5s83.833 -50.167 118.5 -87.5v561h178z" />
    <glyph glyph-name="e" unicode="e" horiz-adv-x="1056" 
d="M819 617c0 41.333 -5.83301 79.167 -17.5 113.5s-28.667 64 -51 89s-49.5 44.333 -81.5 58s-68.333 20.5 -109 20.5c-85.333 0 -152.833 -24.833 -202.5 -74.5s-80.5 -118.5 -92.5 -206.5h554zM963 142.001c-22 -26.667 -48.3359 -49.833 -79.0029 -69.5
s-63.5 -35.834 -98.5 -48.501s-71.167 -22.167 -108.5 -28.5s-74.333 -9.5 -111 -9.5c-70 0 -134.5 11.833 -193.5 35.5s-110 58.334 -153 104.001s-76.5 102.167 -100.5 169.5s-36 144.666 -36 231.999c0 70.667 10.833 136.667 32.5 198s52.834 114.5 93.501 159.5
s90.334 80.333 149.001 106s124.667 38.5 198 38.5c60.667 0 116.834 -10.167 168.501 -30.5s96.334 -49.666 134.001 -87.999s67.167 -85.666 88.5 -141.999s32 -120.5 32 -192.5c0 -28 -3 -46.667 -9 -56s-17.333 -14 -34 -14h-677c2 -64 10.833 -119.667 26.5 -167
s37.5 -86.833 65.5 -118.5s61.333 -55.334 100 -71.001s82 -23.5 130 -23.5c44.667 0 83.167 5.16699 115.5 15.5s60.166 21.5 83.499 33.5s42.833 23.167 58.5 33.5s29.167 15.5 40.5 15.5c14.667 0 26 -5.66699 34 -17z" />
    <glyph glyph-name="f" unicode="f" horiz-adv-x="701" 
d="M207 0l-0.000976562 860.999l-112 13c-14 3.33301 -25.5 8.5 -34.5 15.5s-13.5 17.167 -13.5 30.5v73h160v98c0 58 8.16699 109.5 24.5 154.5s39.666 83 69.999 114s66.833 54.5 109.5 70.5s90.667 24 144 24c45.333 0 87 -6.66699 125 -20l-4 -89
c-1.33301 -16 -10.166 -24.667 -26.499 -26s-38.166 -2 -65.499 -2c-30.667 0 -58.5 -4 -83.5 -12s-46.5 -21 -64.5 -39s-31.833 -41.667 -41.5 -71s-14.5 -65.666 -14.5 -108.999v-93h292v-129h-286v-864h-179z" />
    <glyph glyph-name="g" unicode="g" horiz-adv-x="1040" 
d="M494 495c36 0 67.666 5 94.999 15s50.333 24 69 42s32.667 39.5 42 64.5s14 52.5 14 82.5c0 62 -18.833 111.333 -56.5 148s-92.167 55 -163.5 55c-72 0 -126.833 -18.333 -164.5 -55s-56.5 -86 -56.5 -148c0 -30 4.83301 -57.5 14.5 -82.5s23.834 -46.5 42.501 -64.5
s41.667 -32 69 -42s59 -15 95 -15zM814.999 -55c0 24.667 -6.99902 44.6641 -20.999 59.9971s-32.833 27.333 -56.5 36s-51.167 14.834 -82.5 18.501s-64.5 6.5 -99.5 8.5l-106.5 6c-36 2 -70.667 5.33301 -104 10c-37.333 -17.333 -67.833 -39.166 -91.5 -65.499
s-35.5 -57.166 -35.5 -92.499c0 -22.667 5.83301 -43.834 17.5 -63.501s29.5 -36.667 53.5 -51s54.167 -25.666 90.5 -33.999s79.166 -12.5 128.499 -12.5c48 0 91 4.33301 129 13s70.167 21 96.5 37s46.5 35 60.5 57s21 46.333 21 73zM996 972.997l0.000976562 -65.999
c0 -22 -14 -36 -42 -42l-115 -15c22.667 -44 34 -92.667 34 -146c0 -49.333 -9.5 -94.166 -28.5 -134.499s-45.167 -74.833 -78.5 -103.5s-73.333 -50.667 -120 -66s-97.334 -23 -152.001 -23c-47.333 0 -92 5.66699 -134 17c-21.333 -13.333 -37.666 -27.5 -48.999 -42.5
s-17 -30.167 -17 -45.5c0 -24 9.83301 -42.167 29.5 -54.5s45.5 -21.166 77.5 -26.499s68.5 -8.66602 109.5 -9.99902s83 -3.5 126 -6.5s85 -8.16699 126 -15.5s77.5 -19.333 109.5 -36s57.833 -39.667 77.5 -69s29.5 -67.333 29.5 -114
c0 -43.333 -10.833 -85.333 -32.5 -126s-52.834 -76.834 -93.501 -108.501s-90.5 -57 -149.5 -76s-125.5 -28.5 -199.5 -28.5s-138.667 7.33301 -194 22s-101.333 34.334 -138 59.001s-64.167 53.167 -82.5 85.5s-27.5 66.166 -27.5 101.499c0 50 15.667 92.333 47 127
s74.333 62.334 129 83.001c-30 13.333 -53.833 31.166 -71.5 53.499s-26.5 52.5 -26.5 90.5c0 14.667 2.66699 29.834 8 45.501s13.5 31.334 24.5 47.001s24.5 30.5 40.5 44.5s34.667 26.333 56 37c-50 28 -89 65.167 -117 111.5s-42 100.166 -42 161.499
c0 49.333 9.5 94.166 28.5 134.499s45.5 74.666 79.5 102.999s74.5 50.166 121.5 65.499s98.5 23 154.5 23c44 0 85 -4.83301 123 -14.5s72.667 -23.834 104 -42.501h275z" />
    <glyph glyph-name="h" unicode="h" horiz-adv-x="1116" 
d="M320 878c43.333 46 91.3359 82.665 144.003 109.998s113.334 41 182.001 41c55.333 0 104.166 -9.16699 146.499 -27.5s77.666 -44.333 105.999 -78s49.833 -74.167 64.5 -121.5s22 -99.666 22 -156.999v-645h-179v645c0 76.667 -17.5 136.167 -52.5 178.5
s-88.167 63.5 -159.5 63.5c-52.667 0 -101.834 -12.667 -147.501 -38s-87.834 -59.666 -126.501 -102.999v-746h-179v1473h179v-595z" />
    <glyph glyph-name="i" unicode="i" horiz-adv-x="480" 
d="M329 1013v-1013h-178v1013h178zM367 1331c0 -17.333 -3.5 -33.5 -10.5 -48.5s-16.333 -28.333 -28 -40s-25.334 -20.834 -41.001 -27.501s-32.167 -10 -49.5 -10s-33.5 3.33301 -48.5 10s-28.167 15.834 -39.5 27.501s-20.333 25 -27 40s-10 31.167 -10 48.5
s3.33301 33.833 10 49.5s15.667 29.334 27 41.001s24.5 20.834 39.5 27.501s31.167 10 48.5 10s33.833 -3.33301 49.5 -10s29.334 -15.834 41.001 -27.501s21 -25.334 28 -41.001s10.5 -32.167 10.5 -49.5z" />
    <glyph glyph-name="j" unicode="j" horiz-adv-x="480" 
d="M329 1013v-1088c0 -40.667 -5.33301 -78.5 -16 -113.5s-27.667 -65.5 -51 -91.5s-53.166 -46.5 -89.499 -61.5s-79.833 -22.5 -130.5 -22.5c-21.333 0 -41 1.66699 -59 5s-36 8.33301 -54 15l7 96c1.33301 6 3.5 10.5 6.5 13.5s7.16699 4.83301 12.5 5.5
s12.166 0.833984 20.499 0.500977s18.833 -0.5 31.5 -0.5c52 0 89 12.167 111 36.5s33 63.5 33 117.5v1088h178zM366 1331c0 -17.333 -3.5 -33.5 -10.5 -48.5s-16.333 -28.333 -28 -40s-25.167 -20.834 -40.5 -27.501s-31.666 -10 -48.999 -10s-33.5 3.33301 -48.5 10
s-28.167 15.834 -39.5 27.501s-20.333 25 -27 40s-10 31.167 -10 48.5s3.33301 33.833 10 49.5s15.667 29.334 27 41.001s24.5 20.834 39.5 27.501s31.167 10 48.5 10s33.666 -3.33301 48.999 -10s28.833 -15.834 40.5 -27.501s21 -25.334 28 -41.001
s10.5 -32.167 10.5 -49.5z" />
    <glyph glyph-name="k" unicode="k" horiz-adv-x="1016" 
d="M320 1473l0.000976562 -866.999h46c13.333 0 24.5 1.83301 33.5 5.5s18.5 11.167 28.5 22.5l320 343c9.33301 11.333 19.166 20.166 29.499 26.499s24.166 9.5 41.499 9.5h161l-373 -397c-18 -22.667 -37.333 -40.334 -58 -53.001c12 -8 22.833 -17.167 32.5 -27.5
s18.834 -22.166 27.501 -35.499l396 -500h-159c-15.333 0 -28.5 2.5 -39.5 7.5s-20.5 14.167 -28.5 27.5l-333 415c-10 14 -19.833 23.167 -29.5 27.5s-24.5 6.5 -44.5 6.5h-51v-484h-179v1473h179z" />
    <glyph glyph-name="l" unicode="l" horiz-adv-x="472" 
d="M325 1473v-1473h-178v1473h178z" />
    <glyph glyph-name="m" unicode="m" horiz-adv-x="1645" 
d="M141 0v1013h107c25.333 0 41 -12.333 47 -37l13 -104c37.333 46 79.333 83.667 126 113s100.667 44 162 44c68 0 123.167 -19 165.5 -57s72.833 -89.333 91.5 -154c14.667 36.667 33.5 68.334 56.5 95.001s48.833 48.667 77.5 66s59.167 30 91.5 38s65.166 12 98.499 12
c53.333 0 100.833 -8.5 142.5 -25.5s77 -41.833 106 -74.5s51.167 -72.834 66.5 -120.501s23 -102.167 23 -163.5v-645h-179v645c0 79.333 -17.333 139.5 -52 180.5s-84.667 61.5 -150 61.5c-29.333 0 -57.166 -5.16699 -83.499 -15.5s-49.5 -25.5 -69.5 -45.5
s-35.833 -45.167 -47.5 -75.5s-17.5 -65.5 -17.5 -105.5v-645h-179v645c0 81.333 -16.333 142 -49 182s-80.334 60 -143.001 60c-44 0 -84.667 -11.833 -122 -35.5s-71.666 -55.834 -102.999 -96.501v-755h-179z" />
    <glyph glyph-name="n" unicode="n" horiz-adv-x="1116" 
d="M309 866c22 24.667 45.3359 46.998 70.0029 66.998s50.834 37.167 78.501 51.5s57 25.333 88 33s64.5 11.5 100.5 11.5c55.333 0 104.166 -9.16699 146.499 -27.5s77.666 -44.333 105.999 -78s49.833 -74.167 64.5 -121.5s22 -99.666 22 -156.999v-645h-179v645
c0 76.667 -17.5 136.167 -52.5 178.5s-88.167 63.5 -159.5 63.5c-52.667 0 -101.834 -12.667 -147.501 -38s-87.834 -59.666 -126.501 -102.999v-746h-179v1013h107c25.333 0 41 -12.333 47 -37z" />
    <glyph glyph-name="o" unicode="o" horiz-adv-x="1134" 
d="M568 1029c74 0 140.667 -12.333 200 -37s110 -59.667 152 -105s74.167 -100.166 96.5 -164.499s33.5 -136.166 33.5 -215.499c0 -80 -11.167 -152 -33.5 -216s-54.5 -118.667 -96.5 -164s-92.667 -80.166 -152 -104.499s-126 -36.5 -200 -36.5
c-74.667 0 -141.834 12.167 -201.501 36.5s-110.5 59.166 -152.5 104.499s-74.167 100 -96.5 164s-33.5 136 -33.5 216c0 79.333 11.167 151.166 33.5 215.499s54.5 119.166 96.5 164.499s92.833 80.333 152.5 105s126.834 37 201.501 37zM568 125
c100 0 174.668 33.501 224.001 100.501s74 160.5 74 280.5c0 120.667 -24.667 214.667 -74 282s-124 101 -224 101c-50.667 0 -94.834 -8.66699 -132.501 -26s-69 -42.333 -94 -75s-43.667 -72.834 -56 -120.501s-18.5 -101.5 -18.5 -161.5
c0 -120 24.833 -213.5 74.5 -280.5s125.167 -100.5 226.5 -100.5z" />
    <glyph glyph-name="p" unicode="p" horiz-adv-x="1121" 
d="M320 244c32.667 -44 68.333 -74.998 107 -92.998s82 -27 130 -27c94.667 0 167.334 33.667 218.001 101s76 163.333 76 288c0 66 -5.83301 122.667 -17.5 170s-28.5 86.166 -50.5 116.499s-49 52.5 -81 66.5s-68.333 21 -109 21c-58 0 -108.833 -13.333 -152.5 -40
s-83.834 -64.334 -120.501 -113.001v-490zM310.999 856.002c42.667 52.667 92.001 95.001 148.001 127.001s120 48 192 48c58.667 0 111.667 -11.167 159 -33.5s87.666 -55.333 120.999 -99s59 -97.834 77 -162.501s27 -139 27 -223c0 -74.667 -10 -144.167 -30 -208.5
s-48.833 -120 -86.5 -167s-83.667 -84 -138 -111s-115.5 -40.5 -183.5 -40.5c-62 0 -115.167 10.5 -159.5 31.5s-83.5 50.167 -117.5 87.5v-448h-179v1356h107c25.333 0 41 -12.333 47 -37z" />
    <glyph glyph-name="q" unicode="q" horiz-adv-x="1120" 
d="M801 773c-32 42.667 -67.6689 73.166 -107.002 91.499s-83 27.5 -131 27.5c-94 0 -166.333 -33.667 -217 -101s-76 -163.333 -76 -288c0 -66 5.66699 -122.5 17 -169.5s28 -85.667 50 -116s49 -52.5 81 -66.5s68.333 -21 109 -21c58.667 0 109.834 13.333 153.501 40
s83.834 64.334 120.501 113.001v490zM978.998 1013v-1356h-178v494c-42 -49.333 -90.333 -89.166 -145 -119.499s-117 -45.5 -187 -45.5c-58 0 -110.667 11.167 -158 33.5s-87.666 55.166 -120.999 98.499s-59 97.333 -77 162s-27 139 -27 223c0 74.667 10 144.167 30 208.5
s48.667 120.166 86 167.499s83.166 84.5 137.499 111.5s115.5 40.5 183.5 40.5c66 0 122 -11.667 168 -35s86.667 -56 122 -98l12 78c6.66699 24.667 22.667 37 48 37h106z" />
    <glyph glyph-name="r" unicode="r" horiz-adv-x="728" 
d="M310 810c32 69.333 71.3359 123.499 118.003 162.499s103.667 58.5 171 58.5c21.333 0 41.833 -2.33301 61.5 -7s37.167 -12 52.5 -22l-13 -133c-4 -16.667 -14 -25 -30 -25c-9.33301 0 -23 2 -41 6s-38.333 6 -61 6c-32 0 -60.5 -4.66699 -85.5 -14
s-47.333 -23.166 -67 -41.499s-37.334 -41 -53.001 -68s-29.834 -57.833 -42.501 -92.5v-640h-179v1013h102c19.333 0 32.666 -3.66699 39.999 -11s12.333 -20 15 -38z" />
    <glyph glyph-name="s" unicode="s" horiz-adv-x="866" 
d="M731 846c-8 -14.667 -20.3291 -22.002 -36.9961 -22.002c-10 0 -21.333 3.66699 -34 11s-28.167 15.5 -46.5 24.5s-40.166 17.333 -65.499 25s-55.333 11.5 -90 11.5c-30 0 -57 -3.83301 -81 -11.5s-44.5 -18.167 -61.5 -31.5s-30 -28.833 -39 -46.5
s-13.5 -36.834 -13.5 -57.501c0 -26 7.5 -47.667 22.5 -65s34.833 -32.333 59.5 -45s52.667 -23.834 84 -33.501l96.5 -31c33 -11 65.167 -23.167 96.5 -36.5s59.333 -30 84 -50s44.5 -44.5 59.5 -73.5s22.5 -63.833 22.5 -104.5c0 -46.667 -8.33301 -89.834 -25 -129.501
s-41.334 -74 -74.001 -103s-72.667 -51.833 -120 -68.5s-102 -25 -164 -25c-70.667 0 -134.667 11.5 -192 34.5s-106 52.5 -146 88.5l42 68c5.33301 8.66699 11.666 15.334 18.999 20.001s16.666 7 27.999 7c12 0 24.667 -4.66699 38 -14s29.5 -19.666 48.5 -30.999
s42.167 -21.666 69.5 -30.999s61.333 -14 102 -14c34.667 0 65 4.5 91 13.5s47.667 21.167 65 36.5s30.166 33 38.499 53s12.5 41.333 12.5 64c0 28 -7.5 51.167 -22.5 69.5s-34.833 34 -59.5 47s-52.834 24.333 -84.501 34l-97 30.5c-33 10.667 -65.333 22.834 -97 36.501
s-59.834 30.834 -84.501 51.501s-44.5 46.167 -59.5 76.5s-22.5 67.166 -22.5 110.499c0 38.667 8 75.834 24 111.501s39.333 67 70 94s68.334 48.5 113.001 64.5s95.667 24 153 24c66.667 0 126.5 -10.5 179.5 -31.5s98.833 -49.833 137.5 -86.5z" />
    <glyph glyph-name="t" unicode="t" horiz-adv-x="717" 
d="M452 -16c-80 0 -141.501 22.335 -184.501 67.002s-64.5 109 -64.5 193v620h-122c-10.667 0 -19.667 3.16699 -27 9.5s-11 16.166 -11 29.499v71l166 21l41 313c2 10 6.5 18.167 13.5 24.5s16.167 9.5 27.5 9.5h90v-349h293v-129h-293v-608
c0 -42.667 10.333 -74.334 31 -95.001s47.334 -31 80.001 -31c18.667 0 34.834 2.5 48.501 7.5s25.5 10.5 35.5 16.5s18.5 11.5 25.5 16.5s13.167 7.5 18.5 7.5c9.33301 0 17.666 -5.66699 24.999 -17l52 -85c-30.667 -28.667 -67.667 -51.167 -111 -67.5
s-88 -24.5 -134 -24.5z" />
    <glyph glyph-name="u" unicode="u" horiz-adv-x="1115" 
d="M974 1013l-0.00195312 -1013h-106c-25.333 0 -41.333 12.333 -48 37l-14 109c-44 -48.667 -93.333 -87.834 -148 -117.501s-117.334 -44.5 -188.001 -44.5c-55.333 0 -104.166 9.16699 -146.499 27.5s-77.833 44.166 -106.5 77.499s-50.167 73.666 -64.5 120.999
s-21.5 99.666 -21.5 156.999v646h178v-646c0 -76.667 17.5 -136 52.5 -178s88.5 -63 160.5 -63c52.667 0 101.834 12.5 147.501 37.5s87.834 59.5 126.501 103.5v746h178z" />
    <glyph glyph-name="v" unicode="v" horiz-adv-x="1032" 
d="M1009 1013l-412.999 -1013h-160l-413 1013h145c14.667 0 26.667 -3.66699 36 -11s15.666 -16 18.999 -26l257 -652c8 -24.667 15 -48.667 21 -72s11.667 -46.666 17 -69.999c5.33301 23.333 11 46.666 17 69.999s13.333 47.333 22 72l260 652
c4 10.667 10.667 19.5 20 26.5s20.333 10.5 33 10.5h139z" />
    <glyph glyph-name="w" unicode="w" horiz-adv-x="1571" 
d="M1538 1013l-327.999 -1013h-141c-17.333 -0 -29.333 11.333 -36 34l-224 687c-5.33301 15.333 -9.66602 30.833 -12.999 46.5l-10 46.5l-10 -46.5c-3.33301 -15.667 -7.66602 -31.5 -12.999 -47.5l-228 -686c-6 -22.667 -19.333 -34 -40 -34h-134l-328 1013h140
c14 0 25.833 -3.66699 35.5 -11s16.167 -16 19.5 -26l194 -652c11.333 -48 20.333 -93.333 27 -136l18.5 67c6.33301 22.667 13.166 45.667 20.499 69l214 656c3.33301 10 9.16602 18.333 17.499 25s18.5 10 30.5 10h78c13.333 0 24.333 -3.33301 33 -10s14.667 -15 18 -25
l209 -656c7.33301 -23.333 14 -46.333 20 -69l17 -67c3.33301 22 7.5 44.167 12.5 66.5s10.5 45.5 16.5 69.5l198 652c3.33301 10.667 9.66602 19.5 18.999 26.5s20.333 10.5 33 10.5h134z" />
    <glyph glyph-name="x" unicode="x" horiz-adv-x="996" 
d="M973 0l-171 0.000976562c-14.667 0 -26.167 3.83301 -34.5 11.5s-15.166 16.167 -20.499 25.5l-255 397c-2.66699 -9.33301 -5.5 -18.5 -8.5 -27.5s-7.16699 -17.167 -12.5 -24.5l-236 -345c-6.66699 -9.33301 -13.834 -17.833 -21.501 -25.5s-18.167 -11.5 -31.5 -11.5
h-159l355 520l-341 493h171c14.667 0 25.334 -2.33301 32.001 -7s12.667 -11.334 18 -20.001l249 -380c5.33301 19.333 13.666 38 24.999 56l218 320c6 9.33301 12.5 16.833 19.5 22.5s15.5 8.5 25.5 8.5h164l-341 -484z" />
    <glyph glyph-name="y" unicode="y" horiz-adv-x="1031" 
d="M1015 1013l-565 -1312c-6 -13.333 -13.5 -24 -22.5 -32s-22.833 -12 -41.5 -12h-132l185 402l-418 954h154c15.333 0 27.5 -3.83301 36.5 -11.5s15.167 -16.167 18.5 -25.5l271 -638c10.667 -28 19.667 -57.333 27 -88c9.33301 31.333 19.333 61 30 89l263 637
c4 10.667 10.833 19.5 20.5 26.5s20.5 10.5 32.5 10.5h141z" />
    <glyph glyph-name="z" unicode="z" horiz-adv-x="904" 
d="M840 937c0 -12.667 -2.16797 -25.002 -6.50098 -37.002s-10.166 -22.333 -17.499 -31l-549 -730h554v-139h-763v74c0 8.66699 2 18.834 6 30.501s10 22.834 18 33.501l552 735h-545v140h751v-76z" />
    <glyph glyph-name="braceleft" unicode="{" horiz-adv-x="602" 
d="M476 1416c-52 0 -92.667 -16.834 -122 -50.501s-44 -79.167 -44 -136.5c0 -37.333 2.33301 -73.333 7 -108s10 -68.5 16 -101.5s11.333 -65.833 16 -98.5s7 -65.667 7 -99c0 -24.667 -3.66699 -47.834 -11 -69.501s-17.833 -41.167 -31.5 -58.5
s-29.667 -32.166 -48 -44.499s-38.5 -21.5 -60.5 -27.5c22 -6 42.167 -15 60.5 -27s34.333 -26.667 48 -44s24.167 -36.833 31.5 -58.5s11 -44.834 11 -69.501c0 -33.333 -2.33301 -66.333 -7 -99s-10 -65.5 -16 -98.5s-11.333 -66.833 -16 -101.5s-7 -70.667 -7 -108
c0 -58 14.667 -103.667 44 -137s70 -50 122 -50h20c8 0 16.667 -3 26 -9s14 -15.667 14 -29v-80h-54c-54 0 -101.5 7.83301 -142.5 23.5s-75.333 37.5 -103 65.5s-48.334 61.333 -62.001 100s-20.5 81 -20.5 127c0 34.667 2.66699 68.5 8 101.5s11 66 17 99
s11.667 65.833 17 98.5s8 65.667 8 99c0 42 -11.667 76.5 -35 103.5s-57 40.5 -101 40.5v107c44 0 77.667 13.333 101 40s35 61.334 35 104.001c0 33.333 -2.66699 66.333 -8 99s-11 65.334 -17 98.001s-11.667 65.667 -17 99s-8 67.333 -8 102
c0 46 6.83301 88.333 20.5 127s34.334 72 62.001 100s62 49.667 103 65s88.5 23 142.5 23h54v-79c0 -13.333 -4.66699 -23 -14 -29s-18 -9 -26 -9h-20z" />
    <glyph glyph-name="bar" unicode="|" horiz-adv-x="501" 
d="M181 1533h139v-1882h-139v1882z" />
    <glyph glyph-name="braceright" unicode="}" horiz-adv-x="602" 
d="M534 569c-44 0 -77.667 -13.499 -101 -40.499s-35 -61.5 -35 -103.5c0 -33.333 2.66699 -66.333 8 -99s11 -65.5 17 -98.5s11.667 -66 17 -99s8 -66.833 8 -101.5c0 -46 -6.83301 -88.333 -20.5 -127s-34.334 -72 -62.001 -100s-62 -49.833 -103 -65.5
s-88.5 -23.5 -142.5 -23.5h-54v80c0 13.333 4.83301 23 14.5 29s18.167 9 25.5 9h20c52 0 92.667 16.667 122 50s44 79 44 137c0 37.333 -2.33301 73.333 -7 108s-10 68.5 -16 101.5s-11.333 65.833 -16 98.5s-7 65.667 -7 99c0 24.667 3.66699 47.834 11 69.501
s17.833 41.167 31.5 58.5s29.667 32 48 44s38.5 21 60.5 27c-22 6 -42.167 15.167 -60.5 27.5s-34.333 27.166 -48 44.499s-24.167 36.833 -31.5 58.5s-11 44.834 -11 69.501c0 33.333 2.33301 66.333 7 99s10 65.5 16 98.5s11.333 66.833 16 101.5s7 70.667 7 108
c0 57.333 -14.667 102.833 -44 136.5s-70 50.5 -122 50.5h-20c-7.33301 0 -15.833 3 -25.5 9s-14.5 15.667 -14.5 29v79h54c54 0 101.5 -7.66699 142.5 -23s75.333 -37 103 -65s48.334 -61.333 62.001 -100s20.5 -81 20.5 -127c0 -34.667 -2.66699 -68.667 -8 -102
s-11 -66.333 -17 -99s-11.667 -65.334 -17 -98.001s-8 -65.667 -8 -99c0 -42.667 11.667 -77.334 35 -104.001s57 -40 101 -40v-107z" />
    <glyph glyph-name="asciitilde" unicode="~" horiz-adv-x="1160" 
d="M763 613c43.333 0 77.166 14.168 101.499 42.501s36.833 65.833 37.5 112.5h144c0 -44.667 -6.16699 -85.667 -18.5 -123s-30 -69.333 -53 -96s-51.5 -47.334 -85.5 -62.001s-72.333 -22 -115 -22c-34.667 0 -69 5.33301 -103 16s-66.833 22.5 -98.5 35.5l-90.5 36
c-28.667 11 -55 16.5 -79 16.5c-43.333 0 -77.166 -14 -101.499 -42s-36.833 -65.667 -37.5 -113h-144c0 44.667 6.16699 85.667 18.5 123s30 69.333 53 96s51.333 47.5 85 62.5s72.167 22.5 115.5 22.5c34.667 0 69 -5.5 103 -16.5s66.833 -23 98.5 -36l90.5 -36
c28.667 -11 55 -16.5 79 -16.5z" />
    <glyph glyph-name="exclamdown" unicode="&#xa1;" horiz-adv-x="504" 
d="M168 -343v541c0 30 0.666992 59.167 2 87.5s3 57 5 86s4.5 58.833 7.5 89.5s6.5 63.334 10.5 98.001h120c4 -34.667 7.5 -67.334 10.5 -98.001s5.5 -60.5 7.5 -89.5s3.66699 -57.667 5 -86s2 -57.5 2 -87.5v-541h-170zM125 904c0 18 3.16699 34.5 9.5 49.5
s15.166 28.167 26.499 39.5s24.5 20.166 39.5 26.499s31.5 9.5 49.5 9.5c17.333 0 33.5 -3.16699 48.5 -9.5s28.167 -15.166 39.5 -26.499s20.333 -24.5 27 -39.5s10 -31.5 10 -49.5c0 -17.333 -3.33301 -33.666 -10 -48.999s-15.667 -28.666 -27 -39.999
s-24.5 -20.333 -39.5 -27s-31.167 -10 -48.5 -10c-18 0 -34.5 3.33301 -49.5 10s-28.167 15.667 -39.5 27s-20.166 24.666 -26.499 39.999s-9.5 31.666 -9.5 48.999z" />
    <glyph glyph-name="cent" unicode="&#xa2;" horiz-adv-x="1160" 
d="M625 890c-50.667 -4 -95.333 -15.501 -134 -34.501s-71 -45 -97 -78s-45.5 -72.333 -58.5 -118s-19.5 -96.834 -19.5 -153.501c0 -107.333 22.5 -193.166 67.5 -257.499s107.833 -104.166 188.5 -119.499zM1028 140.999c-40 -47.333 -90.834 -83.5 -152.501 -108.5
s-128.5 -39.833 -200.5 -44.5l-12 -175c-1.33301 -12.667 -6.33301 -23.834 -15 -33.501s-20.334 -14.5 -35.001 -14.5h-66l16 224c-61.333 6.66699 -118 23.167 -170 49.5s-96.833 61.5 -134.5 105.5s-67 96.333 -88 157s-31.5 129 -31.5 205c0 74 11 142.167 33 204.5
s54 116.5 96 162.5s93.833 82.5 155.5 109.5s132.167 41.833 211.5 44.5l12 178c1.33301 13.333 6.33301 24.833 15 34.5s20 14.5 34 14.5h67l-16 -233c54.667 -7.33301 104 -21.666 148 -42.999s83.667 -48.333 119 -81l-46 -62
c-5.33301 -7.33301 -10.5 -12.833 -15.5 -16.5s-12.167 -5.5 -21.5 -5.5c-8 0 -17.333 2.83301 -28 8.5l-38.5 20.5c-15 8 -33 16 -54 24s-45.5 14.333 -73.5 19l-52 -762c42 2.66699 77 9.16699 105 19.5s51.833 21.333 71.5 33s35.834 22 48.501 31
s24.334 13.5 35.001 13.5c7.33301 0 14 -1.5 20 -4.5s10.667 -6.83301 14 -11.5z" />
    <glyph glyph-name="sterling" unicode="&#xa3;" horiz-adv-x="1160" 
d="M48 672c0 17.333 5.33496 32.0029 16.002 44.0029s25.667 18 45 18h134v261c0 62.667 9 121.5 27 176.5s45.333 103 82 144s82.167 73.333 136.5 97s118.166 35.5 191.499 35.5c52 0 98.333 -6.5 139 -19.5s76.667 -30.833 108 -53.5s58.5 -49 81.5 -79
s42.5 -62.333 58.5 -97l-72 -46c-17.333 -8.66699 -33.5 -12.334 -48.5 -11.001s-29.167 9.66602 -42.5 24.999c-12.667 18 -25.834 34.667 -39.501 50s-29.167 28.833 -46.5 40.5s-37.166 20.834 -59.499 27.501s-48.5 10 -78.5 10c-42 0 -78.833 -7 -110.5 -21
s-58.167 -34 -79.5 -60s-37.333 -57.333 -48 -94s-16 -77.667 -16 -123v-263h440v-72c0 -12 -4.83301 -23 -14.5 -33s-22.167 -15 -37.5 -15h-388v-243c0 -50 -9.5 -93.167 -28.5 -129.5s-45.167 -69.5 -78.5 -99.5c18.667 3.33301 37.667 6.16602 57 8.49902
s38.666 3.5 57.999 3.5h677v-76c0 -9.33301 -1.83301 -18.5 -5.5 -27.5s-9 -17.333 -16 -25s-15.167 -13.834 -24.5 -18.501s-20 -7 -32 -7h-964v115c22.667 6.66699 44.5 15.667 65.5 27s39.5 25.5 55.5 42.5s28.833 37 38.5 60s14.5 49.833 14.5 80.5v289h-195v58z" />
    <glyph glyph-name="currency" unicode="&#xa4;" horiz-adv-x="1160" 
d="M355 672c0 -30.667 5.83301 -59.5 17.5 -86.5s27.834 -50.667 48.501 -71s44.5 -36.5 71.5 -48.5s56.167 -18 87.5 -18s60.833 6 88.5 18s51.667 28.167 72 48.5s36.5 44 48.5 71s18 55.833 18 86.5c0 31.333 -6 60.666 -18 87.999s-28.167 51.333 -48.5 72
s-44.333 36.834 -72 48.501s-57.167 17.5 -88.5 17.5s-60.5 -5.83301 -87.5 -17.5s-50.833 -27.834 -71.5 -48.501s-36.834 -44.667 -48.501 -72s-17.5 -56.666 -17.5 -87.999zM937 227l-152.001 152.001c-29.333 -20 -61.166 -35.667 -95.499 -47s-70.833 -17 -109.5 -17
c-38 0 -73.833 5.5 -107.5 16.5s-64.834 26.167 -93.501 45.5l-154 -153l-89 91l151 152c-20 29.333 -35.667 61.333 -47 96s-17 71 -17 109s5.5 74 16.5 108s26.167 65.333 45.5 94l-153 153l91 90l151 -152c29.333 20.667 61.333 36.667 96 48s71.334 17 110.001 17
c38 0 74 -5.5 108 -16.5s65.667 -26.167 95 -45.5l152 152l89 -91l-151 -151c20.667 -29.333 36.667 -61.333 48 -96s17 -71.334 17 -110.001c0 -38 -5.5 -73.833 -16.5 -107.5s-26.167 -65.167 -45.5 -94.5l152 -151z" />
    <glyph glyph-name="yen" unicode="&#xa5;" horiz-adv-x="1160" 
d="M702 625l308.002 -0.000976562v-102h-341v-105h341v-103h-341v-315h-178v315h-341v103h341v105h-341v102h308l-409 808h148c17.333 0 31.5 -4.16699 42.5 -12.5s19.167 -19.166 24.5 -32.499l277 -566c9.33301 -22.667 17.166 -43.667 23.499 -63
s12.166 -38.666 17.499 -57.999c8 36.667 20.667 77 38 121l276 566c5.33301 11.333 13.5 21.666 24.5 30.999s24.833 14 41.5 14h149z" />
    <glyph glyph-name="brokenbar" unicode="&#xa6;" horiz-adv-x="507" 
d="M184 1533h139v-794h-139v794zM184 452h139v-795h-139v795z" />
    <glyph glyph-name="section" unicode="&#xa7;" horiz-adv-x="990" 
d="M259 726c0 -34 11.6641 -62.833 34.9971 -86.5s53.166 -45 89.499 -64s76.5 -37.333 120.5 -55s86.667 -36.834 128 -57.501c36.667 17.333 62.834 38.5 78.501 63.5s23.5 53.167 23.5 84.5c0 24 -5 45.333 -15 64s-23.667 35.667 -41 51s-37.666 29.333 -60.999 42
s-48.166 24.834 -74.499 36.501l-81.5 35c-28 11.667 -55.333 24.167 -82 37.5c-43.333 -20 -74.166 -42.167 -92.499 -66.5s-27.5 -52.5 -27.5 -84.5zM804.997 1265c-9.33301 -14.667 -21.6631 -21.999 -36.9961 -21.999c-10 0 -21.5 3.66699 -34.5 11
s-28.667 15.5 -47 24.5s-40.166 17.333 -65.499 25s-55.333 11.5 -90 11.5c-32 0 -60.667 -4.16699 -86 -12.5s-47 -19.5 -65 -33.5s-31.667 -30.333 -41 -49s-14 -38.334 -14 -59.001c0 -25.333 8.16699 -47.5 24.5 -66.5s37.666 -36.333 63.999 -52s56.5 -30.667 90.5 -45
l103.5 -44.5c35 -15.333 69.5 -32.166 103.5 -50.499s64.167 -39.333 90.5 -63s47.666 -50.834 63.999 -81.501s24.5 -66.334 24.5 -107.001c0 -54 -13 -102.167 -39 -144.5s-67 -76.166 -123 -101.499c33.333 -24.667 60.166 -53.334 80.499 -86.001s30.5 -72 30.5 -118
c0 -46.667 -8.33301 -89.834 -25 -129.501s-41.167 -74 -73.5 -103s-72.333 -51.833 -120 -68.5s-102.167 -25 -163.5 -25c-70.667 0 -134.667 11.5 -192 34.5s-106 52.5 -146 88.5l42 68c5.33301 8.66699 11.666 15.334 18.999 20.001s16.666 7 27.999 7
c12 0 24.667 -4.66699 38 -14s29.833 -19.833 49.5 -31.5s43.5 -22.167 71.5 -31.5s63 -14 105 -14c34 0 64.167 4.16699 90.5 12.5s48.5 20 66.5 35s31.667 32.833 41 53.5s14 43.667 14 69c0 30 -8.33301 56 -25 78s-38.667 41.5 -66 58.5s-58.5 32.5 -93.5 46.5l-107 43
c-36.333 14.667 -72 30.5 -107 47.5s-66.167 37.167 -93.5 60.5s-49.333 50.5 -66 81.5s-25 67.833 -25 110.5c0 52.667 14.333 99.667 43 141s74 74 136 98c-33.333 25.333 -60.5 55.333 -81.5 90s-31.5 77 -31.5 127c0 38.667 8 75.834 24 111.501
s39.333 66.834 70 93.501s68.5 48 113.5 64s96.167 24 153.5 24c66 0 125.5 -10.333 178.5 -31s98.833 -49.334 137.5 -86.001z" />
    <glyph glyph-name="dieresis" unicode="&#xa8;" 
d="M322 1289c0 -15.333 -3 -29.666 -9 -42.999s-14.333 -25 -25 -35s-22.834 -18 -36.501 -24s-28.167 -9 -43.5 -9c-14.667 0 -28.667 3 -42 9s-25.166 14 -35.499 24s-18.5 21.667 -24.5 35s-9 27.666 -9 42.999s3 30 9 44s14.167 26.167 24.5 36.5
s22.166 18.5 35.499 24.5s27.333 9 42 9c15.333 0 29.833 -3 43.5 -9s25.834 -14.167 36.501 -24.5s19 -22.5 25 -36.5s9 -28.667 9 -44zM703 1289c0 -15.333 -3 -29.666 -9 -42.999s-14.167 -25 -24.5 -35s-22.333 -18 -36 -24s-28.167 -9 -43.5 -9s-29.833 3 -43.5 9
s-25.5 14 -35.5 24s-18 21.667 -24 35s-9 27.666 -9 42.999s3 30 9 44s14 26.167 24 36.5s21.833 18.5 35.5 24.5s28.167 9 43.5 9s29.833 -3 43.5 -9s25.667 -14.167 36 -24.5s18.5 -22.5 24.5 -36.5s9 -28.667 9 -44z" />
    <glyph glyph-name="copyright" unicode="&#xa9;" horiz-adv-x="1663" 
d="M1087 474c10 0.666992 18.9971 -3.00195 26.9971 -11.002l60 -64c-38 -44 -84.5 -78.167 -139.5 -102.5s-121.167 -36.5 -198.5 -36.5c-65.333 0 -124.833 11.333 -178.5 34s-99.667 54.334 -138 95.001s-68 89 -89 145s-31.5 117.333 -31.5 184
c0 67.333 11.333 129.166 34 185.499s54.334 104.666 95.001 144.999s88.834 71.666 144.501 93.999s116.167 33.5 181.5 33.5c72.667 0 134.167 -11.167 184.5 -33.5s94.5 -52.166 132.5 -89.499l-46 -65c-3.33301 -4 -7.66602 -8 -12.999 -12s-11.666 -6 -18.999 -6
c-9.33301 0 -19.166 3.66699 -29.499 11s-23.833 15.5 -40.5 24.5s-37.834 17.333 -63.501 25s-57.834 11.5 -96.501 11.5c-47.333 0 -89.666 -7.5 -126.999 -22.5s-69.333 -36.5 -96 -64.5s-47 -62 -61 -102s-21 -85 -21 -135c0 -51.333 7.16699 -97.166 21.5 -137.499
s34.166 -74.166 59.499 -101.499s55.5 -48.166 90.5 -62.499s73.167 -21.5 114.5 -21.5c34.667 0 63.667 2.66699 87 8s43.833 11.833 61.5 19.5s33.667 16.167 48 25.5s29.833 18 46.5 26zM100.997 715.998c0 67.333 8.66699 132.166 26 194.499s42 120.666 74 174.999
s70.167 103.666 114.5 147.999s93.5 82.5 147.5 114.5s112 56.667 174 74s126.667 26 194 26s132.166 -8.66699 194.499 -26s120.5 -42 174.5 -74s103.333 -70.167 148 -114.5s82.834 -93.666 114.501 -147.999s56.167 -112.666 73.5 -174.999s26 -127.166 26 -194.499
c0 -66.667 -8.66699 -131.167 -26 -193.5s-41.833 -120.5 -73.5 -174.5s-69.834 -103.167 -114.501 -147.5s-94 -82.5 -148 -114.5s-112.167 -56.667 -174.5 -74s-127.166 -26 -194.499 -26s-132 8.66699 -194 26s-120 42 -174 74s-103.167 70.167 -147.5 114.5
s-82.5 93.5 -114.5 147.5s-56.667 112 -74 174s-26 126.667 -26 194zM201.997 715.998c0 -59.333 7.33398 -116.332 22.001 -170.999s35.5 -105.834 62.5 -153.501s59.667 -90.834 98 -129.501s80.666 -71.834 126.999 -99.501s96.5 -49 150.5 -64s110.333 -22.5 169 -22.5
s115.167 7.5 169.5 22.5s105 36.333 152 64s89.667 60.834 128 99.501s71.166 81.834 98.499 129.501s48.5 98.834 63.5 153.501s22.5 111.667 22.5 171c0 89.333 -16.5 173.166 -49.5 251.499s-78 146.666 -135 204.999s-124.167 104.333 -201.5 138s-160 50.5 -248 50.5
c-58.667 0 -115 -7.66699 -169 -23s-104.167 -36.833 -150.5 -64.5s-88.666 -61.167 -126.999 -100.5s-71 -82.833 -98 -130.5s-47.833 -99.167 -62.5 -154.5s-22 -112.666 -22 -171.999z" />
    <glyph glyph-name="ordfeminine" unicode="&#xaa;" horiz-adv-x="735" 
d="M477 1102c-46.667 -2 -86.001 -5.83301 -118.001 -11.5s-58 -13 -78 -22s-34.5 -19.333 -43.5 -31s-13.5 -24.5 -13.5 -38.5c0 -28 8.83301 -47.667 26.5 -59s39.834 -17 66.501 -17c34 0 63.333 6.33301 88 19s48.667 30.667 72 54v106zM131.999 1355
c34 32.667 71.3311 56.6689 111.998 72.002s85.334 23 134.001 23c36 0 68 -5.66699 96 -17s51.667 -27 71 -47s34 -44 44 -72s15 -59 15 -93v-381h-60c-12 0 -21 1.83301 -27 5.5s-11.667 11.5 -17 23.5l-12 49c-16 -14 -31.833 -26.333 -47.5 -37
s-31.667 -19.834 -48 -27.501s-34 -13.334 -53 -17.001s-39.833 -5.5 -62.5 -5.5c-25.333 0 -48.666 3.33301 -69.999 10s-40 16.834 -56 30.501s-28.5 30.5 -37.5 50.5s-13.5 43.667 -13.5 71c0 22.667 6.33301 45.167 19 67.5s33.834 42.5 63.501 60.5
s68.5 32.667 116.5 44s107.333 17.666 178 18.999v37c0 42 -9.5 73 -28.5 93s-47.5 30 -85.5 30c-25.333 0 -46.5 -3 -63.5 -9s-31.667 -12.5 -44 -19.5l-33 -19c-9.66699 -5.66699 -19.834 -8.5 -30.501 -8.5c-9.33301 0 -17 2.66699 -23 8s-11 11 -15 17z" />
    <glyph glyph-name="guillemotleft" unicode="&#xab;" horiz-adv-x="858" 
d="M425 232c9.33301 -15.333 12.5 -29.833 9.5 -43.5s-12.167 -24.167 -27.5 -31.5l-58 -28l-249 389v23l249 389l58 -28c15.333 -7.33301 24.5 -17.833 27.5 -31.5s-0.166992 -28.167 -9.5 -43.5l-158 -261c-9.33301 -16.667 -18.666 -28.667 -27.999 -36
c9.33301 -8.66699 18.666 -21 27.999 -37zM721 232c9.33301 -15.333 12.5 -29.833 9.5 -43.5s-12.167 -24.167 -27.5 -31.5l-58 -28l-249 389v23l249 389l58 -28c15.333 -7.33301 24.5 -17.833 27.5 -31.5s-0.166992 -28.167 -9.5 -43.5l-158 -261
c-9.33301 -16.667 -18.666 -28.667 -27.999 -36c9.33301 -8.66699 18.666 -21 27.999 -37z" />
    <glyph glyph-name="logicalnot" unicode="&#xac;" horiz-adv-x="1160" 
d="M1008 315h-151v289h-709v135h860v-424z" />
    <glyph glyph-name="registered" unicode="&#xae;" horiz-adv-x="1663" 
d="M803 740c74 0 126 13.499 156 40.499s45 65.833 45 116.5c0 24.667 -3.16699 46.334 -9.5 65.001s-16.666 34 -30.999 46s-33.333 21 -57 27s-52.834 9 -87.501 9h-131v-304h115zM819 1164c115.333 0 200.501 -20.834 255.501 -62.501s82.5 -103.167 82.5 -184.5
c0 -62.667 -17.667 -116 -53 -160s-88.333 -74 -159 -90c11.333 -7.33301 21.166 -16 29.499 -26s16.166 -21.667 23.499 -35l228 -334h-149c-22 0 -38 8.33301 -48 25l-202 302c-6 8.66699 -13.167 15.334 -21.5 20.001s-21.166 7 -38.499 7h-79v-354h-156v892h287z
M831.001 75.998c58.667 0 115.168 7.50098 169.501 22.501s105 36.333 152 64s89.667 60.834 128 99.501s71.166 81.834 98.499 129.501s48.5 98.834 63.5 153.501s22.5 111.667 22.5 171c0 89.333 -16.5 173.166 -49.5 251.499s-78 146.666 -135 204.999
s-124.167 104.333 -201.5 138s-160 50.5 -248 50.5c-58.667 0 -115 -7.66699 -169 -23s-104.167 -36.833 -150.5 -64.5s-88.666 -61.167 -126.999 -100.5s-71 -82.833 -98 -130.5s-47.833 -99.167 -62.5 -154.5s-22 -112.666 -22 -171.999s7.33301 -116.333 22 -171
s35.5 -105.834 62.5 -153.501s59.667 -90.834 98 -129.501s80.666 -71.834 126.999 -99.501s96.5 -49 150.5 -64s110.333 -22.5 169 -22.5zM831.002 1448c67.333 0 132.166 -8.66699 194.499 -26s120.5 -42 174.5 -74s103.333 -70.167 148 -114.5
s82.834 -93.666 114.501 -147.999s56.167 -112.666 73.5 -174.999s26 -127.166 26 -194.499c0 -66.667 -8.66699 -131.167 -26 -193.5s-41.833 -120.5 -73.5 -174.5s-69.834 -103.167 -114.501 -147.5s-94 -82.5 -148 -114.5s-112.167 -56.667 -174.5 -74
s-127.166 -26 -194.499 -26s-132 8.66699 -194 26s-120 42 -174 74s-103.167 70.167 -147.5 114.5s-82.5 93.5 -114.5 147.5s-56.667 112 -74 174s-26 126.667 -26 194s8.66699 132.166 26 194.499s42 120.666 74 174.999s70.167 103.666 114.5 147.999
s93.5 82.5 147.5 114.5s112 56.667 174 74s126.667 26 194 26z" />
    <glyph glyph-name="macron" unicode="&#xaf;" 
d="M113 1348h574v-117h-574v117z" />
    <glyph glyph-name="macron" unicode="&#x2c9;" 
d="M113 1348h574v-117h-574v117z" />
    <glyph glyph-name="degree" unicode="&#xb0;" horiz-adv-x="829" 
d="M89 1128c0 44.667 8.33301 86.667 25 126s39.667 73.5 69 102.5s63.666 51.833 102.999 68.5s82 25 128 25s88.833 -8.33301 128.5 -25s74.167 -39.5 103.5 -68.5s52.5 -63.167 69.5 -102.5s25.5 -81.333 25.5 -126c0 -44 -8.5 -85.5 -25.5 -124.5
s-40.167 -73 -69.5 -102s-63.833 -52 -103.5 -69s-82.5 -25.5 -128.5 -25.5s-88.667 8.5 -128 25.5s-73.666 40 -102.999 69s-52.333 63 -69 102s-25 80.5 -25 124.5zM215 1127c0 -28 5 -54.167 15 -78.5s24 -45.5 42 -63.5s39.167 -32.167 63.5 -42.5
s50.5 -15.5 78.5 -15.5s54.167 5.16699 78.5 15.5s45.5 24.5 63.5 42.5s32 39.167 42 63.5s15 50.5 15 78.5s-5 54.333 -15 79s-24 46.167 -42 64.5s-39.167 32.666 -63.5 42.999s-50.5 15.5 -78.5 15.5s-54.167 -5.16699 -78.5 -15.5s-45.5 -24.666 -63.5 -42.999
s-32 -39.833 -42 -64.5s-15 -51 -15 -79z" />
    <glyph glyph-name="plusminus" unicode="&#xb1;" horiz-adv-x="1160" 
d="M101 215h958v-135h-958v135zM1059 826v-136h-407v-368h-146v368h-405v136h405v376h146v-376h407z" />
    <glyph glyph-name="uni00B2" unicode="&#xb2;" horiz-adv-x="668" 
d="M542 1019c13.333 0 23.834 -3.66699 31.501 -11s11.5 -17.666 11.5 -30.999v-77h-511v43c0 8.66699 1.83301 17.667 5.5 27s9.5 18 17.5 26l221 219c33.333 33.333 61.5 67.666 84.5 102.999s34.5 71 34.5 107c0 34 -10 60.167 -30 78.5s-44.667 27.5 -74 27.5
c-31.333 0 -56.333 -8 -75 -24s-32.667 -38 -42 -66c-6.66699 -12 -14.334 -20.333 -23.001 -25s-21.667 -5.66699 -39 -3l-71 12c10 70.667 38 123.667 84 159s103.333 53 172 53c34.667 0 66.167 -5 94.5 -15s52.5 -24 72.5 -42s35.5 -39.833 46.5 -65.5
s16.5 -54.167 16.5 -85.5c0 -26.667 -4.16699 -51.5 -12.5 -74.5s-19.5 -44.833 -33.5 -65.5s-30 -40.667 -48 -60l-57 -59l-163 -165c16 4 31.833 7.33301 47.5 10s30.5 4 44.5 4h195z" />
    <glyph glyph-name="uni00B3" unicode="&#xb3;" horiz-adv-x="668" 
d="M92 1425c4.66699 35.333 14.3271 66.1709 28.9941 92.5039s32.834 48.333 54.501 66s46.5 31 74.5 40s58.333 13.5 91 13.5c34 0 64.667 -4.83301 92 -14.5s50.833 -23 70.5 -40s34.834 -36.833 45.501 -59.5s16 -47.334 16 -74.001c0 -85.333 -39.333 -143 -118 -173
c89.333 -24.667 134 -77.667 134 -159c0 -36.667 -7 -69 -21 -97s-32.5 -51.5 -55.5 -70.5s-49.667 -33.333 -80 -43s-61.5 -14.5 -93.5 -14.5c-38 0 -71 4.16699 -99 12.5s-52.167 20.666 -72.5 36.999s-37.666 36.5 -51.999 60.5s-26.5 51.667 -36.5 83l55 24
c14.667 6 28.5 7.5 41.5 4.5s22.167 -10.167 27.5 -21.5l13 -25.5c5.33301 -10.333 12.833 -20.5 22.5 -30.5s22 -18.5 37 -25.5s33.833 -10.5 56.5 -10.5c20.667 0 38.834 3.33301 54.501 10s28.834 15.167 39.501 25.5s18.667 22.166 24 35.499s8 27 8 41
c0 20 -2.83301 37.167 -8.5 51.5s-15 26.166 -28 35.499s-30.333 16.333 -52 21s-48.167 7 -79.5 7v87c58 0.666992 98.833 11 122.5 31s35.5 47.333 35.5 82c0 33.333 -9.66699 58.666 -29 75.999s-45 26 -77 26s-57.5 -7.83301 -76.5 -23.5s-32.5 -36.834 -40.5 -63.501
c-6.66699 -13.333 -13.667 -22.166 -21 -26.499s-19.666 -5.16602 -36.999 -2.49902z" />
    <glyph glyph-name="acute" unicode="&#xb4;" 
d="M691 1449l-233 -258c-9.33301 -10 -18.5 -17.167 -27.5 -21.5s-20.5 -6.5 -34.5 -6.5h-106l148 242c9.33301 15.333 19.5 26.5 30.5 33.5s27.167 10.5 48.5 10.5h174z" />
    <glyph glyph-name="uni00B5" unicode="&#xb5;" horiz-adv-x="1299" 
d="M1229 124l-0.000976562 -72.001c0 -15.333 -10.5 -29.5 -31.5 -42.5s-50.833 -19.5 -89.5 -19.5c-28 0 -54.833 4 -80.5 12s-49 20.5 -70 37.5s-39.167 38.333 -54.5 64s-26.333 56.167 -33 91.5c-40 -60 -85.5 -106.5 -136.5 -139.5s-108.5 -49.5 -172.5 -49.5
c-50 0 -93.5 7.83301 -130.5 23.5s-68.167 38.5 -93.5 68.5c4 -27.333 6.83301 -55.166 8.5 -83.499s2.5 -54.5 2.5 -78.5v-279h-89c-25.333 0 -44.833 6.66699 -58.5 20s-20.5 32 -20.5 56v1280h179v-613c0 -76 17.5 -136.167 52.5 -180.5s88.167 -66.5 159.5 -66.5
c61.333 0 114.833 16.5 160.5 49.5s83.834 79.5 114.501 139.5v671h178v-739c0 -52 13.333 -90 40 -114s62 -36 106 -36h59z" />
    <glyph glyph-name="paragraph" unicode="&#xb6;" horiz-adv-x="1401" 
d="M1330 1280l-219 -0.000976562v-1481h-157v1481h-277v-1481h-157v861c-69.333 0 -131.666 10.167 -186.999 30.5s-102.5 48 -141.5 83s-69 76.167 -90 123.5s-31.5 98 -31.5 152c0 57.333 10.5 109.5 31.5 156.5s51 87.333 90 121s86.167 59.834 141.5 78.501
s117.666 28 186.999 28h810v-153z" />
    <glyph glyph-name="periodcentered" unicode="&#xb7;" horiz-adv-x="520" 
d="M111 593c0 20.667 3.83301 40.334 11.5 59.001s18.334 34.667 32.001 48s29.334 24 47.001 32s36.5 12 56.5 12c20.667 0 40.334 -4 59.001 -12s34.667 -18.667 48 -32s24 -29.333 32 -48s12 -38.334 12 -59.001c0 -20 -4 -39 -12 -57s-18.667 -33.833 -32 -47.5
s-29.333 -24.334 -48 -32.001s-38.334 -11.5 -59.001 -11.5c-20 0 -38.833 3.83301 -56.5 11.5s-33.334 18.334 -47.001 32.001s-24.334 29.5 -32.001 47.5s-11.5 37 -11.5 57z" />
    <glyph glyph-name="periodcentered" unicode="&#x2219;" horiz-adv-x="520" 
d="M111 593c0 20.667 3.83301 40.334 11.5 59.001s18.334 34.667 32.001 48s29.334 24 47.001 32s36.5 12 56.5 12c20.667 0 40.334 -4 59.001 -12s34.667 -18.667 48 -32s24 -29.333 32 -48s12 -38.334 12 -59.001c0 -20 -4 -39 -12 -57s-18.667 -33.833 -32 -47.5
s-29.333 -24.334 -48 -32.001s-38.334 -11.5 -59.001 -11.5c-20 0 -38.833 3.83301 -56.5 11.5s-33.334 18.334 -47.001 32.001s-24.334 29.5 -32.001 47.5s-11.5 37 -11.5 57z" />
    <glyph glyph-name="cedilla" unicode="&#xb8;" 
d="M430 -75c62 -12.667 106.668 -30.666 134.001 -53.999s41 -53 41 -89c0 -21.333 -5.33301 -40.666 -16 -57.999s-25.5 -32 -44.5 -44s-41.833 -21.167 -68.5 -27.5s-56 -9.5 -88 -9.5c-27.333 0 -53.333 2.83301 -78 8.5s-47.334 13.167 -68.001 22.5l17 55
c4 12 11.667 18 23 18c4 0 8.66699 -1.16699 14 -3.5s11.833 -5 19.5 -8s16.667 -5.66699 27 -8s22.5 -3.5 36.5 -3.5c28 0 49.167 5.66699 63.5 17s21.5 25.666 21.5 42.999c0 25.333 -14 43.166 -42 53.499s-67.667 18.833 -119 25.5l54 162h101z" />
    <glyph glyph-name="uni00B9" unicode="&#xb9;" horiz-adv-x="668" 
d="M565 985l-0.000976562 -85.001h-407v85h147v440l5 44l-108 -89c-6 -4.66699 -11.833 -7.5 -17.5 -8.5s-11.167 -1 -16.5 0s-10.166 2.83301 -14.499 5.5s-7.5 5.33398 -9.5 8.00098l-39 56l222 190h108v-646h130z" />
    <glyph glyph-name="ordmasculine" unicode="&#xba;" horiz-adv-x="804" 
d="M404 1449c46.667 0 88.834 -7.16699 126.501 -21.5s69.834 -34.833 96.501 -61.5s47.334 -59.167 62.001 -97.5s22 -81.166 22 -128.499c0 -48 -7.33301 -91.333 -22 -130s-35.334 -71.5 -62.001 -98.5s-58.834 -47.667 -96.501 -62s-79.834 -21.5 -126.501 -21.5
c-47.333 0 -90 7.16699 -128 21.5s-70.5 35 -97.5 62s-47.833 59.833 -62.5 98.5s-22 82 -22 130c0 47.333 7.33301 90.166 22 128.499s35.5 70.833 62.5 97.5s59.5 47.167 97.5 61.5s80.667 21.5 128 21.5zM404 934c56 0 97.833 17.5 125.5 52.5s41.5 85.833 41.5 152.5
s-13.833 117.334 -41.5 152.001s-69.5 52 -125.5 52c-58.667 0 -101.667 -17.333 -129 -52s-41 -85.334 -41 -152.001s13.667 -117.5 41 -152.5s70.333 -52.5 129 -52.5z" />
    <glyph glyph-name="guillemotright" unicode="&#xbb;" horiz-adv-x="859" 
d="M463 541v-22.999l-249 -389l-58 28c-15.333 7.33301 -24.5 17.833 -27.5 31.5s0.166992 28.167 9.5 43.5l158 261l14.5 21.5c4.33301 6.33301 9.16602 11.5 14.499 15.5c-5.33301 3.33301 -10.166 8.16602 -14.499 14.499l-14.5 21.5l-158 261
c-9.33301 15.333 -12.5 29.833 -9.5 43.5s12.167 24.167 27.5 31.5l58 28zM759 541.001v-22.999l-249 -389l-58 28c-15.333 7.33301 -24.5 17.833 -27.5 31.5s0.166992 28.167 9.5 43.5l158 261l14.5 21.5c4.33301 6.33301 9.16602 11.5 14.499 15.5
c-5.33301 3.33301 -10.166 8.16602 -14.499 14.499l-14.5 21.5l-158 261c-9.33301 15.333 -12.5 29.833 -9.5 43.5s12.167 24.167 27.5 31.5l58 28z" />
    <glyph glyph-name="onequarter" unicode="&#xbc;" horiz-adv-x="1468" 
d="M418 53c-12.667 -20.667 -26.332 -34.667 -40.999 -42s-31.667 -11 -51 -11h-76l818 1372c12 19.333 25.667 34.333 41 45s33.666 16 54.999 16h77zM548.002 788l-0.000976562 -85.001h-407v85h147v440l5 44l-108 -89c-6 -4.66699 -11.833 -7.5 -17.5 -8.5
s-11.167 -1 -16.5 0s-10.166 2.83301 -14.499 5.5s-7.5 5.33398 -9.5 8.00098l-39 56l222 190h108v-646h130zM1172 266.999v241c0 26.667 2 56 6 88l-242 -329h236zM1389 266.999l0.000976562 -65c0 -7.33301 -2.33301 -13.5 -7 -18.5s-11 -7.5 -19 -7.5h-83v-176h-108v176
h-306c-12.667 0 -22.334 2.66699 -29.001 8s-11 12 -13 20l-10 57l343 468h123v-462h109z" />
    <glyph glyph-name="onehalf" unicode="&#xbd;" horiz-adv-x="1451" 
d="M377 53c-12.667 -20.667 -26.332 -34.667 -40.999 -42s-31.667 -11 -51 -11h-76l818 1372c12 19.333 25.667 34.333 41 45s33.666 16 54.999 16h77zM550.002 788l-0.000976562 -85.001h-407v85h147v440l5 44l-108 -89c-6 -4.66699 -11.833 -7.5 -17.5 -8.5
s-11.167 -1 -16.5 0s-10.166 2.83301 -14.499 5.5s-7.5 5.33398 -9.5 8.00098l-39 56l222 190h108v-646h130zM1317 118.999c13.333 0 23.834 -3.66699 31.501 -11s11.5 -17.666 11.5 -30.999v-77h-511v43c0 8.66699 1.83301 17.667 5.5 27s9.5 18 17.5 26l221 219
c33.333 33.333 61.5 67.666 84.5 102.999s34.5 71 34.5 107c0 34 -10 60.167 -30 78.5s-44.667 27.5 -74 27.5c-31.333 0 -56.333 -8 -75 -24s-32.667 -38 -42 -66c-6.66699 -12 -14.334 -20.333 -23.001 -25s-21.667 -5.66699 -39 -3l-71 12c10 70.667 38 123.667 84 159
s103.333 53 172 53c34.667 0 66.167 -5 94.5 -15s52.5 -24 72.5 -42s35.5 -39.833 46.5 -65.5s16.5 -54.167 16.5 -85.5c0 -26.667 -4.16699 -51.5 -12.5 -74.5s-19.5 -44.833 -33.5 -65.5s-30 -40.667 -48 -60l-57 -59l-163 -165c16 4 31.833 7.33301 47.5 10
s30.5 4 44.5 4h195z" />
    <glyph glyph-name="threequarters" unicode="&#xbe;" horiz-adv-x="1484" 
d="M441 53c-12.667 -20.667 -26.332 -34.667 -40.999 -42s-31.667 -11 -51 -11h-76l818 1372c12 19.333 25.667 34.333 41 45s33.666 16 54.999 16h77zM109.002 1228c4.66699 35.333 14.3271 66.1709 28.9941 92.5039s32.834 48.333 54.501 66s46.5 31 74.5 40
s58.333 13.5 91 13.5c34 0 64.667 -4.83301 92 -14.5s50.833 -23 70.5 -40s34.834 -36.833 45.501 -59.5s16 -47.334 16 -74.001c0 -85.333 -39.333 -143 -118 -173c89.333 -24.667 134 -77.667 134 -159c0 -36.667 -7 -69 -21 -97s-32.5 -51.5 -55.5 -70.5
s-49.667 -33.333 -80 -43s-61.5 -14.5 -93.5 -14.5c-38 0 -71 4.16699 -99 12.5s-52.167 20.666 -72.5 36.999s-37.666 36.5 -51.999 60.5s-26.5 51.667 -36.5 83l55 24c14.667 6 28.5 7.5 41.5 4.5s22.167 -10.167 27.5 -21.5l13 -25.5
c5.33301 -10.333 12.833 -20.5 22.5 -30.5s22 -18.5 37 -25.5s33.833 -10.5 56.5 -10.5c20.667 0 38.834 3.33301 54.501 10s28.834 15.167 39.501 25.5s18.667 22.166 24 35.499s8 27 8 41c0 20 -2.83301 37.167 -8.5 51.5s-15 26.166 -28 35.499s-30.333 16.333 -52 21
s-48.167 7 -79.5 7v87c58 0.666992 98.833 11 122.5 31s35.5 47.333 35.5 82c0 33.333 -9.66699 58.666 -29 75.999s-45 26 -77 26s-57.5 -7.83301 -76.5 -23.5s-32.5 -36.834 -40.5 -63.501c-6.66699 -13.333 -13.667 -22.166 -21 -26.499
s-19.666 -5.16602 -36.999 -2.49902zM1189 267.005v241c0 26.667 2 56 6 88l-242 -329h236zM1406 267.005l0.000976562 -65c0 -7.33301 -2.33301 -13.5 -7 -18.5s-11 -7.5 -19 -7.5h-83v-176h-108v176h-306c-12.667 0 -22.334 2.66699 -29.001 8s-11 12 -13 20l-10 57
l343 468h123v-462h109z" />
    <glyph glyph-name="questiondown" unicode="&#xbf;" horiz-adv-x="880" 
d="M808 -212c-20.667 -19.333 -43.4961 -37.666 -68.4961 -54.999s-52.167 -32.666 -81.5 -45.999s-61.333 -23.833 -96 -31.5s-72 -11.5 -112 -11.5c-52.667 0 -101.334 7.33301 -146.001 22s-83.334 35.667 -116.001 63s-58.334 60.666 -77.001 99.999s-28 84 -28 134
c0 50.667 7.5 93.667 22.5 129s34 65.666 57 90.999s48 47 75 65l76.5 51c24 16 44.5 32.167 61.5 48.5s26.833 35.5 29.5 57.5l18 154h121l12 -167c2.66699 -31.333 -3 -57.833 -17 -79.5s-32.333 -41.167 -55 -58.5s-47.667 -34 -75 -50s-52.833 -34 -76.5 -54
s-43.5 -43.667 -59.5 -71s-24 -61 -24 -101c0 -29.333 5.66699 -55.5 17 -78.5s26.833 -42.667 46.5 -59s42.5 -28.833 68.5 -37.5s54 -13 84 -13c40.667 0 75.5 5 104.5 15s53.667 21 74 33s36.666 23 48.999 33s22.5 15 30.5 15c17.333 0 30 -7.66699 38 -23zM362.004 903
c0 17.333 3.16699 33.666 9.5 48.999s15 28.666 26 39.999s24.167 20.333 39.5 27s31.666 10 48.999 10s33.666 -3.33301 48.999 -10s28.666 -15.667 39.999 -27s20.333 -24.666 27 -39.999s10 -31.666 10 -48.999c0 -18 -3.33301 -34.5 -10 -49.5
s-15.667 -28.167 -27 -39.5s-24.666 -20.166 -39.999 -26.499s-31.666 -9.5 -48.999 -9.5s-33.666 3.16699 -48.999 9.5s-28.5 15.166 -39.5 26.499s-19.667 24.5 -26 39.5s-9.5 31.5 -9.5 49.5z" />
    <glyph glyph-name="Agrave" unicode="&#xc0;" horiz-adv-x="1354" 
d="M944 532l-225 583c-6.66699 17.333 -13.667 37.5 -21 60.5s-14.333 47.5 -21 73.5c-14 -54 -28.333 -99 -43 -135l-225 -582h535zM1348 0h-150c-17.333 -0 -31.333 4.33301 -42 13s-18.667 19.667 -24 33l-134 346h-643l-134 -346c-4 -12 -11.667 -22.667 -23 -32
s-25.333 -14 -42 -14h-150l573 1433h196zM500 1852c22 0 38.668 -1.66699 50.001 -5s22.666 -12.333 33.999 -27l228 -274h-128c-14.667 0 -26.167 0.833008 -34.5 2.5s-17.5 7.16699 -27.5 16.5l-312 287h190z" />
    <glyph glyph-name="Aacute" unicode="&#xc1;" horiz-adv-x="1354" 
d="M944 532l-225 583c-6.66699 17.333 -13.667 37.5 -21 60.5s-14.333 47.5 -21 73.5c-14 -54 -28.333 -99 -43 -135l-225 -582h535zM1348 0h-150c-17.333 -0 -31.333 4.33301 -42 13s-18.667 19.667 -24 33l-134 346h-643l-134 -346c-4 -12 -11.667 -22.667 -23 -32
s-25.333 -14 -42 -14h-150l573 1433h196zM1055 1852l-326.001 -286c-10 -9.33301 -19.667 -15 -29 -17s-20.666 -3 -33.999 -3h-128l231 274c11.333 14.667 22.833 23.667 34.5 27s28.5 5 50.5 5h201z" />
    <glyph glyph-name="Acircumflex" unicode="&#xc2;" horiz-adv-x="1354" 
d="M944 532l-225 583c-6.66699 17.333 -13.667 37.5 -21 60.5s-14.333 47.5 -21 73.5c-14 -54 -28.333 -99 -43 -135l-225 -582h535zM1348 0h-150c-17.333 -0 -31.333 4.33301 -42 13s-18.667 19.667 -24 33l-134 346h-643l-134 -346c-4 -12 -11.667 -22.667 -23 -32
s-25.333 -14 -42 -14h-150l573 1433h196zM997 1546h-130c-8 0 -17.5 1.5 -28.5 4.5s-22.167 11.167 -33.5 24.5l-117 141l-12 18l-12 -18l-117 -141c-11.333 -13.333 -22.5 -21.5 -33.5 -24.5s-20.5 -4.5 -28.5 -4.5h-125l239 271h160z" />
    <glyph glyph-name="Atilde" unicode="&#xc3;" horiz-adv-x="1354" 
d="M944 532l-225 583c-6.66699 17.333 -13.667 37.5 -21 60.5s-14.333 47.5 -21 73.5c-14 -54 -28.333 -99 -43 -135l-225 -582h535zM1348 0h-150c-17.333 -0 -31.333 4.33301 -42 13s-18.667 19.667 -24 33l-134 346h-643l-134 -346c-4 -12 -11.667 -22.667 -23 -32
s-25.333 -14 -42 -14h-150l573 1433h196zM802 1663c15.333 0 28.834 2.83008 40.501 8.49707s21.5 13.334 29.5 23.001s14 20.5 18 32.5s6 24 6 36h109c0 -28.667 -4 -56.167 -12 -82.5s-19.833 -49.666 -35.5 -69.999s-34.834 -36.5 -57.501 -48.5s-48.667 -18 -78 -18
c-30 0 -56.833 5.5 -80.5 16.5s-45.667 23 -66 36l-57.5 36c-18 11 -36.333 16.5 -55 16.5c-15.333 0 -28.666 -3 -39.999 -9s-20.833 -13.833 -28.5 -23.5s-13.5 -20.5 -17.5 -32.5s-6 -24 -6 -36h-111c0 28.667 4.16699 56.334 12.5 83.001s20.166 50.167 35.499 70.5
s34.333 36.5 57 48.5s48.667 18 78 18c30 0 57 -5.5 81 -16.5s46 -23 66 -36l57 -36c18 -11 36.333 -16.5 55 -16.5z" />
    <glyph glyph-name="Adieresis" unicode="&#xc4;" horiz-adv-x="1354" 
d="M944 532l-225 583c-6.66699 17.333 -13.667 37.5 -21 60.5s-14.333 47.5 -21 73.5c-14 -54 -28.333 -99 -43 -135l-225 -582h535zM1348 0h-150c-17.333 -0 -31.333 4.33301 -42 13s-18.667 19.667 -24 33l-134 346h-643l-134 -346c-4 -12 -11.667 -22.667 -23 -32
s-25.333 -14 -42 -14h-150l573 1433h196zM577 1666c0 -14.667 -3 -28.5 -9 -41.5s-14.167 -24.5 -24.5 -34.5s-22.333 -17.833 -36 -23.5s-27.834 -8.5 -42.501 -8.5c-14 0 -27.5 2.83301 -40.5 8.5s-24.5 13.5 -34.5 23.5s-18 21.5 -24 34.5s-9 26.833 -9 41.5
c0 15.333 3 29.833 9 43.5s14 25.5 24 35.5s21.5 18 34.5 24s26.5 9 40.5 9c14.667 0 28.834 -3 42.501 -9s25.667 -14 36 -24s18.5 -21.833 24.5 -35.5s9 -28.167 9 -43.5zM995 1666c0 -14.667 -3 -28.5 -9 -41.5s-14 -24.5 -24 -34.5s-21.667 -17.833 -35 -23.5
s-27.333 -8.5 -42 -8.5c-15.333 0 -29.666 2.83301 -42.999 8.5s-25 13.5 -35 23.5s-17.833 21.5 -23.5 34.5s-8.5 26.833 -8.5 41.5c0 15.333 2.83301 29.833 8.5 43.5s13.5 25.5 23.5 35.5s21.667 18 35 24s27.666 9 42.999 9c14.667 0 28.667 -3 42 -9s25 -14 35 -24
s18 -21.833 24 -35.5s9 -28.167 9 -43.5z" />
    <glyph glyph-name="Aring" unicode="&#xc5;" horiz-adv-x="1354" 
d="M944 532l-225 583c-6.66699 17.333 -13.667 37.5 -21 60.5s-14.333 47.5 -21 73.5c-14 -54 -28.333 -99 -43 -135l-225 -582h535zM1348 0h-150c-17.333 -0 -31.333 4.33301 -42 13s-18.667 19.667 -24 33l-134 346h-643l-134 -346c-4 -12 -11.667 -22.667 -23 -32
s-25.333 -14 -42 -14h-150l573 1433h196zM487 1697c0 26 5.16699 50 15.5 72s24 40.667 41 56s36.833 27.333 59.5 36s46.667 13 72 13c26 0 50.667 -4.33301 74 -13s43.666 -20.667 60.999 -36s31.166 -34 41.499 -56s15.5 -46 15.5 -72s-5.16699 -49.667 -15.5 -71
s-24.166 -39.666 -41.499 -54.999s-37.666 -27.333 -60.999 -36s-48 -13 -74 -13c-25.333 0 -49.333 4.33301 -72 13s-42.5 20.667 -59.5 36s-30.667 33.666 -41 54.999s-15.5 45 -15.5 71zM576 1697c0 -29.333 9 -53.333 27 -72s43 -28 75 -28c30 0 54.167 9.33301 72.5 28
s27.5 42.667 27.5 72c0 30 -9.16699 54.333 -27.5 73s-42.5 28 -72.5 28c-32 0 -57 -9.33301 -75 -28s-27 -43 -27 -73z" />
    <glyph glyph-name="AE" unicode="&#xc6;" horiz-adv-x="1861" 
d="M934 532l-95 756c-8.66699 -28 -17.667 -53.667 -27 -77l-28 -67l-317 -612h467zM1773 158l-0.999023 -158.001h-772l-49 392h-556l-180 -347c-6.66699 -13.333 -16.334 -24.166 -29.001 -32.499s-27.667 -12.5 -45 -12.5h-147l756 1433h1022v-158h-748l59 -476h558v-152
h-539l60 -489h611z" />
    <glyph glyph-name="Ccedilla" unicode="&#xc7;" horiz-adv-x="1336" 
d="M1294 200c-54.667 -63.333 -119.832 -113.668 -195.499 -151.001s-166.167 -58.666 -271.5 -63.999l-17 -60c62 -12.667 106.667 -30.667 134 -54s41 -53 41 -89c0 -21.333 -5.33301 -40.666 -16 -57.999s-25.5 -32 -44.5 -44s-41.833 -21.167 -68.5 -27.5
s-56 -9.5 -88 -9.5c-27.333 0 -53.333 2.83301 -78 8.5s-47.334 13.167 -68.001 22.5l17 55c4 12 11.667 18 23 18c4 0 8.66699 -1.16699 14 -3.5s11.833 -5 19.5 -8s16.667 -5.66699 27 -8s22.5 -3.5 36.5 -3.5c28 0 49.167 5.66699 63.5 17s21.5 25.666 21.5 42.999
c0 25.333 -14 43.166 -42 53.499s-67.667 18.833 -119 25.5l41 123c-95.333 6 -181.666 28 -258.999 66s-143.5 89 -198.5 153s-97.333 139.333 -127 226s-44.5 181.667 -44.5 285c0 108 17 207 51 297s81.833 167.333 143.5 232s135.5 114.834 221.5 150.501
s181 53.5 285 53.5c102 0 192 -16.333 270 -49s146.667 -77 206 -133l-64 -89c-4 -6.66699 -9.16699 -12.167 -15.5 -16.5s-14.833 -6.5 -25.5 -6.5c-12 0 -26.667 6.5 -44 19.5s-40 27.5 -68 43.5s-63 30.5 -105 43.5s-93.667 19.5 -155 19.5
c-74 0 -141.667 -12.833 -203 -38.5s-114.166 -62.834 -158.499 -111.501s-78.833 -108 -103.5 -178s-37 -149 -37 -237c0 -89.333 12.833 -169 38.5 -239s60.667 -129.167 105 -177.5s96.666 -85.166 156.999 -110.499s125.5 -38 195.5 -38c42.667 0 81.167 2.5 115.5 7.5
s66 12.833 95 23.5s56 24.167 81 40.5s49.833 35.833 74.5 58.5c11.333 10 22.666 15 33.999 15c10.667 0 20 -4.33301 28 -13z" />
    <glyph glyph-name="Egrave" unicode="&#xc8;" horiz-adv-x="1155" 
d="M1067 158l-1 -158h-883v1433h883v-158h-689v-476h558v-152h-558v-489h690zM460 1852c22 0 38.668 -1.66699 50.001 -5s22.666 -12.333 33.999 -27l228 -274h-128c-14.667 0 -26.167 0.833008 -34.5 2.5s-17.5 7.16699 -27.5 16.5l-312 287h190z" />
    <glyph glyph-name="Eacute" unicode="&#xc9;" horiz-adv-x="1155" 
d="M1067 158l-1 -158h-883v1433h883v-158h-689v-476h558v-152h-558v-489h690zM1015 1852l-326.001 -286c-10 -9.33301 -19.667 -15 -29 -17s-20.666 -3 -33.999 -3h-128l231 274c11.333 14.667 22.833 23.667 34.5 27s28.5 5 50.5 5h201z" />
    <glyph glyph-name="Ecircumflex" unicode="&#xca;" horiz-adv-x="1155" 
d="M1067 158l-1 -158h-883v1433h883v-158h-689v-476h558v-152h-558v-489h690zM958 1546h-130c-8 0 -17.5 1.5 -28.5 4.5s-22.167 11.167 -33.5 24.5l-117 141l-12 18l-12 -18l-117 -141c-11.333 -13.333 -22.5 -21.5 -33.5 -24.5s-20.5 -4.5 -28.5 -4.5h-125l239 271h160z
" />
    <glyph glyph-name="Edieresis" unicode="&#xcb;" horiz-adv-x="1155" 
d="M1067 158l-1 -158h-883v1433h883v-158h-689v-476h558v-152h-558v-489h690zM538 1666c0 -14.667 -3 -28.5 -9 -41.5s-14.167 -24.5 -24.5 -34.5s-22.333 -17.833 -36 -23.5s-27.834 -8.5 -42.501 -8.5c-14 0 -27.5 2.83301 -40.5 8.5s-24.5 13.5 -34.5 23.5
s-18 21.5 -24 34.5s-9 26.833 -9 41.5c0 15.333 3 29.833 9 43.5s14 25.5 24 35.5s21.5 18 34.5 24s26.5 9 40.5 9c14.667 0 28.834 -3 42.501 -9s25.667 -14 36 -24s18.5 -21.833 24.5 -35.5s9 -28.167 9 -43.5zM956 1666c0 -14.667 -3 -28.5 -9 -41.5s-14 -24.5 -24 -34.5
s-21.667 -17.833 -35 -23.5s-27.333 -8.5 -42 -8.5c-15.333 0 -29.666 2.83301 -42.999 8.5s-25 13.5 -35 23.5s-17.833 21.5 -23.5 34.5s-8.5 26.833 -8.5 41.5c0 15.333 2.83301 29.833 8.5 43.5s13.5 25.5 23.5 35.5s21.667 18 35 24s27.666 9 42.999 9
c14.667 0 28.667 -3 42 -9s25 -14 35 -24s18 -21.833 24 -35.5s9 -28.167 9 -43.5z" />
    <glyph glyph-name="Igrave" unicode="&#xcc;" horiz-adv-x="560" 
d="M377 0h-194v1433h194v-1433zM106 1852c22 0 38.668 -1.66699 50.001 -5s22.666 -12.333 33.999 -27l228 -274h-128c-14.667 0 -26.167 0.833008 -34.5 2.5s-17.5 7.16699 -27.5 16.5l-312 287h190z" />
    <glyph glyph-name="Iacute" unicode="&#xcd;" horiz-adv-x="560" 
d="M377 0h-194v1433h194v-1433zM661 1852l-326.001 -286c-10 -9.33301 -19.667 -15 -29 -17s-20.666 -3 -33.999 -3h-128l231 274c11.333 14.667 22.833 23.667 34.5 27s28.5 5 50.5 5h201z" />
    <glyph glyph-name="Icircumflex" unicode="&#xce;" horiz-adv-x="560" 
d="M377 0h-194v1433h194v-1433zM604 1546h-130c-8 0 -17.5 1.5 -28.5 4.5s-22.167 11.167 -33.5 24.5l-117 141l-12 18l-12 -18l-117 -141c-11.333 -13.333 -22.5 -21.5 -33.5 -24.5s-20.5 -4.5 -28.5 -4.5h-125l239 271h160z" />
    <glyph glyph-name="Idieresis" unicode="&#xcf;" horiz-adv-x="560" 
d="M377 0h-194v1433h194v-1433zM184 1666c0 -14.667 -3 -28.5 -9 -41.5s-14.167 -24.5 -24.5 -34.5s-22.333 -17.833 -36 -23.5s-27.834 -8.5 -42.501 -8.5c-14 0 -27.5 2.83301 -40.5 8.5s-24.5 13.5 -34.5 23.5s-18 21.5 -24 34.5s-9 26.833 -9 41.5
c0 15.333 3 29.833 9 43.5s14 25.5 24 35.5s21.5 18 34.5 24s26.5 9 40.5 9c14.667 0 28.834 -3 42.501 -9s25.667 -14 36 -24s18.5 -21.833 24.5 -35.5s9 -28.167 9 -43.5zM602 1666c0 -14.667 -3 -28.5 -9 -41.5s-14 -24.5 -24 -34.5s-21.667 -17.833 -35 -23.5
s-27.333 -8.5 -42 -8.5c-15.333 0 -29.666 2.83301 -42.999 8.5s-25 13.5 -35 23.5s-17.833 21.5 -23.5 34.5s-8.5 26.833 -8.5 41.5c0 15.333 2.83301 29.833 8.5 43.5s13.5 25.5 23.5 35.5s21.667 18 35 24s27.666 9 42.999 9c14.667 0 28.667 -3 42 -9s25 -14 35 -24
s18 -21.833 24 -35.5s9 -28.167 9 -43.5z" />
    <glyph glyph-name="Eth" unicode="&#xd0;" horiz-adv-x="1537" 
d="M735 157c76.667 0 146.334 12.667 209.001 38s116 61.833 160 109.5s78 106.167 102 175.5s36 148 36 236s-12 166.667 -36 236s-58 128 -102 176s-97.333 84.667 -160 110s-132.334 38 -209.001 38h-341v-496h290v-114h-290v-509h341zM735 1433
c105.333 0 201.333 -17.167 288 -51.5s161 -83 223 -146s110 -138.5 144 -226.5s51 -185.667 51 -293s-17 -205 -51 -293s-82 -163.333 -144 -226s-136.333 -111.167 -223 -145.5s-182.667 -51.5 -288 -51.5h-536v666h-196v114h196v653h536z" />
    <glyph glyph-name="Ntilde" unicode="&#xd1;" horiz-adv-x="1527" 
d="M1344 1433l-0.00195312 -1433h-97c-15.333 0 -28.166 2.66699 -38.499 8s-20.5 14.333 -30.5 27l-829 1080c1.33301 -16.667 2.33301 -33 3 -49s1 -31 1 -45v-1021h-170v1433h100c8.66699 0 16 -0.5 22 -1.5s11.333 -2.66699 16 -5s9.33398 -5.66602 14.001 -9.99902
s9.66699 -9.83301 15 -16.5l829 -1079c-1.33301 17.333 -2.5 34.166 -3.5 50.499s-1.5 31.833 -1.5 46.5v1015h170zM903.998 1662c15.333 0 28.834 2.83008 40.501 8.49707s21.5 13.334 29.5 23.001s14 20.5 18 32.5s6 24 6 36h109c0 -28.667 -4 -56.167 -12 -82.5
s-19.833 -49.666 -35.5 -69.999s-34.834 -36.5 -57.501 -48.5s-48.667 -18 -78 -18c-30 0 -56.833 5.5 -80.5 16.5s-45.667 23 -66 36l-57.5 36c-18 11 -36.333 16.5 -55 16.5c-15.333 0 -28.666 -3 -39.999 -9s-20.833 -13.833 -28.5 -23.5s-13.5 -20.5 -17.5 -32.5
s-6 -24 -6 -36h-111c0 28.667 4.16699 56.334 12.5 83.001s20.166 50.167 35.499 70.5s34.333 36.5 57 48.5s48.667 18 78 18c30 0 57 -5.5 81 -16.5s46 -23 66 -36l57 -36c18 -11 36.333 -16.5 55 -16.5z" />
    <glyph glyph-name="Ograve" unicode="&#xd2;" horiz-adv-x="1601" 
d="M1507 716c0 -107.333 -17 -205.833 -51 -295.5s-82 -166.834 -144 -231.501s-136.5 -114.834 -223.5 -150.501s-183.167 -53.5 -288.5 -53.5s-201.333 17.833 -288 53.5s-161 85.834 -223 150.501s-110 141.834 -144 231.501s-51 188.167 -51 295.5s17 205.833 51 295.5
s82 167 144 232s136.333 115.5 223 151.5s182.667 54 288 54s201.5 -18 288.5 -54s161.5 -86.5 223.5 -151.5s110 -142.333 144 -232s51 -188.167 51 -295.5zM1308 716c0 88 -12 167 -36 237s-58 129.167 -102 177.5s-97.333 85.5 -160 111.5s-132.667 39 -210 39
c-76.667 0 -146.334 -13 -209.001 -39s-116.167 -63.167 -160.5 -111.5s-78.5 -107.5 -102.5 -177.5s-36 -149 -36 -237s12 -166.833 36 -236.5s58.167 -128.667 102.5 -177s97.833 -85.333 160.5 -111s132.334 -38.5 209.001 -38.5c77.333 0 147.333 12.833 210 38.5
s116 62.667 160 111s78 107.333 102 177s36 148.5 36 236.5zM625 1852c22 0 38.668 -1.66699 50.001 -5s22.666 -12.333 33.999 -27l228 -274h-128c-14.667 0 -26.167 0.833008 -34.5 2.5s-17.5 7.16699 -27.5 16.5l-312 287h190z" />
    <glyph glyph-name="Oacute" unicode="&#xd3;" horiz-adv-x="1601" 
d="M1507 716c0 -107.333 -17 -205.833 -51 -295.5s-82 -166.834 -144 -231.501s-136.5 -114.834 -223.5 -150.501s-183.167 -53.5 -288.5 -53.5s-201.333 17.833 -288 53.5s-161 85.834 -223 150.501s-110 141.834 -144 231.501s-51 188.167 -51 295.5s17 205.833 51 295.5
s82 167 144 232s136.333 115.5 223 151.5s182.667 54 288 54s201.5 -18 288.5 -54s161.5 -86.5 223.5 -151.5s110 -142.333 144 -232s51 -188.167 51 -295.5zM1308 716c0 88 -12 167 -36 237s-58 129.167 -102 177.5s-97.333 85.5 -160 111.5s-132.667 39 -210 39
c-76.667 0 -146.334 -13 -209.001 -39s-116.167 -63.167 -160.5 -111.5s-78.5 -107.5 -102.5 -177.5s-36 -149 -36 -237s12 -166.833 36 -236.5s58.167 -128.667 102.5 -177s97.833 -85.333 160.5 -111s132.334 -38.5 209.001 -38.5c77.333 0 147.333 12.833 210 38.5
s116 62.667 160 111s78 107.333 102 177s36 148.5 36 236.5zM1180 1852l-326.001 -286c-10 -9.33301 -19.667 -15 -29 -17s-20.666 -3 -33.999 -3h-128l231 274c11.333 14.667 22.833 23.667 34.5 27s28.5 5 50.5 5h201z" />
    </font>
</defs>
</svg>
