<?xml version="1.0" standalone="no"?>
<!DOCTYPE svg PUBLIC "-//W3C//DTD SVG 1.1//EN" "http://www.w3.org/Graphics/SVG/1.1/DTD/svg11.dtd" >
<svg>
<metadata>
Created by FontForge 20090914 at Thu Feb 20 10:47:51 2020
 By www-data
Copyright (c) 2011-2014 by tyPoland Lukasz Dziedzic (http://www.typoland.com/) with Reserved Font Name "Lato". Licensed under the SIL Open Font License, Version 1.1 (http://scripts.sil.org/OFL). 
</metadata>
<defs>
<font id="Lato-Thin" horiz-adv-x="800" >
  <font-face 
    font-family="Lato Thin"
    font-weight="275"
    font-stretch="normal"
    units-per-em="2000"
    panose-1="2 15 5 2 2 2 4 3 2 3"
    ascent="1610"
    descent="-390"
    x-height="986"
    cap-height="1406"
    bbox="-935 -522 2681 2085"
    underline-thickness="36"
    underline-position="-474"
    unicode-range="U+0020-U+FEFF"
  />
<missing-glyph horiz-adv-x="1006" 
d="M269 1130c12.667 12.667 26.668 24.8379 42.001 36.5049s32.5 22.167 51.5 31.5s39.667 16.833 62 22.5s46.833 8.5 73.5 8.5c32.667 0 63.667 -4.83301 93 -14.5s55 -23.834 77 -42.501s39.5 -41.167 52.5 -67.5s19.5 -55.833 19.5 -88.5
c0 -36.667 -5.66699 -68.167 -17 -94.5s-25.666 -49.5 -42.999 -69.5s-36.166 -37.667 -56.499 -53l-56.5 -43c-17.333 -13.333 -32.166 -26.833 -44.499 -40.5s-18.833 -28.834 -19.5 -45.501l-7 -120h-35l-3 124c-0.666992 19.333 4.66602 36.5 15.999 51.5
s25.666 29.5 42.999 43.5s36.166 28.333 56.499 43s39.166 31.334 56.499 50.001s31.833 40.167 43.5 64.5s17.5 53.166 17.5 86.499c0 27.333 -5.5 51.666 -16.5 72.999s-25.5 39.5 -43.5 54.5s-38.833 26.333 -62.5 34s-48.167 11.5 -73.5 11.5
c-32 0 -60 -4.33301 -84 -13s-44 -18.334 -60 -29.001s-28.667 -20.334 -38 -29.001s-15.333 -13 -18 -13c-6 0 -10.333 2 -13 6zM417.001 250.004c0 17.333 5.66699 32 17 44s25.666 18 42.999 18s31.666 -6 42.999 -18s17 -26.667 17 -44
c0 -16.667 -5.66699 -30.834 -17 -42.501s-25.666 -17.5 -42.999 -17.5s-31.666 5.83301 -42.999 17.5s-17 25.834 -17 42.501zM49.001 1406h908v-1406h-908v1406zM75.001 26.0039h855v1354h-855v-1354z" />
    <glyph glyph-name="uniFB00" unicode="ff" horiz-adv-x="1268" 
d="M231 0l-0.000976562 906.99l-154 6c-12.667 1.33301 -19 6.33301 -19 15v20h173v130c0 56 6.83301 104.833 20.5 146.5s33 76.334 58 104.001s54.833 48.167 89.5 61.5s72.667 20 114 20c20 0 40.333 -1.66699 61 -5s38.667 -8.66602 54 -15.999l-3 -23
c-0.666992 -5.33301 -3 -8.16602 -7 -8.49902s-10.333 0.333984 -19 2.00098l-32.5 6c-13 2.33301 -28.833 3.5 -47.5 3.5c-34 0 -65.333 -5.16699 -94 -15.5s-53.5 -27.166 -74.5 -50.499s-37.5 -53.5 -49.5 -90.5s-18 -82.167 -18 -135.5v-129h546v143
c0 56 6.83301 104.833 20.5 146.5s33 76.334 58 104.001s54.667 48.167 89 61.5s72.5 20 114.5 20c19.333 0 39.333 -1.66699 60 -5s38.667 -8.66602 54 -15.999l-2 -23c-1.33301 -5.33301 -4 -8.16602 -8 -8.49902s-10.167 0.333984 -18.5 2.00098
s-19.166 3.66699 -32.499 6s-29.333 3.5 -48 3.5c-34 0 -65.333 -5.16699 -94 -15.5s-53.5 -27.166 -74.5 -50.499s-37.5 -53.5 -49.5 -90.5s-18 -82.167 -18 -135.5v-142h339v-40h-338v-908h-52v908h-545v-908h-53z" />
    <glyph glyph-name="uniFB01" unicode="fi" horiz-adv-x="1041" 
d="M234 0v907l-154 6c-12.667 1.33301 -19 6.33301 -19 15v20h173v100c0 61.333 8.66699 115.833 26 163.5s42.166 88 74.499 121s71.166 58 116.499 75s96 25.5 152 25.5c20 0 41 -1.83301 63 -5.5s40.667 -9.16699 56 -16.5l-3 -24c-1.33301 -4 -3.83301 -6 -7.5 -6
s-9.66699 0.833008 -18 2.5s-19.166 3.5 -32.499 5.5s-29.666 3 -48.999 3c-49.333 0 -94 -7 -134 -21s-74.333 -35.333 -103 -64s-50.667 -64.5 -66 -107.5s-23 -93.833 -23 -152.5v-99h568v-948h-53v908h-514v-908h-53z" />
    <glyph glyph-name="uniFB02" unicode="fl" horiz-adv-x="1097" 
d="M234 0l0.000976562 907l-154 6c-12.667 1.33301 -19 6.33301 -19 15v20h173v72c0 60 8.66699 115.167 26 165.5s42.5 93.5 75.5 129.5s73.5 64 121.5 84s103 30 165 30c43.333 0 85.666 -2 126.999 -6s80 -6.66699 116 -8h45v-1415h-53v1379
c-34 0.666992 -71.833 2.5 -113.5 5.5s-80.5 4.5 -116.5 4.5c-54 0 -102.167 -8.66699 -144.5 -26s-78 -42 -107 -74s-51.167 -70.833 -66.5 -116.5s-23 -96.5 -23 -152.5v-72h301v-40h-300v-908h-53z" />
    <glyph glyph-name="uniFB03" unicode="ffi" horiz-adv-x="1639" 
d="M234 0l-0.00292969 906.995l-154 6c-12.667 1.33301 -19 6.33301 -19 15v20h173v130c0 56 6.83301 104.833 20.5 146.5s33 76.334 58 104.001s54.833 48.167 89.5 61.5s72.667 20 114 20c19.333 0 39.5 -1.66699 60.5 -5s39.167 -8.66602 54.5 -15.999l-3 -23
c-1.33301 -5.33301 -4 -8.16602 -8 -8.49902s-10.167 0.333984 -18.5 2.00098s-19.166 3.66699 -32.499 6s-29.333 3.5 -48 3.5c-34 0 -65.333 -5.16699 -94 -15.5s-53.5 -27.166 -74.5 -50.499s-37.333 -53.5 -49 -90.5s-17.5 -82.167 -17.5 -135.5v-129h546v100
c0 61.333 8.66699 115.833 26 163.5s42 88 74 121s70.833 58 116.5 75s96.5 25.5 152.5 25.5c20 0 40.833 -1.83301 62.5 -5.5s40.167 -9.16699 55.5 -16.5l-3 -24c-1.33301 -4 -3.83301 -6 -7.5 -6s-9.66699 0.833008 -18 2.5s-19 3.5 -32 5.5s-29.167 3 -48.5 3
c-49.333 0 -94.166 -7 -134.499 -21s-74.666 -35.333 -102.999 -64s-50.333 -64.5 -66 -107.5s-23.5 -93.833 -23.5 -152.5v-99h568v-948h-52v908h-515v-908h-52v908h-545v-908h-53z" />
    <glyph glyph-name="uniFB04" unicode="ffl" horiz-adv-x="1691" 
d="M231 0l-0.00195312 906.995l-154 6c-12.667 1.33301 -19 6.33301 -19 15v20h173v130c0 56 6.83301 104.833 20.5 146.5s33 76.334 58 104.001s54.833 48.167 89.5 61.5s72.667 20 114 20c20 0 40.333 -1.66699 61 -5s38.667 -8.66602 54 -15.999l-3 -23
c-0.666992 -5.33301 -3 -8.16602 -7 -8.49902s-10.333 0.333984 -19 2.00098l-32.5 6c-13 2.33301 -28.833 3.5 -47.5 3.5c-34 0 -65.333 -5.16699 -94 -15.5s-53.5 -27.166 -74.5 -50.499s-37.5 -53.5 -49.5 -90.5s-18 -82.167 -18 -135.5v-129h546v72
c0 60 8.66699 115.167 26 165.5s42.5 93.5 75.5 129.5s73.5 64 121.5 84s103 30 165 30c42.667 0 84.667 -2 126 -6s80 -6.66699 116 -8h46v-1415h-53v1379c-34.667 0.666992 -72.667 2.5 -114 5.5s-80 4.5 -116 4.5c-54 0 -102.167 -8.66699 -144.5 -26
s-78.166 -42 -107.499 -74s-51.666 -70.833 -66.999 -116.5s-23 -96.5 -23 -152.5v-72h339v-40h-338v-908h-52v908h-545v-908h-53z" />
    <glyph glyph-name="f_b.liga" unicode="fb" horiz-adv-x="1755" 
d="M891 797c44 63.333 95.8359 113.336 155.503 150.003s130.167 55 211.5 55c60 0 113.667 -10.667 161 -32s87.333 -52.5 120 -93.5s57.5 -91.333 74.5 -151s25.5 -127.834 25.5 -204.501c0 -80 -9.33301 -152.833 -28 -218.5s-46.334 -121.667 -83.001 -168
s-81.667 -82.333 -135 -108s-114.666 -38.5 -183.999 -38.5c-140.667 0 -247.334 56.333 -320.001 169l-5 -139c-0.666992 -4.66699 -2.16699 -8.83398 -4.5 -12.501s-6.83301 -5.5 -13.5 -5.5h-28v1405c-33.333 5.33301 -67.833 9.83301 -103.5 13.5s-68.5 5.5 -98.5 5.5
c-65.333 0 -120.5 -9 -165.5 -27s-81.333 -43.333 -109 -76s-47.667 -71.334 -60 -116.001s-18.5 -93.667 -18.5 -147v-110h338v-40h-337v-908h-53v907l-154 6c-12.667 1.33301 -19 6.33301 -19 15v20h173v110c0 58.667 7.33301 112.667 22 162s38.167 92 70.5 128
s74.166 64 125.499 84s113.666 30 186.999 30c42 0 82.5 -2.5 121.5 -7.5s79.167 -7.83301 120.5 -8.5h13v-649zM891.003 205.003c40.667 -64.667 86.333 -110.168 137 -136.501s108 -39.5 172 -39.5c65.333 0 122.166 11.833 170.499 35.5s88.333 56.834 120 99.501
s55.334 94 71.001 154s23.5 126.667 23.5 200c0 146 -29.5 256.167 -88.5 330.5s-142.167 111.5 -249.5 111.5c-78 0 -145.833 -19 -203.5 -57s-108.5 -90.667 -152.5 -158v-540z" />
    <glyph glyph-name="f_f_b.liga" unicode="ffb" horiz-adv-x="2353" 
d="M231 0l0.00195312 906.998l-154 6c-12.667 1.33301 -19 6.33301 -19 15v20h173v130c0 56 6.83301 104.833 20.5 146.5s33 76.334 58 104.001s54.833 48.167 89.5 61.5s72.667 20 114 20c20 0 40.333 -1.66699 61 -5s38.667 -8.66602 54 -15.999l-3 -23
c-0.666992 -5.33301 -3 -8.16602 -7 -8.49902s-10.333 0.333984 -19 2.00098l-32.5 6c-13 2.33301 -28.833 3.5 -47.5 3.5c-34 0 -65.333 -5.16699 -94 -15.5s-53.5 -27.166 -74.5 -50.499s-37.5 -53.5 -49.5 -90.5s-18 -82.167 -18 -135.5v-129h546v110
c0 58.667 7.33301 112.667 22 162s38.167 92 70.5 128s74.166 64 125.499 84s113.666 30 186.999 30c44 0 86.667 -2.66699 128 -8s83.333 -8 126 -8h1v-649c44 63.333 95.833 113.333 155.5 150s130.167 55 211.5 55c60 0 113.667 -10.667 161 -32s87.333 -52.5 120 -93.5
s57.5 -91.333 74.5 -151s25.5 -127.834 25.5 -204.501c0 -80 -9.33301 -152.833 -28 -218.5s-46.334 -121.667 -83 -168c-36.667 -46.333 -81.667 -82.333 -135 -108s-114.666 -38.5 -183.999 -38.5c-140.667 0 -247.334 56.333 -320.001 169l-5 -139
c-0.666992 -4.66699 -2.16699 -8.83398 -4.5 -12.501s-6.83301 -5.5 -13.5 -5.5h-28v1405c-33.333 5.33301 -68 9.83301 -104 13.5s-69 5.5 -99 5.5c-65.333 0 -120.333 -9 -165 -27s-81 -43.333 -109 -76s-48.167 -71.334 -60.5 -116.001s-18.5 -93.667 -18.5 -147v-110
h339v-40h-338v-908h-52v908h-545v-908h-53zM1489 204.998c40.667 -64.667 86.335 -110.168 137.002 -136.501s108 -39.5 172 -39.5c65.333 0 122.166 11.833 170.499 35.5s88.333 56.834 119.999 99.501c31.667 42.667 55.334 94 71 154c15.667 60 23.5 126.667 23.5 200
c0 146 -29.5 256.167 -88.5 330.5s-142.167 111.5 -249.5 111.5c-78 0 -145.833 -19 -203.5 -57s-108.5 -90.667 -152.5 -158v-540z" />
    <glyph glyph-name="f_h.liga" unicode="fh" horiz-adv-x="1755" 
d="M891 798c46 62 100.669 111.502 164.002 148.502s132.333 55.5 207 55.5c54.667 0 102.5 -8.5 143.5 -25.5s75 -41.333 102 -73s47.333 -70.5 61 -116.5s20.5 -98 20.5 -156v-631h-53v631c0 51.333 -5.66699 97.333 -17 138s-28.833 75.167 -52.5 103.5
s-53.167 50 -88.5 65s-77 22.5 -125 22.5c-72 0 -138.5 -18.833 -199.5 -56.5s-115.167 -89.834 -162.5 -156.501v-747h-53v1405c-33.333 5.33301 -67.833 9.83301 -103.5 13.5s-68.5 5.5 -98.5 5.5c-65.333 0 -120.5 -9 -165.5 -27s-81.333 -43.333 -109 -76
s-47.667 -71.334 -60 -116.001s-18.5 -93.667 -18.5 -147v-110h338v-40h-337v-908h-53v907l-154 6c-12.667 1.33301 -19 6.33301 -19 15v20h173v110c0 58.667 7.33301 112.667 22 162s38.167 92 70.5 128s74.166 64 125.499 84s113.666 30 186.999 30
c42 0 82.5 -2.5 121.5 -7.5s79.167 -7.83301 120.5 -8.5h13v-648z" />
    <glyph glyph-name="f_f_h.liga" unicode="ffh" horiz-adv-x="2352" 
d="M231 0l0.00195312 906.997l-154 6c-12.667 1.33301 -19 6.33301 -19 15v20h173v130c0 56 6.83301 104.833 20.5 146.5s33 76.334 58 104.001s54.833 48.167 89.5 61.5s72.667 20 114 20c20 0 40.333 -1.66699 61 -5s38.667 -8.66602 54 -15.999l-3 -23
c-0.666992 -5.33301 -3 -8.16602 -7 -8.49902s-10.333 0.333984 -19 2.00098l-32.5 6c-13 2.33301 -28.833 3.5 -47.5 3.5c-34 0 -65.333 -5.16699 -94 -15.5s-53.5 -27.166 -74.5 -50.499s-37.5 -53.5 -49.5 -90.5s-18 -82.167 -18 -135.5v-129h546v110
c0 58.667 7.33301 112.667 22 162s38.167 92 70.5 128s74.166 64 125.499 84s113.666 30 186.999 30c41.333 0 81.833 -2.5 121.5 -7.5s79.5 -7.83301 119.5 -8.5h14v-648c46 62 100.667 111.5 164 148.5s132.333 55.5 207 55.5c54.667 0 102.5 -8.5 143.5 -25.5
s75 -41.333 102 -73s47.333 -70.5 61 -116.5s20.5 -98 20.5 -156v-631h-53v631c0 51.333 -5.66699 97.333 -17 138s-28.833 75.167 -52.5 103.5s-53.167 50 -88.5 65s-77 22.5 -125 22.5c-72 0 -138.5 -18.833 -199.5 -56.5s-115.167 -89.834 -162.5 -156.501v-747h-53v1405
c-33.333 5.33301 -68 9.83301 -104 13.5s-69 5.5 -99 5.5c-65.333 0 -120.333 -9 -165 -27s-81 -43.333 -109 -76s-48.167 -71.334 -60.5 -116.001s-18.5 -93.667 -18.5 -147v-110h339v-40h-338v-908h-52v908h-545v-908h-53z" />
    <glyph glyph-name="f_igrave.liga" unicode="f&#xec;" horiz-adv-x="1041" 
d="M608 1433c20.667 0 37.334 -3.33301 50.001 -10s22.667 -15.667 30 -27l161 -237h-30c-10.667 0 -18.667 4 -24 12l-183 221h-3c-48.667 0 -92.834 -7 -132.501 -21s-73.667 -35.333 -102 -64s-50.166 -64.5 -65.499 -107.5s-23 -93.833 -23 -152.5v-99h568v-948h-53v908
h-514v-908h-53v907l-154 6c-12.667 1.33301 -19 6.33301 -19 15v20h173v100c0 61.333 8.66699 115.833 26 163.5s42.166 88 74.499 121s71.5 58 117.5 75s98 25.5 156 25.5z" />
    <glyph glyph-name="f_icircumflex.liga" unicode="f&#xee;" horiz-adv-x="1041" 
d="M234 0v907l-154 6c-12.667 1.33301 -19 6.33301 -19 15v20h173v163c0 56 5.83301 104.167 17.5 144.5s28.167 73.5 49.5 99.5s47 45.167 77 57.5s63.333 18.5 100 18.5c22.667 0 41.667 -2 57 -6v-27c0 -6 -3.83301 -8.66699 -11.5 -8s-22.167 1 -43.5 1
c-62 0 -109.833 -22.333 -143.5 -67s-50.5 -115.667 -50.5 -213v-163h568v-948h-53v908h-514v-908h-53zM1064 1170h-37c-7.33301 0 -14.333 3.33301 -21 10l-170 184l-7 9l-8 -9l-170 -184c-6.66699 -6.66699 -13.667 -10 -21 -10h-38l214 236h44z" />
    <glyph glyph-name="f_itilde.liga" unicode="f&#x129;" horiz-adv-x="1042" 
d="M940 1257c31.333 0 54.6689 10.165 70.002 30.498s23.666 46.5 24.999 78.5h33c0 -20.667 -2.66699 -40 -8 -58s-13.166 -33.667 -23.499 -47s-23.5 -23.833 -39.5 -31.5s-34.667 -11.5 -56 -11.5c-22 0 -42.5 5.83301 -61.5 17.5s-37.333 24.334 -55 38.001
s-35.334 26.334 -53.001 38.001s-35.834 17.5 -54.501 17.5c-30 0 -53 -10.5 -69 -31.5s-24.667 -46.833 -26 -77.5h-35c0 20.667 2.83301 40 8.5 58s14 33.667 25 47s24.5 24 40.5 32s34.333 12 55 12c22 0 42.667 -5.83301 62 -17.5s37.833 -24.5 55.5 -38.5
s35.167 -26.833 52.5 -38.5s35.333 -17.5 54 -17.5zM234.003 -0.00195312v907l-154 6c-12.667 1.33301 -19 6.33301 -19 15v20h173v163c0 56 5.83301 104.167 17.5 144.5s28.167 73.5 49.5 99.5s47 45.167 77 57.5s63.333 18.5 100 18.5c22.667 0 41.667 -2 57 -6v-27
c0 -6 -3.83301 -8.66699 -11.5 -8s-22.167 1 -43.5 1c-62 0 -109.833 -22.333 -143.5 -67s-50.5 -115.667 -50.5 -213v-163h568v-948h-53v908h-514v-908h-53z" />
    <glyph glyph-name="f_idieresis.liga" unicode="f&#xef;" horiz-adv-x="1041" 
d="M742 1282c0 -17.333 -6.83203 -32.501 -20.499 -45.501s-29.167 -19.5 -46.5 -19.5c-8.66699 0 -17 1.83301 -25 5.5s-15 8.5 -21 14.5s-10.833 12.833 -14.5 20.5s-5.5 15.834 -5.5 24.501c0 18 6.66699 33.5 20 46.5s28.666 19.5 45.999 19.5s32.833 -6.5 46.5 -19.5
s20.5 -28.5 20.5 -46.5zM1038 1282c0 -17.333 -6.83301 -32.5 -20.5 -45.5s-29.167 -19.5 -46.5 -19.5c-18 0 -33.5 6.5 -46.5 19.5s-19.5 28.167 -19.5 45.5c0 18 6.5 33.5 19.5 46.5s28.5 19.5 46.5 19.5c17.333 0 32.833 -6.5 46.5 -19.5s20.5 -28.5 20.5 -46.5z
M234.001 -0.000976562v907l-154 6c-12.667 1.33301 -19 6.33301 -19 15v20h173v163c0 56 5.83301 104.167 17.5 144.5s28.167 73.5 49.5 99.5s47 45.167 77 57.5s63.333 18.5 100 18.5c22.667 0 41.667 -2 57 -6v-27c0 -6 -3.83301 -8.66699 -11.5 -8s-22.167 1 -43.5 1
c-62 0 -109.833 -22.333 -143.5 -67s-50.5 -115.667 -50.5 -213v-163h568v-948h-53v908h-514v-908h-53z" />
    <glyph glyph-name="f_imacron.liga" unicode="f&#x12b;" horiz-adv-x="1042" 
d="M558 1301h530v-38h-530v38zM234 0v907l-154 6c-12.667 1.33301 -19 6.33301 -19 15v20h173v163c0 56 5.83301 104.167 17.5 144.5s28.167 73.5 49.5 99.5s47 45.167 77 57.5s63.333 18.5 100 18.5c22.667 0 41.667 -2 57 -6v-27c0 -6 -3.83301 -8.66699 -11.5 -8
s-22.167 1 -43.5 1c-62 0 -109.833 -22.333 -143.5 -67s-50.5 -115.667 -50.5 -213v-163h568v-948h-53v908h-514v-908h-53z" />
    <glyph glyph-name="f_ibreve.liga" unicode="f&#x12d;" horiz-adv-x="1041" 
d="M823 1171c-40 0 -73.998 6.16699 -101.998 18.5s-51 29.333 -69 51s-31 46.667 -39 75s-12 58.5 -12 90.5h40c0 -26 3.16699 -51 9.5 -75s16.666 -45 30.999 -63s33 -32.5 56 -43.5s51.5 -16.5 85.5 -16.5s62.5 5.5 85.5 16.5s41.667 25.5 56 43.5s24.666 39 30.999 63
s9.5 49 9.5 75h40c0 -32 -4 -62.167 -12 -90.5s-21 -53.333 -39 -75s-41 -38.667 -69 -51s-62 -18.5 -102 -18.5zM234.002 0v907l-154 6c-12.667 1.33301 -19 6.33301 -19 15v20h173v163c0 56 5.83301 104.167 17.5 144.5s28.167 73.5 49.5 99.5s47 45.167 77 57.5
s63.333 18.5 100 18.5c22.667 0 41.667 -2 57 -6v-27c0 -6 -3.83301 -8.66699 -11.5 -8s-22.167 1 -43.5 1c-62 0 -109.833 -22.333 -143.5 -67s-50.5 -115.667 -50.5 -213v-163h568v-948h-53v908h-514v-908h-53z" />
    <glyph glyph-name="f_iogonek.liga" unicode="f&#x12f;" horiz-adv-x="1041" 
d="M234 0l-0.00195312 907.001l-154 6c-12.667 1.33301 -19 6.33301 -19 15v20h173v100c0 61.333 8.66699 115.833 26 163.5s42.166 88 74.499 121s71.166 58 116.499 75s96 25.5 152 25.5c20 0 41 -1.83301 63 -5.5s40.667 -9.16699 56 -16.5l-3 -24
c-1.33301 -4 -3.83301 -6 -7.5 -6s-9.66699 0.833008 -18 2.5s-19.166 3.5 -32.499 5.5s-29.666 3 -48.999 3c-49.333 0 -94 -7 -134 -21s-74.333 -35.333 -103 -64s-50.667 -64.5 -66 -107.5s-23 -93.833 -23 -152.5v-99h568v-948h-4
c-13.333 -7.33301 -28.166 -17 -44.499 -29s-31.666 -26 -45.999 -42s-26.333 -33.833 -36 -53.5s-14.5 -40.834 -14.5 -63.501c0 -35.333 12 -62.666 36 -81.999s54 -29 90 -29c20.667 0 38 2 52 6s25.667 8.5 35 13.5s16.833 9.66699 22.5 14s10.167 6.5 13.5 6.5
c4 0 7.33301 -2 10 -6l10 -17c-17.333 -16.667 -39.5 -29.667 -66.5 -39s-55.167 -14 -84.5 -14c-46.667 0 -85 11.833 -115 35.5s-45 58.167 -45 103.5c0 20.667 4 40.667 12 60s18.333 37.166 31 53.499s27 31.5 43 45.5s32 26.333 48 37v908h-514v-908h-53z" />
    <glyph glyph-name="f_dotlessi.liga" unicode="f&#x131;" horiz-adv-x="1041" 
d="M234 0v907l-154 6c-12.667 1.33301 -19 6.33301 -19 15v20h173v163c0 56 5.83301 104.167 17.5 144.5s28.167 73.5 49.5 99.5s47 45.167 77 57.5s63.333 18.5 100 18.5c22.667 0 41.667 -2 57 -6v-27c0 -6 -3.83301 -8.66699 -11.5 -8s-22.167 1 -43.5 1
c-62 0 -109.833 -22.333 -143.5 -67s-50.5 -115.667 -50.5 -213v-163h568v-948h-53v908h-514v-908h-53z" />
    <glyph glyph-name="f_f_igrave.liga" unicode="ff&#xec;" horiz-adv-x="1636" 
d="M1395 0l-0.00292969 907.995h-514v-908h-52v908h-542v-908h-53v907l-158 6c-12 0.666992 -18 5.66699 -18 15v20h176v130c0 56 6.83301 104.833 20.5 146.5s33 76.334 58 104.001s54.833 48.167 89.5 61.5s72.667 20 114 20c19.333 0 39.5 -1.66699 60.5 -5
s39.167 -8.66602 54.5 -15.999l-3 -23c-1.33301 -5.33301 -4 -8.16602 -8 -8.49902s-10.167 0.333984 -18.5 2.00098s-19.166 3.66699 -32.499 6s-29.333 3.5 -48 3.5c-34 0 -65.333 -5.16699 -94 -15.5s-53.5 -27.166 -74.5 -50.499s-37.333 -53.5 -49 -90.5
s-17.5 -82.167 -17.5 -135.5v-129h543v143c0 112.667 27.5 196.167 82.5 250.5s141.833 81.5 260.5 81.5c12 0 24.5 -0.333008 37.5 -1s25.167 -2.16699 36.5 -4.5s21.333 -5.5 30 -9.5s15.334 -9.33301 20.001 -16l158 -233h-30c-10.667 0 -18.667 4 -24 12l-172 208
c-9.33301 1.33301 -19.333 2.5 -30 3.5s-22.667 1.5 -36 1.5c-41.333 0 -79.166 -4.33301 -113.499 -13s-64 -24.167 -89 -46.5s-44.5 -52.5 -58.5 -90.5s-21 -86 -21 -144v-142h568v-948h-53z" />
    <glyph glyph-name="f_f_icircumflex.liga" unicode="ff&#xee;" horiz-adv-x="1639" 
d="M234 0v906.995l-154 6c-12.667 1.33301 -19 6.33301 -19 15v20h173v130c0 56 6.83301 104.833 20.5 146.5s33 76.334 58 104.001s54.833 48.167 89.5 61.5s72.667 20 114 20c19.333 0 39.5 -1.66699 60.5 -5s39.167 -8.66602 54.5 -15.999l-3 -23
c-1.33301 -5.33301 -4 -8.16602 -8 -8.49902s-10.167 0.333984 -18.5 2.00098s-19.166 3.66699 -32.499 6s-29.333 3.5 -48 3.5c-34 0 -65.333 -5.16699 -94 -15.5s-53.5 -27.166 -74.5 -50.499s-37.333 -53.5 -49 -90.5s-17.5 -82.167 -17.5 -135.5v-129h546v163
c0 56 5.83301 104.167 17.5 144.5s28 73.5 49 99.5s46.5 45.167 76.5 57.5s63.667 18.5 101 18.5c22.667 0 41.667 -2 57 -6v-27c0 -6 -4 -8.66699 -12 -8s-22.333 1 -43 1c-62.667 0 -110.834 -22.333 -144.501 -67s-50.5 -115.667 -50.5 -213v-163h568v-948h-52v908h-515
v-908h-52v908h-545v-908h-53zM1661 1170h-37.001c-3.33301 0 -6.66602 0.666992 -9.99902 2s-7 4 -11 8l-170 184l-7 9l-8 -9l-170 -184c-6.66699 -6.66699 -13.667 -10 -21 -10h-38l214 236h44z" />
    <glyph glyph-name="f_f_itilde.liga" unicode="ff&#x129;" horiz-adv-x="1640" 
d="M234 0v906.995l-154 6c-12.667 1.33301 -19 6.33301 -19 15v20h173v130c0 56 6.83301 104.833 20.5 146.5s33 76.334 58 104.001s54.833 48.167 89.5 61.5s72.667 20 114 20c19.333 0 39.5 -1.66699 60.5 -5s39.167 -8.66602 54.5 -15.999l-3 -23
c-1.33301 -5.33301 -4 -8.16602 -8 -8.49902s-10.167 0.333984 -18.5 2.00098s-19.166 3.66699 -32.499 6s-29.333 3.5 -48 3.5c-34 0 -65.333 -5.16699 -94 -15.5s-53.5 -27.166 -74.5 -50.499s-37.333 -53.5 -49 -90.5s-17.5 -82.167 -17.5 -135.5v-129h546v163
c0 56 5.83301 104.167 17.5 144.5s28 73.5 49 99.5s46.5 45.167 76.5 57.5s63.667 18.5 101 18.5c22.667 0 41.667 -2 57 -6v-27c0 -6 -4 -8.66699 -12 -8s-22.333 1 -43 1c-62.667 0 -110.834 -22.333 -144.501 -67s-50.5 -115.667 -50.5 -213v-163h568v-948h-52v908h-515
v-908h-52v908h-545v-908h-53zM1538 1257c31.333 0 54.6689 10.165 70.002 30.498s23.666 46.5 24.999 78.5h33c0 -20.667 -2.66699 -40 -8 -58s-13.166 -33.667 -23.499 -47s-23.5 -23.833 -39.5 -31.5s-34.667 -11.5 -56 -11.5c-22 0 -42.5 5.83301 -61.5 17.5
s-37.333 24.334 -55 38.001s-35.334 26.334 -53.001 38.001s-35.834 17.5 -54.501 17.5c-30 0 -53 -10.5 -69 -31.5s-24.667 -46.833 -26 -77.5h-35c0 20.667 2.83301 40 8.5 58s14 33.667 25 47s24.5 24 40.5 32s34.333 12 55 12c22 0 42.667 -5.83301 62 -17.5
s37.833 -24.5 55.5 -38.5s35.167 -26.833 52.5 -38.5s35.333 -17.5 54 -17.5z" />
    <glyph glyph-name="f_f_idieresis.liga" unicode="ff&#xef;" horiz-adv-x="1639" 
d="M1329 1282c0 -17.333 -6.66699 -32.5 -20 -45.5s-28.666 -19.5 -45.999 -19.5c-18 0 -33.667 6.5 -47 19.5s-20 28.167 -20 45.5c0 18 6.66699 33.5 20 46.5s29 19.5 47 19.5c17.333 0 32.666 -6.5 45.999 -19.5s20 -28.5 20 -46.5zM1625 1282
c0 -17.333 -6.66699 -32.5 -20 -45.5s-28.666 -19.5 -45.999 -19.5c-18 0 -33.667 6.5 -47 19.5s-20 28.167 -20 45.5c0 18 6.66699 33.5 20 46.5s29 19.5 47 19.5c17.333 0 32.666 -6.5 45.999 -19.5s20 -28.5 20 -46.5zM234 0v906.995l-154 6
c-12.667 1.33301 -19 6.33301 -19 15v20h173v130c0 56 6.83301 104.833 20.5 146.5s33 76.334 58 104.001s54.833 48.167 89.5 61.5s72.667 20 114 20c19.333 0 39.5 -1.66699 60.5 -5s39.167 -8.66602 54.5 -15.999l-3 -23c-1.33301 -5.33301 -4 -8.16602 -8 -8.49902
s-10.167 0.333984 -18.5 2.00098s-19.166 3.66699 -32.499 6s-29.333 3.5 -48 3.5c-34 0 -65.333 -5.16699 -94 -15.5s-53.5 -27.166 -74.5 -50.499s-37.333 -53.5 -49 -90.5s-17.5 -82.167 -17.5 -135.5v-129h546v163c0 56 5.83301 104.167 17.5 144.5s28 73.5 49 99.5
s46.5 45.167 76.5 57.5s63.667 18.5 101 18.5c22.667 0 41.667 -2 57 -6v-27c0 -6 -4 -8.66699 -12 -8s-22.333 1 -43 1c-62.667 0 -110.834 -22.333 -144.501 -67s-50.5 -115.667 -50.5 -213v-163h568v-948h-52v908h-515v-908h-52v908h-545v-908h-53z" />
    <glyph glyph-name="f_f_imacron.liga" unicode="ff&#x12b;" horiz-adv-x="1640" 
d="M234 0v906.995l-154 6c-12.667 1.33301 -19 6.33301 -19 15v20h173v130c0 56 6.83301 104.833 20.5 146.5s33 76.334 58 104.001s54.833 48.167 89.5 61.5s72.667 20 114 20c19.333 0 39.5 -1.66699 60.5 -5s39.167 -8.66602 54.5 -15.999l-3 -23
c-1.33301 -5.33301 -4 -8.16602 -8 -8.49902s-10.167 0.333984 -18.5 2.00098s-19.166 3.66699 -32.499 6s-29.333 3.5 -48 3.5c-34 0 -65.333 -5.16699 -94 -15.5s-53.5 -27.166 -74.5 -50.499s-37.333 -53.5 -49 -90.5s-17.5 -82.167 -17.5 -135.5v-129h546v163
c0 56 5.83301 104.167 17.5 144.5s28 73.5 49 99.5s46.5 45.167 76.5 57.5s63.667 18.5 101 18.5c22.667 0 41.667 -2 57 -6v-27c0 -6 -4 -8.66699 -12 -8s-22.333 1 -43 1c-62.667 0 -110.834 -22.333 -144.501 -67s-50.5 -115.667 -50.5 -213v-163h568v-948h-52v908h-515
v-908h-52v908h-545v-908h-53zM1161 1301h530v-38h-530v38z" />
    <glyph glyph-name="f_f_ibreve.liga" unicode="ff&#x12d;" horiz-adv-x="1639" 
d="M234 0v906.995l-154 6c-12.667 1.33301 -19 6.33301 -19 15v20h173v130c0 56 6.83301 104.833 20.5 146.5s33 76.334 58 104.001s54.833 48.167 89.5 61.5s72.667 20 114 20c19.333 0 39.5 -1.66699 60.5 -5s39.167 -8.66602 54.5 -15.999l-3 -23
c-1.33301 -5.33301 -4 -8.16602 -8 -8.49902s-10.167 0.333984 -18.5 2.00098s-19.166 3.66699 -32.499 6s-29.333 3.5 -48 3.5c-34 0 -65.333 -5.16699 -94 -15.5s-53.5 -27.166 -74.5 -50.499s-37.333 -53.5 -49 -90.5s-17.5 -82.167 -17.5 -135.5v-129h546v163
c0 56 5.83301 104.167 17.5 144.5s28 73.5 49 99.5s46.5 45.167 76.5 57.5s63.667 18.5 101 18.5c22.667 0 41.667 -2 57 -6v-27c0 -6 -4 -8.66699 -12 -8s-22.333 1 -43 1c-62.667 0 -110.834 -22.333 -144.501 -67s-50.5 -115.667 -50.5 -213v-163h568v-948h-52v908h-515
v-908h-52v908h-545v-908h-53zM1426 1171c-40 0 -73.998 6.16699 -101.998 18.5s-51 29.333 -69 51s-31 46.667 -39 75s-12 58.5 -12 90.5h40c0 -26 3.16699 -51 9.5 -75s16.666 -45 30.999 -63s33 -32.5 56 -43.5s51.5 -16.5 85.5 -16.5s62.5 5.5 85.5 16.5
s41.667 25.5 56 43.5s24.666 39 30.999 63s9.5 49 9.5 75h40c0 -32 -4 -62.167 -12 -90.5s-21 -53.333 -39 -75s-41 -38.667 -69 -51s-62 -18.5 -102 -18.5z" />
    <glyph glyph-name="f_f_iogonek.liga" unicode="ff&#x12f;" horiz-adv-x="1639" 
d="M234 0l-0.00488281 906.996l-154 6c-12.667 1.33301 -19 6.33301 -19 15v20h173v130c0 56 6.83301 104.833 20.5 146.5s33 76.334 58 104.001s54.833 48.167 89.5 61.5s72.667 20 114 20c19.333 0 39.5 -1.66699 60.5 -5s39.167 -8.66602 54.5 -15.999l-3 -23
c-1.33301 -5.33301 -4 -8.16602 -8 -8.49902s-10.167 0.333984 -18.5 2.00098s-19.166 3.66699 -32.499 6s-29.333 3.5 -48 3.5c-34 0 -65.333 -5.16699 -94 -15.5s-53.5 -27.166 -74.5 -50.499s-37.333 -53.5 -49 -90.5s-17.5 -82.167 -17.5 -135.5v-129h546v100
c0 61.333 8.66699 115.833 26 163.5s42 88 74 121s70.833 58 116.5 75s96.5 25.5 152.5 25.5c20 0 40.833 -1.83301 62.5 -5.5s40.167 -9.16699 55.5 -16.5l-3 -24c-1.33301 -4 -3.83301 -6 -7.5 -6s-9.66699 0.833008 -18 2.5s-19 3.5 -32 5.5s-29.167 3 -48.5 3
c-49.333 0 -94.166 -7 -134.499 -21s-74.666 -35.333 -102.999 -64s-50.333 -64.5 -66 -107.5s-23.5 -93.833 -23.5 -152.5v-99h568v-948h-3c-13.333 -7.33301 -28.166 -17 -44.499 -29s-31.666 -26 -45.999 -42s-26.333 -33.833 -36 -53.5s-14.5 -40.834 -14.5 -63.501
c0 -35.333 12 -62.666 36 -81.999s54 -29 90 -29c20.667 0 38 2 52 6s25.667 8.5 35 13.5s16.833 9.66699 22.5 14s10.167 6.5 13.5 6.5c4 0 7.33301 -2 10 -6l10 -17c-17.333 -16.667 -39.5 -29.667 -66.5 -39s-55.167 -14 -84.5 -14c-46.667 0 -85 11.833 -115 35.5
s-45 58.167 -45 103.5c0 20.667 4 40.667 12 60s18.333 37.166 31 53.499s27 31.5 43 45.5s32 26.333 48 37v908h-515v-908h-52v908h-545v-908h-53z" />
    <glyph glyph-name="f_f_dotlessi.liga" unicode="ff&#x131;" horiz-adv-x="1639" 
d="M234 0v906.995l-154 6c-12.667 1.33301 -19 6.33301 -19 15v20h173v130c0 56 6.83301 104.833 20.5 146.5s33 76.334 58 104.001s54.833 48.167 89.5 61.5s72.667 20 114 20c19.333 0 39.5 -1.66699 60.5 -5s39.167 -8.66602 54.5 -15.999l-3 -23
c-1.33301 -5.33301 -4 -8.16602 -8 -8.49902s-10.167 0.333984 -18.5 2.00098s-19.166 3.66699 -32.499 6s-29.333 3.5 -48 3.5c-34 0 -65.333 -5.16699 -94 -15.5s-53.5 -27.166 -74.5 -50.499s-37.333 -53.5 -49 -90.5s-17.5 -82.167 -17.5 -135.5v-129h546v163
c0 56 5.83301 104.167 17.5 144.5s28 73.5 49 99.5s46.5 45.167 76.5 57.5s63.667 18.5 101 18.5c22.667 0 41.667 -2 57 -6v-27c0 -6 -4 -8.66699 -12 -8s-22.333 1 -43 1c-62.667 0 -110.834 -22.333 -144.501 -67s-50.5 -115.667 -50.5 -213v-163h568v-948h-52v908h-515
v-908h-52v908h-545v-908h-53z" />
    <glyph glyph-name="f_j.liga" unicode="fj" horiz-adv-x="1041" 
d="M234 0v907l-154 6c-12.667 1.33301 -19 6.33301 -19 15v20h173v100c0 61.333 8.66699 115.833 26 163.5s42.166 88 74.499 121s71.166 58 116.499 75s96 25.5 152 25.5c20 0 41 -1.83301 63 -5.5s40.667 -9.16699 56 -16.5l-3 -24c-1.33301 -4 -3.83301 -6 -7.5 -6
s-9.66699 0.833008 -18 2.5s-19.166 3.5 -32.499 5.5s-29.666 3 -48.999 3c-49.333 0 -94 -7 -134 -21s-74.333 -35.333 -103 -64s-50.667 -64.5 -66 -107.5s-23 -93.833 -23 -152.5v-99h568v-1102c0 -31.333 -4.83301 -60.333 -14.5 -87s-23.5 -49.667 -41.5 -69
s-40.167 -34.5 -66.5 -45.5s-56.5 -16.5 -90.5 -16.5c-18.667 0 -34.834 1.83301 -48.501 5.5s-27.167 8.83398 -40.5 15.501l4 25c2 5.33301 4.83301 8.16602 8.5 8.49902s8.33398 -0.5 14.001 -2.5s13 -4.33301 22 -7s20.167 -4 33.5 -4c56 0 97.833 16 125.5 48
s41.5 75 41.5 129v1062h-514v-908h-53z" />
    <glyph glyph-name="f_f_j.liga" unicode="ffj" horiz-adv-x="1639" 
d="M234 0l-0.00390625 906.995l-154 6c-12.667 1.33301 -19 6.33301 -19 15v20h173v130c0 56 6.83301 104.833 20.5 146.5s33 76.334 58 104.001s54.833 48.167 89.5 61.5s72.667 20 114 20c19.333 0 39.5 -1.66699 60.5 -5s39.167 -8.66602 54.5 -15.999l-3 -23
c-1.33301 -5.33301 -4 -8.16602 -8 -8.49902s-10.167 0.333984 -18.5 2.00098s-19.166 3.66699 -32.499 6s-29.333 3.5 -48 3.5c-34 0 -65.333 -5.16699 -94 -15.5s-53.5 -27.166 -74.5 -50.499s-37.333 -53.5 -49 -90.5s-17.5 -82.167 -17.5 -135.5v-129h546v100
c0 61.333 8.66699 115.833 26 163.5s42 88 74 121s70.833 58 116.5 75s96.5 25.5 152.5 25.5c20 0 40.833 -1.83301 62.5 -5.5s40.167 -9.16699 55.5 -16.5l-3 -24c-1.33301 -4 -3.83301 -6 -7.5 -6s-9.66699 0.833008 -18 2.5s-19 3.5 -32 5.5s-29.167 3 -48.5 3
c-49.333 0 -94.166 -7 -134.499 -21s-74.666 -35.333 -102.999 -64s-50.333 -64.5 -66 -107.5s-23.5 -93.833 -23.5 -152.5v-99h568v-1102c0 -31.333 -4.66699 -60.333 -14 -87s-23.166 -49.667 -41.499 -69s-40.666 -34.5 -66.999 -45.5s-56.5 -16.5 -90.5 -16.5
c-18.667 0 -34.834 1.83301 -48.501 5.5s-27.167 8.83398 -40.5 15.501l5 25c2 5.33301 4.66699 8.16602 8 8.49902s8 -0.5 14 -2.5s13.5 -4.33301 22.5 -7s20.167 -4 33.5 -4c55.333 0 97 16 125 48s42 75 42 129v1062h-515v-908h-52v908h-545v-908h-53z" />
    <glyph glyph-name="f_k.liga" unicode="fk" horiz-adv-x="1581" 
d="M231 0l0.00390625 907.002l-154 6c-12.667 1.33301 -19 6.33301 -19 15v20h173v110c0 58.667 7.33301 112.667 22 162s38.167 92 70.5 128s74.166 64 125.499 84s113.666 30 186.999 30c44 0 86.667 -2.66699 128 -8s83.666 -8 126.999 -8v-897h46c7.33301 0 15 1 23 3
s17 7.66699 27 17l439 397c6 6.66699 12.167 11.667 18.5 15s14.5 5 24.5 5h44l-473 -427c-5.33301 -5.33301 -10.5 -9.83301 -15.5 -13.5s-10.167 -7.16699 -15.5 -10.5c9.33301 -3.33301 17.666 -7.83301 24.999 -13.5s14.333 -11.834 21 -18.501l496 -503h-45
c-6.66699 0 -12.834 1 -18.501 3s-11.167 6.33301 -16.5 13l-463 467c-11.333 11.333 -21.666 19 -30.999 23s-24 6 -44 6h-42v-512h-53v1405c-33.333 5.33301 -67.833 9.83301 -103.5 13.5s-68.5 5.5 -98.5 5.5c-65.333 0 -120.5 -9 -165.5 -27s-81.333 -43.333 -109 -76
s-47.667 -71.334 -60 -116.001s-18.5 -93.667 -18.5 -147v-110h338v-40h-337v-908h-53z" />
    <glyph glyph-name="f_f_k.liga" unicode="ffk" horiz-adv-x="2181" 
d="M234 0l0.000976562 906.997l-154 6c-12.667 1.33301 -19 6.33301 -19 15v20h173v130c0 56 6.83301 104.833 20.5 146.5s33 76.334 58 104.001s54.833 48.167 89.5 61.5s72.667 20 114 20c19.333 0 39.5 -1.66699 60.5 -5s39.167 -8.66602 54.5 -15.999l-3 -23
c-1.33301 -5.33301 -4 -8.16602 -8 -8.49902s-10.167 0.333984 -18.5 2.00098s-19.166 3.66699 -32.499 6s-29.333 3.5 -48 3.5c-34 0 -65.333 -5.16699 -94 -15.5s-53.5 -27.166 -74.5 -50.499s-37.333 -53.5 -49 -90.5s-17.5 -82.167 -17.5 -135.5v-129h546v110
c0 58.667 7.33301 112.667 22 162s38 92 70 128s73.667 64 125 84s113.666 30 186.999 30c42 0 82.5 -2.5 121.5 -7.5s79.167 -7.83301 120.5 -8.5h13v-897h46c7.33301 0 15 1 23 3s17 7.66699 27 17l439 397c6 6.66699 12.167 11.667 18.5 15s14.5 5 24.5 5h44l-473 -427
c-5.33301 -5.33301 -10.5 -9.83301 -15.5 -13.5s-10.167 -7.16699 -15.5 -10.5c9.33301 -3.33301 17.666 -7.83301 24.999 -13.5s14.333 -11.834 21 -18.501l496 -503h-45c-6.66699 0 -12.834 1 -18.501 3s-11.167 6.33301 -16.5 13l-463 467
c-11.333 11.333 -21.666 19 -30.999 23s-24 6 -44 6h-42v-512h-53v1405c-33.333 5.33301 -67.833 9.83301 -103.5 13.5s-68.5 5.5 -98.5 5.5c-65.333 0 -120.5 -9 -165.5 -27s-81.333 -43.333 -109 -76s-47.667 -71.334 -60 -116.001s-18.5 -93.667 -18.5 -147v-110h340v-40
h-339v-908h-52v908h-545v-908h-53z" />
    <glyph glyph-name="f_t.liga" unicode="ft" horiz-adv-x="1284" 
d="M901 908l0.000976562 -709.006c0 -30.667 4 -56.834 12 -78.501s18.667 -39.5 32 -53.5s29.166 -24.167 47.499 -30.5s38.166 -9.5 59.499 -9.5c26 0 48.833 4 68.5 12s36.5 16.667 50.5 26s25.333 18 34 26s15 12 19 12c3.33301 0 7 -2 11 -6l13 -19
c-11.333 -14 -24.5 -26.667 -39.5 -38s-31.5 -21.166 -49.5 -29.499s-36.667 -14.833 -56 -19.5s-39 -7 -59 -7c-61.333 0 -109.333 16.833 -144 50.5s-52 87.834 -52 162.501v711h-564v-908h-53v907l-154 6c-12.667 1.33301 -19 6.33301 -19 15v20h173v141
c0 56 6.83301 104.833 20.5 146.5s33 76.334 58 104.001s54.833 48.167 89.5 61.5s72.667 20 114 20c20 0 40.333 -1.66699 61 -5s38.667 -8.66602 54 -15.999l-3 -23c-0.666992 -5.33301 -3 -8.16602 -7 -8.49902s-10.333 0.333984 -19 2.00098l-32.5 6
c-13 2.33301 -28.833 3.5 -47.5 3.5c-34 0 -65.333 -5.16699 -94 -15.5s-53.5 -27.166 -74.5 -50.499s-37.5 -53.5 -49.5 -90.5s-18 -82.167 -18 -135.5v-140h565l16 380c0 4 1.33301 7.83301 4 11.5s6.33398 5.5 11.001 5.5h22v-397h326v-40h-326z" />
    <glyph glyph-name="f_f_t.liga" unicode="fft" horiz-adv-x="1884" 
d="M234 0l-0.00195312 906.99l-154 6c-12.667 1.33301 -19 6.33301 -19 15v20h173v130c0 56 6.83301 104.833 20.5 146.5s33 76.334 58 104.001s54.833 48.167 89.5 61.5s72.667 20 114 20c19.333 0 39.5 -1.66699 60.5 -5s39.167 -8.66602 54.5 -15.999l-3 -23
c-1.33301 -5.33301 -4 -8.16602 -8 -8.49902s-10.167 0.333984 -18.5 2.00098s-19.166 3.66699 -32.499 6s-29.333 3.5 -48 3.5c-34 0 -65.333 -5.16699 -94 -15.5s-53.5 -27.166 -74.5 -50.499s-37.333 -53.5 -49 -90.5s-17.5 -82.167 -17.5 -135.5v-129h546v141
c0 56 6.83301 104.833 20.5 146.5s32.834 76.334 57.501 104.001s54.334 48.167 89.001 61.5s72.667 20 114 20c20 0 40.333 -1.66699 61 -5s38.667 -8.66602 54 -15.999l-2 -23c-1.33301 -5.33301 -4 -8.16602 -8 -8.49902s-10.333 0.333984 -19 2.00098l-32.5 6
c-13 2.33301 -28.833 3.5 -47.5 3.5c-34 0 -65.333 -5.16699 -94 -15.5s-53.5 -27.166 -74.5 -50.499s-37.5 -53.5 -49.5 -90.5s-18 -82.167 -18 -135.5v-140h565l16 380c0 4 1.33301 7.83301 4 11.5s6.33398 5.5 11.001 5.5h22v-397h326v-40h-326v-709
c0 -30.667 4 -56.834 12 -78.501s18.667 -39.5 32 -53.5s29.166 -24.167 47.499 -30.5s38.166 -9.5 59.499 -9.5c26 0 48.833 4 68.5 12s36.5 16.667 50.5 26s25.333 18 34 26s15 12 19 12c3.33301 0 7 -2 11 -6l13 -19c-22 -28 -51.5 -50.667 -88.5 -68
s-75.167 -26 -114.5 -26c-62 0 -110.333 16.833 -145 50.5s-52 87.834 -52 162.501v711h-564v-908h-52v908h-545v-908h-53z" />
    <glyph glyph-name="t_f.liga" unicode="tf" horiz-adv-x="1318" 
d="M878 0v907.994h-593v-709c0 -30.667 4 -56.834 12 -78.501s18.667 -39.5 32 -53.5s29.166 -24.167 47.499 -30.5s38.166 -9.5 59.499 -9.5c26 0 48.833 4 68.5 12s36.5 16.667 50.5 26s25.333 18 34 26s15 12 19 12c3.33301 0 7 -2 11 -6l13 -19
c-11.333 -14 -24.5 -26.667 -39.5 -38s-31.5 -21.166 -49.5 -29.499s-36.667 -14.833 -56 -19.5s-39 -7 -59 -7c-61.333 0 -109.333 16.833 -144 50.5s-52 87.834 -52 162.501v711h-154c-12.667 0 -19 5 -19 15v18l173 7l15 380c0.666992 4 2.33398 7.83301 5.00098 11.5
s6.33398 5.5 11.001 5.5h22v-397h593v141c0 56 6.83301 104.833 20.5 146.5s33 76.334 58 104.001s54.833 48.167 89.5 61.5s72.667 20 114 20c19.333 0 39.5 -1.66699 60.5 -5s39.167 -8.66602 54.5 -15.999l-3 -23c-0.666992 -5.33301 -3 -8.16602 -7 -8.49902
s-10.333 0.333984 -19 2.00098l-32.5 6c-13 2.33301 -28.833 3.5 -47.5 3.5c-34 0 -65.5 -5.16699 -94.5 -15.5s-54 -27.166 -75 -50.499s-37.333 -53.5 -49 -90.5s-17.5 -82.167 -17.5 -135.5v-140h338v-40h-337v-908h-53z" />
    <glyph glyph-name="t_iogonek.liga" unicode="t&#x12f;" horiz-adv-x="1127" 
d="M912 1274c-18.667 0 -34.667 6.83301 -48 20.5s-20 29.5 -20 47.5c0 18.667 6.66699 34.834 20 48.501s29.333 20.5 48 20.5c18 0 34.167 -6.83301 48.5 -20.5s21.5 -29.834 21.5 -48.501c0 -18 -7.16699 -33.833 -21.5 -47.5s-30.5 -20.5 -48.5 -20.5zM1064 -282
c-17.333 -16.667 -39.5088 -29.668 -66.5088 -39.001s-55.167 -14 -84.5 -14c-46.667 0 -85 11.833 -115 35.5s-45 58.167 -45 103.5c0 20.667 4 40.5 12 59.5s18.333 36.833 31 53.5s27 32 43 46s32 26.333 48 37h-1v908h-605v-709c0 -30.667 4 -56.834 12 -78.501
s18.833 -39.5 32.5 -53.5s29.667 -24.167 48 -30.5s37.833 -9.5 58.5 -9.5c26.667 0 49.834 4 69.501 12s36.334 16.667 50.001 26s24.834 18 33.501 26s15 12 19 12c4.66699 0 8.33398 -2 11.001 -6l13 -19c-22 -28 -51.333 -50.667 -88 -68s-75 -26 -115 -26
c-61.333 0 -109.333 16.833 -144 50.5s-52 87.834 -52 162.501v711h-155c-5.33301 0 -9.66602 1.33301 -12.999 4s-5 6.33398 -5 11.001v18l174 8l14 379c0.666992 4 2.33398 7.83301 5.00098 11.5s6.33398 5.5 11.001 5.5h21v-397h658v-948h-3
c-13.333 -7.33301 -28.166 -17 -44.499 -29s-31.666 -26 -45.999 -42s-26.333 -33.833 -36 -53.5s-14.5 -40.834 -14.5 -63.501c0 -35.333 12 -62.666 36 -81.999s54 -29 90 -29c20.667 0 38 2 52 6s25.667 8.5 35 13.5s16.833 9.66699 22.5 14s10.167 6.5 13.5 6.5
c4 0 7.33301 -2 10 -6z" />
    <glyph glyph-name="t_dotlessi.liga" unicode="t&#x131;" horiz-adv-x="1130" 
d="M942 0l-52 -0.000976562v908h-605v-709c0 -30.667 4 -56.834 12 -78.501s18.667 -39.5 32 -53.5s29.166 -24.167 47.499 -30.5s38.166 -9.5 59.499 -9.5c26 0 48.833 4 68.5 12s36.5 16.667 50.5 26s25.333 18 34 26s15 12 19 12c3.33301 0 7 -2 11 -6l13 -19
c-11.333 -14 -24.5 -26.667 -39.5 -38s-31.5 -21.166 -49.5 -29.499s-36.667 -14.833 -56 -19.5s-39 -7 -59 -7c-61.333 0 -109.333 16.833 -144 50.5s-52 87.834 -52 162.501v711h-154c-12.667 0 -19 5 -19 15v18l174 8l14 379c0.666992 4 2.33398 7.83301 5.00098 11.5
s6.33398 5.5 11.001 5.5h22v-397h657v-948z" />
    <glyph glyph-name="t_t.liga" unicode="tt" horiz-adv-x="1293" 
d="M428 -16c-61.333 0 -109.336 16.832 -144.003 50.499s-52 87.834 -52 162.501v711h-154c-12.667 0 -19 5 -19 15v18l173 7l15 380c0.666992 4 2.33398 7.83301 5.00098 11.5s6.33398 5.5 11.001 5.5h22v-397h572l15 380c0.666992 4 2.33398 7.83301 5.00098 11.5
s6.33398 5.5 11.001 5.5h22v-397h326v-40h-326v-709c0 -30.667 4 -56.834 12 -78.501s18.667 -39.5 32 -53.5s29.166 -24.167 47.499 -30.5s37.833 -9.5 58.5 -9.5c26.667 0 49.834 4 69.501 12s36.334 16.667 50.001 26s24.834 18 33.501 26s15 12 19 12
c3.33301 0 5.66602 -0.666992 6.99902 -2l4 -4l13 -19c-22 -28 -51.333 -50.667 -88 -68s-75 -26 -115 -26c-61.333 0 -109.333 16.833 -144 50.5s-52 87.834 -52 162.501v711h-572v-709c0 -30.667 4 -56.834 12 -78.501s18.667 -39.5 32 -53.5s29.166 -24.167 47.499 -30.5
s38.166 -9.5 59.499 -9.5c26 0 48.833 4 68.5 12s36.5 16.667 50.5 26s25.333 18 34 26s15 12 19 12c3.33301 0 7 -2 11 -6l13 -19c-11.333 -14 -24.5 -26.667 -39.5 -38s-31.5 -21.166 -49.5 -29.499s-36.667 -14.833 -56 -19.5s-39 -7 -59 -7z" />
    <glyph glyph-name="t_t_f.liga" unicode="ttf" horiz-adv-x="1943" 
d="M1503 1089c0 56 6.8291 104.827 20.4961 146.494s33 76.334 58 104.001s54.667 48.167 89 61.5s72.5 20 114.5 20c19.333 0 39.5 -1.66699 60.5 -5s38.833 -8.66602 53.5 -15.999l-2 -23c-1.33301 -5.33301 -4 -8.16602 -8 -8.49902s-10.167 0.333984 -18.5 2.00098
s-19.166 3.66699 -32.499 6s-29.333 3.5 -48 3.5c-34 0 -65.333 -5.16699 -94 -15.5s-53.5 -27.166 -74.5 -50.499s-37.333 -53.5 -49 -90.5s-17.5 -82.167 -17.5 -135.5v-140h338v-40h-337v-908h-53v908h-593v-709c0 -30.667 4 -56.834 12 -78.501s18.667 -39.5 32 -53.5
s29.166 -24.167 47.499 -30.5s37.833 -9.5 58.5 -9.5c26.667 0 49.834 4 69.501 12s36.334 16.667 50.001 26s24.834 18 33.501 26s15 12 19 12c3.33301 0 5.66602 -0.666992 6.99902 -2l4 -4l13 -19c-22 -28 -51.333 -50.667 -88 -68s-75 -26 -115 -26
c-61.333 0 -109.333 16.833 -144 50.5s-52 87.834 -52 162.501v711h-572v-709c0 -30.667 4 -56.834 12 -78.501s18.667 -39.5 32 -53.5s29.166 -24.167 47.499 -30.5s38.166 -9.5 59.499 -9.5c26 0 48.833 4 68.5 12s36.5 16.667 50.5 26s25.333 18 34 26s15 12 19 12
c3.33301 0 7 -2 11 -6l13 -19c-11.333 -14 -24.5 -26.667 -39.5 -38s-31.5 -21.166 -49.5 -29.499s-36.667 -14.833 -56 -19.5s-39 -7 -59 -7c-61.333 0 -109.333 16.833 -144 50.5s-52 87.834 -52 162.501v711h-154c-12.667 0 -19 5 -19 15v18l174 8l14 379
c0.666992 4 2.33398 7.83301 5.00098 11.5s6.33398 5.5 11.001 5.5h22v-397h573l14 380c0.666992 4 2.33398 7.83301 5.00098 11.5s6.33398 5.5 11.001 5.5h22v-397h593v141z" />
    <glyph glyph-name="t_t_iogonek.liga" unicode="tt&#x12f;" horiz-adv-x="1731" 
d="M1517 1274c-18.667 0 -34.834 6.83301 -48.501 20.5s-20.5 29.5 -20.5 47.5c0 18.667 6.83301 34.834 20.5 48.501s29.834 20.5 48.501 20.5c18 0 34 -6.83301 48 -20.5s21 -29.834 21 -48.501c0 -18 -7 -33.833 -21 -47.5s-30 -20.5 -48 -20.5zM1669 -282
c-17.333 -16.667 -39.5059 -29.6689 -66.5059 -39.002s-55.167 -14 -84.5 -14c-46.667 0 -85 11.833 -115 35.5s-45 58.167 -45 103.5c0 20.667 4 40.5 12 59.5s18.333 36.833 31 53.5s27 32 43 46s32 26.333 48 37h-1v908h-585v-709c0 -30.667 4 -56.834 12 -78.501
s18.667 -39.5 32 -53.5s29.166 -24.167 47.499 -30.5s38.166 -9.5 59.499 -9.5c26 0 48.833 4 68.5 12s36.5 16.667 50.5 26s25.333 18 34 26s15 12 19 12c3.33301 0 7 -2 11 -6l13 -19c-11.333 -14 -24.5 -26.667 -39.5 -38s-31.5 -21.166 -49.5 -29.499
s-36.667 -14.833 -56 -19.5s-39 -7 -59 -7c-61.333 0 -109.333 16.833 -144 50.5s-52 87.834 -52 162.501v711h-572v-709c0 -30.667 4 -56.834 12 -78.501s18.833 -39.5 32.5 -53.5s29.667 -24.167 48 -30.5s37.833 -9.5 58.5 -9.5c26.667 0 49.834 4 69.501 12
s36.334 16.667 50.001 26s24.834 18 33.501 26s15 12 19 12c4.66699 0 8.33398 -2 11.001 -6l13 -19c-22 -28 -51.333 -50.667 -88 -68s-75 -26 -115 -26c-61.333 0 -109.333 16.833 -144 50.5s-52 87.834 -52 162.501v711h-155c-5.33301 0 -9.66602 1.33301 -12.999 4
s-5 6.33398 -5 11.001v18l174 8l14 379c0.666992 4 2.33398 7.83301 5.00098 11.5s6.33398 5.5 11.001 5.5h21v-397h573l15 380c0.666992 4 2.16699 7.83301 4.5 11.5s6.16602 5.5 11.499 5.5h21v-397h638v-948h-3c-13.333 -7.33301 -28.166 -17 -44.499 -29
s-31.666 -26 -45.999 -42s-26.333 -33.833 -36 -53.5s-14.5 -40.834 -14.5 -63.501c0 -35.333 12 -62.666 36 -81.999s54 -29 90 -29c20.667 0 38 2 52 6s25.667 8.5 35 13.5s16.833 9.66699 22.5 14s10.167 6.5 13.5 6.5c4 0 7.33301 -2 10 -6z" />
    <glyph glyph-name="t_t_dotlessi.liga" unicode="tt&#x131;" horiz-adv-x="1735" 
d="M1547 0l-53.0029 -0.000976562v908h-584v-709c0 -30.667 4 -56.834 12 -78.501s18.667 -39.5 32 -53.5s29.166 -24.167 47.499 -30.5s37.833 -9.5 58.5 -9.5c26.667 0 49.834 4 69.501 12s36.334 16.667 50.001 26s24.834 18 33.501 26s15 12 19 12
c3.33301 0 5.66602 -0.666992 6.99902 -2l4 -4l13 -19c-22 -28 -51.333 -50.667 -88 -68s-75 -26 -115 -26c-61.333 0 -109.333 16.833 -144 50.5s-52 87.834 -52 162.501v711h-572v-709c0 -30.667 4 -56.834 12 -78.501s18.667 -39.5 32 -53.5s29.166 -24.167 47.499 -30.5
s38.166 -9.5 59.499 -9.5c26 0 48.833 4 68.5 12s36.5 16.667 50.5 26s25.333 18 34 26s15 12 19 12c3.33301 0 7 -2 11 -6l13 -19c-11.333 -14 -24.5 -26.667 -39.5 -38s-31.5 -21.166 -49.5 -29.499s-36.667 -14.833 -56 -19.5s-39 -7 -59 -7
c-61.333 0 -109.333 16.833 -144 50.5s-52 87.834 -52 162.501v711h-154c-12.667 0 -19 5 -19 15v18l174 8l14 379c0.666992 4 2.33398 7.83301 5.00098 11.5s6.33398 5.5 11.001 5.5h22v-397h573l14 380c0.666992 4 2.33398 7.83301 5.00098 11.5s6.33398 5.5 11.001 5.5
h22v-397h637v-948z" />
    <glyph glyph-name="f_uni01D0.liga" unicode="f&#x1d0;" horiz-adv-x="1041" 
d="M234 0v907l-154 6c-12.667 1.33301 -19 6.33301 -19 15v20h173v163c0 56 5.83301 104.167 17.5 144.5s28.167 73.5 49.5 99.5s47 45.167 77 57.5s63.333 18.5 100 18.5c22.667 0 41.667 -2 57 -6v-27c0 -6 -3.83301 -8.66699 -11.5 -8s-22.167 1 -43.5 1
c-62 0 -109.833 -22.333 -143.5 -67s-50.5 -115.667 -50.5 -213v-163h568v-948h-53v908h-514v-908h-53zM596 1406h38.001c8.66699 0 15.334 -3 20.001 -9l167 -185c1.33301 -2 2.66602 -3.83301 3.99902 -5.5s2.66602 -3.5 3.99902 -5.5l9 11l167 185c6 6 12.667 9 20 9h37
l-211 -236h-44z" />
    <glyph glyph-name="f_uni0209.liga" unicode="f&#x209;" horiz-adv-x="1041" 
d="M508 1431c13.333 0 26 -2.33301 38 -7s23.333 -14 34 -28l183 -237h-27c-10.667 0 -18.667 4 -24 12l-197 220c-76.667 -1.33301 -134 -24.333 -172 -69s-57 -115 -57 -211v-163h568v-948h-53v908h-514v-908h-53v907l-154 6c-12.667 1.33301 -19 6.33301 -19 15v20h173
v163c0 56 6.5 104.167 19.5 144.5s31.5 73.5 55.5 99.5s52.833 45.167 86.5 57.5s71.167 18.5 112.5 18.5zM776 1422c13.333 0 23.167 -1.83301 29.5 -5.5s12.833 -10.5 19.5 -20.5l159 -237h-25c-10.667 0 -18.667 4 -24 12l-199 251h40z" />
    <glyph glyph-name="f_uni020B.liga" unicode="f&#x20b;" horiz-adv-x="1041" 
d="M234 0v907l-154 6c-12.667 1.33301 -19 6.33301 -19 15v20h173v163c0 56 5.83301 104.167 17.5 144.5s28.167 73.5 49.5 99.5s47 45.167 77 57.5s63.333 18.5 100 18.5c22.667 0 41.667 -2 57 -6v-27c0 -6 -3.83301 -8.66699 -11.5 -8s-22.167 1 -43.5 1
c-62 0 -109.833 -22.333 -143.5 -67s-50.5 -115.667 -50.5 -213v-163h568v-948h-53v908h-514v-908h-53zM828 1416c40 0 73.9971 -6.16699 101.997 -18.5s51 -29.333 69 -51s31 -46.667 39 -75s12 -58.5 12 -90.5h-39c0 26 -3.16699 50.833 -9.5 74.5
s-16.666 44.667 -30.999 63s-33.166 32.833 -56.499 43.5s-52 16 -86 16s-62.5 -5.33301 -85.5 -16s-41.667 -25.167 -56 -43.5s-24.666 -39.333 -30.999 -63s-9.5 -48.5 -9.5 -74.5h-39c0 32 4 62.167 12 90.5s20.833 53.333 38.5 75s40.5 38.667 68.5 51s62 18.5 102 18.5
z" />
    <glyph glyph-name="f_uni1E2F.liga" unicode="f&#x1e2f;" horiz-adv-x="1041" 
d="M741 1200c0 -16.667 -6.66699 -31.334 -20 -44.001s-28.333 -19 -45 -19c-17.333 0 -32.333 6.33301 -45 19s-19 27.334 -19 44.001c0 17.333 6.33301 32.5 19 45.5s27.667 19.5 45 19.5c8 0 16 -1.66699 24 -5s15 -8 21 -14s10.833 -13 14.5 -21s5.5 -16.333 5.5 -25z
M1037 1200c0 -16.667 -6.66699 -31.334 -20 -44.001s-28.333 -19 -45 -19c-17.333 0 -32.5 6.33301 -45.5 19s-19.5 27.334 -19.5 44.001c0 17.333 6.5 32.5 19.5 45.5s28.167 19.5 45.5 19.5c8 0 16 -1.66699 24 -5s15 -8 21 -14s10.833 -13 14.5 -21s5.5 -16.333 5.5 -25z
M1048 1571l-205 -245c-7.33301 -7.33301 -16 -11 -26 -11h-30l159 230c6.66699 10 13 16.833 19 20.5s15.667 5.5 29 5.5h54zM234 0v907l-154 6c-12.667 1.33301 -19 6.33301 -19 15v20h173v163c0 56 5.83301 104.167 17.5 144.5s28.167 73.5 49.5 99.5s47 45.167 77 57.5
s63.333 18.5 100 18.5c22.667 0 41.667 -2 57 -6v-27c0 -6 -3.83301 -8.66699 -11.5 -8s-22.167 1 -43.5 1c-62 0 -109.833 -22.333 -143.5 -67s-50.5 -115.667 -50.5 -213v-163h568v-948h-53v908h-514v-908h-53z" />
    <glyph glyph-name="f_f_uni01D0.liga" unicode="ff&#x1d0;" horiz-adv-x="1639" 
d="M234 0v906.995l-154 6c-12.667 1.33301 -19 6.33301 -19 15v20h173v130c0 56 6.83301 104.833 20.5 146.5s33 76.334 58 104.001s54.833 48.167 89.5 61.5s72.667 20 114 20c19.333 0 39.5 -1.66699 60.5 -5s39.167 -8.66602 54.5 -15.999l-3 -23
c-1.33301 -5.33301 -4 -8.16602 -8 -8.49902s-10.167 0.333984 -18.5 2.00098s-19.166 3.66699 -32.499 6s-29.333 3.5 -48 3.5c-34 0 -65.333 -5.16699 -94 -15.5s-53.5 -27.166 -74.5 -50.499s-37.333 -53.5 -49 -90.5s-17.5 -82.167 -17.5 -135.5v-129h546v163
c0 56 5.83301 104.167 17.5 144.5s28 73.5 49 99.5s46.5 45.167 76.5 57.5s63.667 18.5 101 18.5c22.667 0 41.667 -2 57 -6v-27c0 -6 -4 -8.66699 -12 -8s-22.333 1 -43 1c-62.667 0 -110.834 -22.333 -144.501 -67s-50.5 -115.667 -50.5 -213v-163h568v-948h-52v908h-515
v-908h-52v908h-545v-908h-53zM1192 1406h37.002c8 0 15 -3 21 -9l167 -185c1.33301 -2 2.66602 -3.83301 3.99902 -5.5s2.66602 -3.5 3.99902 -5.5l8 11l168 185c6 6 12.667 9 20 9h37l-211 -236h-44z" />
    <glyph glyph-name="f_f_uni0209.liga" unicode="ff&#x209;" horiz-adv-x="1639" 
d="M234 0l-0.000976562 906.995l-154 6c-12.667 1.33301 -19 6.33301 -19 15v20h173v130c0 56 6.83301 104.833 20.5 146.5s33 76.334 58 104.001s54.833 48.167 89.5 61.5s72.667 20 114 20c19.333 0 39.5 -1.66699 60.5 -5s39.167 -8.66602 54.5 -15.999l-3 -23
c-1.33301 -5.33301 -4 -8.16602 -8 -8.49902s-10.167 0.333984 -18.5 2.00098s-19.166 3.66699 -32.499 6s-29.333 3.5 -48 3.5c-34 0 -65.333 -5.16699 -94 -15.5s-53.5 -27.166 -74.5 -50.499s-37.333 -53.5 -49 -90.5s-17.5 -82.167 -17.5 -135.5v-129h546v163
c0 112 24.333 193.333 73 244s117.667 76 207 76c13.333 0 26 -2.33301 38 -7s23.333 -14 34 -28l183 -237h-27c-9.33301 0 -17.333 4 -24 12l-197 220c-76.667 -1.33301 -135.167 -24.333 -175.5 -69s-60.5 -115 -60.5 -211v-163h568v-948h-52v908h-515v-908h-52v908h-545
v-908h-53zM1380 1422c13.333 0 23.167 -1.83301 29.5 -5.5s12.833 -10.5 19.5 -20.5l159 -237h-25c-10.667 0 -18.667 4 -24 12l-199 251h40z" />
    <glyph glyph-name="f_f_uni020B.liga" unicode="ff&#x20b;" horiz-adv-x="1639" 
d="M1399 0v907.995h-515v-908h-52v908h-545v-908h-53v907l-154 6c-12.667 1.33301 -19 6.33301 -19 15v20h173v130c0 56 6.83301 104.833 20.5 146.5s33 76.334 58 104.001s54.833 48.167 89.5 61.5s72.667 20 114 20c19.333 0 39.5 -1.66699 60.5 -5
s39.167 -8.66602 54.5 -15.999l-3 -23c-1.33301 -5.33301 -4 -8.16602 -8 -8.49902s-10.167 0.333984 -18.5 2.00098s-19.166 3.66699 -32.499 6s-29.333 3.5 -48 3.5c-34 0 -65.333 -5.16699 -94 -15.5s-53.5 -27.166 -74.5 -50.499s-37.333 -53.5 -49 -90.5
s-17.5 -82.167 -17.5 -135.5v-129h546v163c0 56 5.83301 104.167 17.5 144.5s28 73.5 49 99.5s46.5 45.167 76.5 57.5s63.667 18.5 101 18.5c22.667 0 41.667 -2 57 -6v-27c0 -6 -4 -8.66699 -12 -8s-22.333 1 -43 1c-62.667 0 -110.834 -22.333 -144.501 -67
s-50.5 -115.667 -50.5 -213v-163h568v-948h-52zM1426 1416c40 0 73.9971 -6.16699 101.997 -18.5s50.833 -29.333 68.5 -51s30.5 -46.667 38.5 -75s12 -58.5 12 -90.5h-39c0 26 -3.16699 50.833 -9.5 74.5s-16.666 44.667 -30.999 63s-33 32.833 -56 43.5s-51.5 16 -85.5 16
s-62.667 -5.33301 -86 -16s-42.166 -25.167 -56.499 -43.5s-24.666 -39.333 -30.999 -63s-9.5 -48.5 -9.5 -74.5h-39c0 32 4 62.167 12 90.5s21 53.333 39 75s41 38.667 69 51s62 18.5 102 18.5z" />
    <glyph glyph-name="f_f_uni1E2F.liga" unicode="ff&#x1e2f;" horiz-adv-x="1639" 
d="M234 0v906.995l-154 6c-12.667 1.33301 -19 6.33301 -19 15v20h173v130c0 56 6.83301 104.833 20.5 146.5s33 76.334 58 104.001s54.833 48.167 89.5 61.5s72.667 20 114 20c19.333 0 39.5 -1.66699 60.5 -5s39.167 -8.66602 54.5 -15.999l-3 -23
c-1.33301 -5.33301 -4 -8.16602 -8 -8.49902s-10.167 0.333984 -18.5 2.00098s-19.166 3.66699 -32.499 6s-29.333 3.5 -48 3.5c-34 0 -65.333 -5.16699 -94 -15.5s-53.5 -27.166 -74.5 -50.499s-37.333 -53.5 -49 -90.5s-17.5 -82.167 -17.5 -135.5v-129h546v163
c0 56 5.83301 104.167 17.5 144.5s28 73.5 49 99.5s46.5 45.167 76.5 57.5s63.667 18.5 101 18.5c22.667 0 41.667 -2 57 -6v-27c0 -6 -4 -8.66699 -12 -8s-22.333 1 -43 1c-62.667 0 -110.834 -22.333 -144.501 -67s-50.5 -115.667 -50.5 -213v-163h568v-948h-52v908h-515
v-908h-52v908h-545v-908h-53zM1649 1571l-204.998 -245c-6.66699 -7.33301 -15.334 -11 -26.001 -11h-29l158 230c6.66699 10 13.167 16.833 19.5 20.5s16.166 5.5 29.499 5.5h53zM1343 1200c0 -16.667 -6.66699 -31.334 -20 -44.001s-28.333 -19 -45 -19
c-17.333 0 -32.5 6.33301 -45.5 19s-19.5 27.334 -19.5 44.001c0 17.333 6.5 32.5 19.5 45.5s28.167 19.5 45.5 19.5c8 0 16 -1.66699 24 -5s15 -8 21 -14s10.833 -13 14.5 -21s5.5 -16.333 5.5 -25zM1638 1200c0 -16.667 -6.66699 -31.334 -20 -44.001s-28.333 -19 -45 -19
c-17.333 0 -32.333 6.33301 -45 19s-19 27.334 -19 44.001c0 17.333 6.33301 32.5 19 45.5s27.667 19.5 45 19.5c8 0 16 -1.66699 24 -5s15 -8 21 -14s10.833 -13 14.5 -21s5.5 -16.333 5.5 -25z" />
    <glyph glyph-name="f_uni0237.liga" unicode="f&#x237;" horiz-adv-x="1041" 
d="M234 0v907l-154 6c-12.667 1.33301 -19 6.33301 -19 15v20h173v163c0 56 5.83301 104.167 17.5 144.5s28.167 73.5 49.5 99.5s47 45.167 77 57.5s63.333 18.5 100 18.5c22.667 0 41.667 -2 57 -6v-27c0 -6 -3.83301 -8.66699 -11.5 -8s-22.167 1 -43.5 1
c-62 0 -109.833 -22.333 -143.5 -67s-50.5 -115.667 -50.5 -213v-163h568v-1102c0 -31.333 -4.83301 -60.333 -14.5 -87s-23.5 -49.667 -41.5 -69s-40.167 -34.5 -66.5 -45.5s-56.5 -16.5 -90.5 -16.5c-18.667 0 -34.834 1.83301 -48.501 5.5s-27.167 8.83398 -40.5 15.501
l4 25c2 5.33301 4.83301 8.16602 8.5 8.49902s8.33398 -0.5 14.001 -2.5s13 -4.33301 22 -7s20.167 -4 33.5 -4c56 0 97.833 16 125.5 48s41.5 75 41.5 129v1062h-514v-908h-53z" />
    <glyph glyph-name="f_f_uni0237.liga" unicode="ff&#x237;" horiz-adv-x="1639" 
d="M234 0l-0.000976562 906.995l-154 6c-12.667 1.33301 -19 6.33301 -19 15v20h173v130c0 56 6.83301 104.833 20.5 146.5s33 76.334 58 104.001s54.833 48.167 89.5 61.5s72.667 20 114 20c19.333 0 39.5 -1.66699 60.5 -5s39.167 -8.66602 54.5 -15.999l-3 -23
c-1.33301 -5.33301 -4 -8.16602 -8 -8.49902s-10.167 0.333984 -18.5 2.00098s-19.166 3.66699 -32.499 6s-29.333 3.5 -48 3.5c-34 0 -65.333 -5.16699 -94 -15.5s-53.5 -27.166 -74.5 -50.499s-37.333 -53.5 -49 -90.5s-17.5 -82.167 -17.5 -135.5v-129h546v163
c0 56 5.83301 104.167 17.5 144.5s28 73.5 49 99.5s46.5 45.167 76.5 57.5s63.667 18.5 101 18.5c22.667 0 41.667 -2 57 -6v-27c0 -6 -4 -8.66699 -12 -8s-22.333 1 -43 1c-62.667 0 -110.834 -22.333 -144.501 -67s-50.5 -115.667 -50.5 -213v-163h568v-1102
c0 -31.333 -4.66699 -60.333 -14 -87s-23.166 -49.667 -41.499 -69s-40.666 -34.5 -66.999 -45.5s-56.5 -16.5 -90.5 -16.5c-18.667 0 -34.834 1.83301 -48.501 5.5s-27.167 8.83398 -40.5 15.501l5 25c2 5.33301 4.66699 8.16602 8 8.49902s8 -0.5 14 -2.5
s13.5 -4.33301 22.5 -7s20.167 -4 33.5 -4c55.333 0 97 16 125 48s42 75 42 129v1062h-515v-908h-52v908h-545v-908h-53z" />
    <glyph glyph-name="f_jcircumflex.liga" unicode="f&#x135;" horiz-adv-x="1042" 
d="M234 0v907l-154 6c-12.667 1.33301 -19 6.33301 -19 15v20h173v163c0 56 5.83301 104.167 17.5 144.5s28.167 73.5 49.5 99.5s47 45.167 77 57.5s63.333 18.5 100 18.5c22.667 0 41.667 -2 57 -6v-27c0 -6 -3.83301 -8.66699 -11.5 -8s-22.167 1 -43.5 1
c-62 0 -109.833 -22.333 -143.5 -67s-50.5 -115.667 -50.5 -213v-163h568v-1102c0 -31.333 -4.83301 -60.333 -14.5 -87s-23.5 -49.667 -41.5 -69s-40.167 -34.5 -66.5 -45.5s-56.5 -16.5 -90.5 -16.5c-18.667 0 -34.834 1.83301 -48.501 5.5s-27.167 8.83398 -40.5 15.501
l4 25c2 5.33301 4.83301 8.16602 8.5 8.49902s8.33398 -0.5 14.001 -2.5s13 -4.33301 22 -7s20.167 -4 33.5 -4c56 0 97.833 16 125.5 48s41.5 75 41.5 129v1062h-514v-908h-53zM1066 1170h-37c-7.33301 0 -14.333 3.33301 -21 10l-170 184l-7 9l-8 -9l-170 -184
c-6.66699 -6.66699 -13.667 -10 -21 -10h-38l214 236h44z" />
    <glyph glyph-name="f_lcaron.liga" unicode="f&#x13e;" horiz-adv-x="1097" 
d="M234 0l0.000976562 907l-154 6c-12.667 1.33301 -19 6.33301 -19 15v20h173v72c0 60 8.66699 115.167 26 165.5s42.5 93.5 75.5 129.5s73.5 64 121.5 84s103 30 165 30c43.333 0 85.666 -2 126.999 -6s80 -6.66699 116 -8h45v-1415h-53v1379
c-34 0.666992 -71.833 2.5 -113.5 5.5s-80.5 4.5 -116.5 4.5c-54 0 -102.167 -8.66699 -144.5 -26s-78 -42 -107 -74s-51.167 -70.833 -66.5 -116.5s-23 -96.5 -23 -152.5v-72h301v-40h-300v-908h-53zM1140 1448c7.33301 0 12.3301 -2.00098 14.9971 -6.00098s4 -10 4 -18
c0 -7.33301 -1.16699 -17.166 -3.5 -29.499s-5.66602 -28.333 -9.99902 -48s-10.166 -43.334 -17.499 -71.001l-26 -98.5c-2 -5.33301 -4.66699 -9.66602 -8 -12.999s-8.66602 -5 -15.999 -5h-16l48 289h30z" />
    <glyph glyph-name="f_lcommaaccent.liga" unicode="f&#x13c;" horiz-adv-x="1097" 
d="M234 0l0.000976562 907l-154 6c-12.667 1.33301 -19 6.33301 -19 15v20h173v72c0 60 8.66699 115.167 26 165.5s42.5 93.5 75.5 129.5s73.5 64 121.5 84s103 30 165 30c43.333 0 85.666 -2 126.999 -6s80 -6.66699 116 -8h45v-1415h-53v1379
c-34 0.666992 -71.833 2.5 -113.5 5.5s-80.5 4.5 -116.5 4.5c-54 0 -102.167 -8.66699 -144.5 -26s-78 -42 -107 -74s-51.167 -70.833 -66.5 -116.5s-23 -96.5 -23 -152.5v-72h301v-40h-300v-908h-53zM892.001 -107c7.33301 0 12.333 -2 15 -6s4 -10 4 -18
c0 -7.33301 -1 -17.333 -3 -30s-5.33301 -28.5 -10 -47.5l-17 -69l-24 -94.5c-2 -6 -4.5 -10.5 -7.5 -13.5s-8.16699 -4.5 -15.5 -4.5h-17l47 283h28z" />
    <glyph glyph-name="f_uni021B.liga" unicode="f&#x21b;" horiz-adv-x="1284" 
d="M901 908l0.000976562 -709.006c0 -30.667 4 -56.834 12 -78.501s18.667 -39.5 32 -53.5s29.166 -24.167 47.499 -30.5s38.166 -9.5 59.499 -9.5c26 0 48.833 4 68.5 12s36.5 16.667 50.5 26s25.333 18 34 26s15 12 19 12c3.33301 0 7 -2 11 -6l13 -19
c-11.333 -14 -24.5 -26.667 -39.5 -38s-31.5 -21.166 -49.5 -29.499s-36.667 -14.833 -56 -19.5s-39 -7 -59 -7c-61.333 0 -109.333 16.833 -144 50.5s-52 87.834 -52 162.501v711h-564v-908h-53v907l-154 6c-12.667 1.33301 -19 6.33301 -19 15v20h173v141
c0 56 6.83301 104.833 20.5 146.5s33 76.334 58 104.001s54.833 48.167 89.5 61.5s72.667 20 114 20c20 0 40.333 -1.66699 61 -5s38.667 -8.66602 54 -15.999l-3 -23c-0.666992 -5.33301 -3 -8.16602 -7 -8.49902s-10.333 0.333984 -19 2.00098l-32.5 6
c-13 2.33301 -28.833 3.5 -47.5 3.5c-34 0 -65.333 -5.16699 -94 -15.5s-53.5 -27.166 -74.5 -50.499s-37.5 -53.5 -49.5 -90.5s-18 -82.167 -18 -135.5v-140h565l16 380c0 4 1.33301 7.83301 4 11.5s6.33398 5.5 11.001 5.5h22v-397h326v-40h-326zM1043 -107.006
c7.33301 0 12.333 -2 15 -6s4 -10 4 -18c0 -7.33301 -1 -17.333 -3 -30s-5.33301 -28.5 -10 -47.5l-17 -69l-24 -94.5c-2 -6 -4.5 -10.5 -7.5 -13.5s-8.16699 -4.5 -15.5 -4.5h-17l47 283h28z" />
    <glyph glyph-name="f_tcaron.liga" unicode="f&#x165;" horiz-adv-x="1284" 
d="M901 908l0.000976562 -709.006c0 -30.667 4 -56.834 12 -78.501s18.667 -39.5 32 -53.5s29.166 -24.167 47.499 -30.5s38.166 -9.5 59.499 -9.5c26 0 48.833 4 68.5 12s36.5 16.667 50.5 26s25.333 18 34 26s15 12 19 12c3.33301 0 7 -2 11 -6l13 -19
c-11.333 -14 -24.5 -26.667 -39.5 -38s-31.5 -21.166 -49.5 -29.499s-36.667 -14.833 -56 -19.5s-39 -7 -59 -7c-61.333 0 -109.333 16.833 -144 50.5s-52 87.834 -52 162.501v711h-564v-908h-53v907l-154 6c-12.667 1.33301 -19 6.33301 -19 15v20h173v141
c0 56 6.83301 104.833 20.5 146.5s33 76.334 58 104.001s54.833 48.167 89.5 61.5s72.667 20 114 20c20 0 40.333 -1.66699 61 -5s38.667 -8.66602 54 -15.999l-3 -23c-0.666992 -5.33301 -3 -8.16602 -7 -8.49902s-10.333 0.333984 -19 2.00098l-32.5 6
c-13 2.33301 -28.833 3.5 -47.5 3.5c-34 0 -65.333 -5.16699 -94 -15.5s-53.5 -27.166 -74.5 -50.499s-37.5 -53.5 -49.5 -90.5s-18 -82.167 -18 -135.5v-140h565l16 380c0 4 1.33301 7.83301 4 11.5s6.33398 5.5 11.001 5.5h22v-397h326v-40h-326zM1288 1447.99
c7.33301 0 12.3301 -2.00098 14.9971 -6.00098s4 -10 4 -18c0 -7.33301 -1.16699 -17.166 -3.5 -29.499s-5.66602 -28.333 -9.99902 -48s-10.166 -43.334 -17.499 -71.001l-26 -98.5c-2 -5.33301 -4.66699 -9.66602 -8 -12.999s-8.66602 -5 -15.999 -5h-16l48 289h30z" />
    <glyph glyph-name="f_uni1ECB.liga" unicode="f&#x1ecb;" horiz-adv-x="1041" 
d="M234 0v907l-154 6c-12.667 1.33301 -19 6.33301 -19 15v20h173v100c0 61.333 8.66699 115.833 26 163.5s42.166 88 74.499 121s71.166 58 116.499 75s96 25.5 152 25.5c20 0 41 -1.83301 63 -5.5s40.667 -9.16699 56 -16.5l-3 -24c-1.33301 -4 -3.83301 -6 -7.5 -6
s-9.66699 0.833008 -18 2.5s-19.166 3.5 -32.499 5.5s-29.666 3 -48.999 3c-49.333 0 -94 -7 -134 -21s-74.333 -35.333 -103 -64s-50.667 -64.5 -66 -107.5s-23 -93.833 -23 -152.5v-99h568v-948h-53v908h-514v-908h-53zM894 -269c0 -17.333 -6.83301 -32.333 -20.5 -45
s-29.167 -19 -46.5 -19c-18 0 -33.5 6.33301 -46.5 19s-19.5 27.667 -19.5 45c0 18 6.5 33.667 19.5 47s28.5 20 46.5 20c17.333 0 32.833 -6.66699 46.5 -20s20.5 -29 20.5 -47z" />
    <glyph glyph-name="f_uni1E2D.liga" unicode="f&#x1e2d;" horiz-adv-x="1041" 
d="M234 0v907l-154 6c-12.667 1.33301 -19 6.33301 -19 15v20h173v100c0 61.333 8.66699 115.833 26 163.5s42.166 88 74.499 121s71.166 58 116.499 75s96 25.5 152 25.5c20 0 41 -1.83301 63 -5.5s40.667 -9.16699 56 -16.5l-3 -24c-1.33301 -4 -3.83301 -6 -7.5 -6
s-9.66699 0.833008 -18 2.5s-19.166 3.5 -32.499 5.5s-29.666 3 -48.999 3c-49.333 0 -94 -7 -134 -21s-74.333 -35.333 -103 -64s-50.667 -64.5 -66 -107.5s-23 -93.833 -23 -152.5v-99h568v-948h-53v908h-514v-908h-53zM935 -229c31.333 0 54.6689 10.165 70.002 30.498
s23.666 46.5 24.999 78.5h33c0 -20.667 -2.66699 -40 -8 -58s-13.166 -33.667 -23.499 -47s-23.5 -23.833 -39.5 -31.5s-34.667 -11.5 -56 -11.5c-22 0 -42.5 5.83301 -61.5 17.5s-37.333 24.334 -55 38.001s-35.334 26.334 -53.001 38.001s-35.834 17.5 -54.501 17.5
c-30 0 -53 -10.5 -69 -31.5s-24.667 -46.833 -26 -77.5h-35c0 20.667 2.83301 40 8.5 58s14 33.667 25 47s24.5 24 40.5 32s34.333 12 55 12c22 0 42.667 -5.83301 62 -17.5s37.833 -24.5 55.5 -38.5s35.167 -26.833 52.5 -38.5s35.333 -17.5 54 -17.5z" />
    <glyph glyph-name="f_uni0268.liga" unicode="f&#x268;" horiz-adv-x="1071" 
d="M801 547v361h-514v-908h-53v907l-154 6c-12.667 1.33301 -19 6.33301 -19 15v20h173v100c0 61.333 8.66699 115.833 26 163.5s42.166 88 74.499 121s71.166 58 116.499 75s96 25.5 152 25.5c20 0 41 -1.83301 63 -5.5s40.667 -9.16699 56 -16.5l-3 -24
c-1.33301 -4 -3.83301 -6 -7.5 -6s-9.66699 0.833008 -18 2.5s-19.166 3.5 -32.499 5.5s-29.666 3 -48.999 3c-49.333 0 -94 -7 -134 -21s-74.333 -35.333 -103 -64s-50.667 -64.5 -66 -107.5s-23 -93.833 -23 -152.5v-99h568v-401h174v-40h-174v-507h-53v507h-184v40h184z
" />
    <glyph glyph-name="f_iacute.liga" unicode="f&#xed;" horiz-adv-x="1041" 
d="M234 0v907l-154 6c-12.667 1.33301 -19 6.33301 -19 15v20h173v163c0 56 5.83301 104.167 17.5 144.5s28.167 73.5 49.5 99.5s47 45.167 77 57.5s63.333 18.5 100 18.5c22.667 0 41.667 -2 57 -6v-27c0 -6 -3.83301 -8.66699 -11.5 -8s-22.167 1 -43.5 1
c-62 0 -109.833 -22.333 -143.5 -67s-50.5 -115.667 -50.5 -213v-163h568v-948h-53v908h-514v-908h-53zM1017 1422l-208 -251c-6 -8 -14 -12 -24 -12h-32l162 237c6.66699 10 13 16.833 19 20.5s15.667 5.5 29 5.5h54z" />
    <glyph glyph-name="f_uni1EC9.liga" unicode="f&#x1ec9;" horiz-adv-x="1042" 
d="M234 0v907l-154 6c-12.667 1.33301 -19 6.33301 -19 15v20h173v163c0 56 5.83301 104.167 17.5 144.5s28.167 73.5 49.5 99.5s47 45.167 77 57.5s63.333 18.5 100 18.5c22.667 0 41.667 -2 57 -6v-27c0 -6 -3.83301 -8.66699 -11.5 -8s-22.167 1 -43.5 1
c-62 0 -109.833 -22.333 -143.5 -67s-50.5 -115.667 -50.5 -213v-163h568v-948h-53v908h-514v-908h-53zM699 1367c32.667 26.667 72.333 39.999 119 39.999c44.667 0 77.5 -10.167 98.5 -30.5s31.5 -44.5 31.5 -72.5c0 -24.667 -8.66699 -46.167 -26 -64.5
s-45 -32.166 -83 -41.499l-6 -78h-29v98c36.667 5.33301 63.167 15.333 79.5 30s24.5 32 24.5 52c0 8.66699 -1.66699 17.667 -5 27s-8.83301 17.5 -16.5 24.5s-17.5 12.833 -29.5 17.5s-26.667 7 -44 7c-15.333 0 -28.166 -1.5 -38.499 -4.5s-19 -6.5 -26 -10.5
s-12.833 -7.5 -17.5 -10.5s-8.33398 -4.5 -11.001 -4.5c-4 0 -7 1.66699 -9 5z" />
    <glyph glyph-name="f_f_uni1ECB.liga" unicode="ff&#x1ecb;" horiz-adv-x="1639" 
d="M234 0l-0.00292969 906.995l-154 6c-12.667 1.33301 -19 6.33301 -19 15v20h173v130c0 56 6.83301 104.833 20.5 146.5s33 76.334 58 104.001s54.833 48.167 89.5 61.5s72.667 20 114 20c19.333 0 39.5 -1.66699 60.5 -5s39.167 -8.66602 54.5 -15.999l-3 -23
c-1.33301 -5.33301 -4 -8.16602 -8 -8.49902s-10.167 0.333984 -18.5 2.00098s-19.166 3.66699 -32.499 6s-29.333 3.5 -48 3.5c-34 0 -65.333 -5.16699 -94 -15.5s-53.5 -27.166 -74.5 -50.499s-37.333 -53.5 -49 -90.5s-17.5 -82.167 -17.5 -135.5v-129h546v100
c0 61.333 8.66699 115.833 26 163.5s42 88 74 121s70.833 58 116.5 75s96.5 25.5 152.5 25.5c20 0 40.833 -1.83301 62.5 -5.5s40.167 -9.16699 55.5 -16.5l-3 -24c-1.33301 -4 -3.83301 -6 -7.5 -6s-9.66699 0.833008 -18 2.5s-19 3.5 -32 5.5s-29.167 3 -48.5 3
c-49.333 0 -94.166 -7 -134.499 -21s-74.666 -35.333 -102.999 -64s-50.333 -64.5 -66 -107.5s-23.5 -93.833 -23.5 -152.5v-99h568v-948h-52v908h-515v-908h-52v908h-545v-908h-53zM1492 -269.005c0 -17.333 -6.83301 -32.333 -20.5 -45s-29.167 -19 -46.5 -19
c-18 0 -33.5 6.33301 -46.5 19s-19.5 27.667 -19.5 45c0 18 6.5 33.667 19.5 47s28.5 20 46.5 20c17.333 0 32.833 -6.66699 46.5 -20s20.5 -29 20.5 -47z" />
    <glyph glyph-name="f_f_uni1E2D.liga" unicode="ff&#x1e2d;" horiz-adv-x="1639" 
d="M234 0l-0.00292969 906.995l-154 6c-12.667 1.33301 -19 6.33301 -19 15v20h173v130c0 56 6.83301 104.833 20.5 146.5s33 76.334 58 104.001s54.833 48.167 89.5 61.5s72.667 20 114 20c19.333 0 39.5 -1.66699 60.5 -5s39.167 -8.66602 54.5 -15.999l-3 -23
c-1.33301 -5.33301 -4 -8.16602 -8 -8.49902s-10.167 0.333984 -18.5 2.00098s-19.166 3.66699 -32.499 6s-29.333 3.5 -48 3.5c-34 0 -65.333 -5.16699 -94 -15.5s-53.5 -27.166 -74.5 -50.499s-37.333 -53.5 -49 -90.5s-17.5 -82.167 -17.5 -135.5v-129h546v100
c0 61.333 8.66699 115.833 26 163.5s42 88 74 121s70.833 58 116.5 75s96.5 25.5 152.5 25.5c20 0 40.833 -1.83301 62.5 -5.5s40.167 -9.16699 55.5 -16.5l-3 -24c-1.33301 -4 -3.83301 -6 -7.5 -6s-9.66699 0.833008 -18 2.5s-19 3.5 -32 5.5s-29.167 3 -48.5 3
c-49.333 0 -94.166 -7 -134.499 -21s-74.666 -35.333 -102.999 -64s-50.333 -64.5 -66 -107.5s-23.5 -93.833 -23.5 -152.5v-99h568v-948h-52v908h-515v-908h-52v908h-545v-908h-53zM1533 -229.005c31.333 0 54.6689 10.165 70.002 30.498s23.666 46.5 24.999 78.5h33
c0 -20.667 -2.66699 -40 -8 -58s-13.166 -33.667 -23.499 -47s-23.5 -23.833 -39.5 -31.5s-34.667 -11.5 -56 -11.5c-22 0 -42.5 5.83301 -61.5 17.5s-37.333 24.334 -55 38.001s-35.334 26.334 -53.001 38.001s-35.834 17.5 -54.501 17.5c-30 0 -53 -10.5 -69 -31.5
s-24.667 -46.833 -26 -77.5h-35c0 20.667 2.83301 40 8.5 58s14 33.667 25 47s24.5 24 40.5 32s34.333 12 55 12c22 0 42.667 -5.83301 62 -17.5s37.833 -24.5 55.5 -38.5s35.167 -26.833 52.5 -38.5s35.333 -17.5 54 -17.5z" />
    <glyph glyph-name="f_f_uni0268.liga" unicode="ff&#x268;" horiz-adv-x="1669" 
d="M1399 547l-0.00292969 360.995h-515v-908h-52v908h-545v-908h-53v907l-154 6c-12.667 1.33301 -19 6.33301 -19 15v20h173v130c0 56 6.83301 104.833 20.5 146.5s33 76.334 58 104.001s54.833 48.167 89.5 61.5s72.667 20 114 20c19.333 0 39.5 -1.66699 60.5 -5
s39.167 -8.66602 54.5 -15.999l-3 -23c-1.33301 -5.33301 -4 -8.16602 -8 -8.49902s-10.167 0.333984 -18.5 2.00098s-19.166 3.66699 -32.499 6s-29.333 3.5 -48 3.5c-34 0 -65.333 -5.16699 -94 -15.5s-53.5 -27.166 -74.5 -50.499s-37.333 -53.5 -49 -90.5
s-17.5 -82.167 -17.5 -135.5v-129h546v100c0 61.333 8.66699 115.833 26 163.5s42 88 74 121s70.833 58 116.5 75s96.5 25.5 152.5 25.5c20 0 40.833 -1.83301 62.5 -5.5s40.167 -9.16699 55.5 -16.5l-3 -24c-1.33301 -4 -3.83301 -6 -7.5 -6s-9.66699 0.833008 -18 2.5
s-19 3.5 -32 5.5s-29.167 3 -48.5 3c-49.333 0 -94.166 -7 -134.499 -21s-74.666 -35.333 -102.999 -64s-50.333 -64.5 -66 -107.5s-23.5 -93.833 -23.5 -152.5v-99h568v-401h175v-40h-175v-507h-52v507h-184v40h184z" />
    <glyph glyph-name="f_f_iacute.liga" unicode="ff&#xed;" horiz-adv-x="1639" 
d="M234 0v906.995l-154 6c-12.667 1.33301 -19 6.33301 -19 15v20h173v130c0 56 6.83301 104.833 20.5 146.5s33 76.334 58 104.001s54.833 48.167 89.5 61.5s72.667 20 114 20c19.333 0 39.5 -1.66699 60.5 -5s39.167 -8.66602 54.5 -15.999l-3 -23
c-1.33301 -5.33301 -4 -8.16602 -8 -8.49902s-10.167 0.333984 -18.5 2.00098s-19.166 3.66699 -32.499 6s-29.333 3.5 -48 3.5c-34 0 -65.333 -5.16699 -94 -15.5s-53.5 -27.166 -74.5 -50.499s-37.333 -53.5 -49 -90.5s-17.5 -82.167 -17.5 -135.5v-129h546v163
c0 56 5.83301 104.167 17.5 144.5s28 73.5 49 99.5s46.5 45.167 76.5 57.5s63.667 18.5 101 18.5c22.667 0 41.667 -2 57 -6v-27c0 -6 -4 -8.66699 -12 -8s-22.333 1 -43 1c-62.667 0 -110.834 -22.333 -144.501 -67s-50.5 -115.667 -50.5 -213v-163h568v-948h-52v908h-515
v-908h-52v908h-545v-908h-53zM1616 1422l-208 -251c-6 -8 -14 -12 -24 -12h-32l162 237c6.66699 10 13 16.833 19 20.5s15.667 5.5 29 5.5h54z" />
    <glyph glyph-name="f_f_uni1EC9.liga" unicode="ff&#x1ec9;" horiz-adv-x="1627" 
d="M234 0v906.995l-154 6c-12.667 1.33301 -19 6.33301 -19 15v20h173v130c0 56 6.83301 104.833 20.5 146.5s33 76.334 58 104.001s54.833 48.167 89.5 61.5s72.667 20 114 20c19.333 0 39.5 -1.66699 60.5 -5s39.167 -8.66602 54.5 -15.999l-3 -23
c-1.33301 -5.33301 -4 -8.16602 -8 -8.49902s-10.167 0.333984 -18.5 2.00098s-19.166 3.66699 -32.499 6s-29.333 3.5 -48 3.5c-34 0 -65.333 -5.16699 -94 -15.5s-53.5 -27.166 -74.5 -50.499s-37.333 -53.5 -49 -90.5s-17.5 -82.167 -17.5 -135.5v-129h546v163
c0 56 5.83301 104.167 17.5 144.5s28 73.5 49 99.5s46.5 45.167 76.5 57.5s63.667 18.5 101 18.5c22.667 0 41.667 -2 57 -6v-27c0 -6 -4 -8.66699 -12 -8s-22.333 1 -43 1c-62.667 0 -110.834 -22.333 -144.501 -67s-50.5 -115.667 -50.5 -213v-163h568v-948h-52v908h-515
v-908h-52v908h-545v-908h-53zM1297 1367c32.667 26.667 72.333 39.999 119 39.999c44.667 0 77.5 -10.167 98.5 -30.5s31.5 -44.5 31.5 -72.5c0 -24.667 -8.66699 -46.167 -26 -64.5s-45 -32.166 -83 -41.499l-6 -78h-29v98c36.667 5.33301 63.167 15.333 79.5 30
s24.5 32 24.5 52c0 8.66699 -1.66699 17.667 -5 27s-8.83301 17.5 -16.5 24.5s-17.5 12.833 -29.5 17.5s-26.667 7 -44 7c-15.333 0 -28.166 -1.5 -38.499 -4.5s-19 -6.5 -26 -10.5s-12.833 -7.5 -17.5 -10.5s-8.33398 -4.5 -11.001 -4.5c-4 0 -7 1.66699 -9 5z" />
    <glyph glyph-name="f_lacute.liga" unicode="f&#x13a;" horiz-adv-x="1097" 
d="M234 0l0.000976562 907l-154 6c-12.667 1.33301 -19 6.33301 -19 15v20h173v72c0 60 8.66699 115.167 26 165.5s42.5 93.5 75.5 129.5s73.5 64 121.5 84s103 30 165 30c43.333 0 85.666 -2 126.999 -6s80 -6.66699 116 -8h45v-1415h-53v1379
c-34 0.666992 -71.833 2.5 -113.5 5.5s-80.5 4.5 -116.5 4.5c-54 0 -102.167 -8.66699 -144.5 -26s-78 -42 -107 -74s-51.167 -70.833 -66.5 -116.5s-23 -96.5 -23 -152.5v-72h301v-40h-300v-908h-53zM1188 1836l-329 -287.999c-6.66699 -6 -15.334 -9 -26.001 -9h-34
l272 279c6.66699 7.33301 13.334 12.166 20.001 14.499s16.667 3.5 30 3.5h67z" />
    <glyph glyph-name="t_i.liga" unicode="ti" horiz-adv-x="1131" 
d="M942 0l-52 -0.000976562v908h-605v-709c0 -30.667 4 -56.834 12 -78.501s18.667 -39.5 32 -53.5s29.166 -24.167 47.499 -30.5s38.166 -9.5 59.499 -9.5c26 0 48.833 4 68.5 12s36.5 16.667 50.5 26s25.333 18 34 26s15 12 19 12c3.33301 0 7 -2 11 -6l13 -19
c-11.333 -14 -24.5 -26.667 -39.5 -38s-31.5 -21.166 -49.5 -29.499s-36.667 -14.833 -56 -19.5s-39 -7 -59 -7c-61.333 0 -109.333 16.833 -144 50.5s-52 87.834 -52 162.501v711h-154c-12.667 0 -19 5 -19 15v18l174 8l14 379c0.666992 4 2.33398 7.83301 5.00098 11.5
s6.33398 5.5 11.001 5.5h22v-397h657v-948zM987 1356c0 -8.66699 -2.00293 -17.0029 -6.00293 -25.0029s-9.16699 -15.167 -15.5 -21.5s-13.666 -11.333 -21.999 -15s-16.833 -5.5 -25.5 -5.5c-9.33301 0 -18.166 1.83301 -26.499 5.5s-15.666 8.66699 -21.999 15
s-11.333 13.5 -15 21.5s-5.5 16.333 -5.5 25c0 18.667 6.83301 34.834 20.5 48.501s29.834 20.5 48.501 20.5c8.66699 0 17.167 -1.83301 25.5 -5.5s15.666 -8.66699 21.999 -15s11.5 -13.666 15.5 -21.999s6 -17.166 6 -26.499z" />
    <glyph glyph-name="t_igrave.liga" unicode="t&#xec;" horiz-adv-x="1131" 
d="M942 0l-52 -0.000976562v908h-605v-709c0 -30.667 4 -56.834 12 -78.501s18.667 -39.5 32 -53.5s29.166 -24.167 47.499 -30.5s38.166 -9.5 59.499 -9.5c26 0 48.833 4 68.5 12s36.5 16.667 50.5 26s25.333 18 34 26s15 12 19 12c3.33301 0 7 -2 11 -6l13 -19
c-11.333 -14 -24.5 -26.667 -39.5 -38s-31.5 -21.166 -49.5 -29.499s-36.667 -14.833 -56 -19.5s-39 -7 -59 -7c-61.333 0 -109.333 16.833 -144 50.5s-52 87.834 -52 162.501v711h-154c-12.667 0 -19 5 -19 15v18l174 8l14 379c0.666992 4 2.33398 7.83301 5.00098 11.5
s6.33398 5.5 11.001 5.5h22v-397h657v-948zM797 1422c13.333 0 23.167 -1.83301 29.5 -5.5s12.833 -10.5 19.5 -20.5l161 -237h-30c-10.667 0 -19 4 -25 12l-208 251h53z" />
    <glyph glyph-name="t_iacute.liga" unicode="t&#xed;" horiz-adv-x="1126" 
d="M938 0l-52 -0.000976562v908h-605v-709c0 -30.667 4 -56.834 12 -78.501s18.667 -39.5 32 -53.5s29.166 -24.167 47.499 -30.5s38.166 -9.5 59.499 -9.5c26 0 48.833 4 68.5 12s36.5 16.667 50.5 26s25.333 18 34 26s15 12 19 12c3.33301 0 7 -2 11 -6l13 -19
c-11.333 -14 -24.5 -26.667 -39.5 -38s-31.5 -21.166 -49.5 -29.499s-36.667 -14.833 -56 -19.5s-39 -7 -59 -7c-61.333 0 -109.333 16.833 -144 50.5s-52 87.834 -52 162.501v711h-154c-12.667 0 -19 5 -19 15v18l174 8l14 379c0.666992 4 2.33398 7.83301 5.00098 11.5
s6.33398 5.5 11.001 5.5h22v-397h657v-948zM1105 1422l-208 -251c-6 -8 -14 -12 -24 -12h-32l162 237c6.66699 10 13 16.833 19 20.5s15.667 5.5 29 5.5h54z" />
    <glyph glyph-name="t_icircumflex.liga" unicode="t&#xee;" horiz-adv-x="1130" 
d="M942 0l-52 -0.000976562v908h-605v-709c0 -30.667 4 -56.834 12 -78.501s18.667 -39.5 32 -53.5s29.166 -24.167 47.499 -30.5s38.166 -9.5 59.499 -9.5c26 0 48.833 4 68.5 12s36.5 16.667 50.5 26s25.333 18 34 26s15 12 19 12c3.33301 0 7 -2 11 -6l13 -19
c-11.333 -14 -24.5 -26.667 -39.5 -38s-31.5 -21.166 -49.5 -29.499s-36.667 -14.833 -56 -19.5s-39 -7 -59 -7c-61.333 0 -109.333 16.833 -144 50.5s-52 87.834 -52 162.501v711h-154c-12.667 0 -19 5 -19 15v18l174 8l14 379c0.666992 4 2.33398 7.83301 5.00098 11.5
s6.33398 5.5 11.001 5.5h22v-397h657v-948zM1154 1170h-37.0029c-3.33301 0 -6.66602 0.666992 -9.99902 2s-7 4 -11 8l-170 184c-1.33301 1.33301 -2.5 2.83301 -3.5 4.5s-2.16699 3.16699 -3.5 4.5c-1.33301 -1.33301 -2.66602 -2.83301 -3.99902 -4.5
s-2.66602 -3.16699 -3.99902 -4.5l-170 -184c-6.66699 -6.66699 -13.667 -10 -21 -10h-38l214 236h44z" />
    <glyph glyph-name="t_idieresis.liga" unicode="t&#xef;" horiz-adv-x="1130" 
d="M942 0l-52 -0.000976562v908h-605v-709c0 -30.667 4 -56.834 12 -78.501s18.667 -39.5 32 -53.5s29.166 -24.167 47.499 -30.5s38.166 -9.5 59.499 -9.5c26 0 48.833 4 68.5 12s36.5 16.667 50.5 26s25.333 18 34 26s15 12 19 12c3.33301 0 7 -2 11 -6l13 -19
c-11.333 -14 -24.5 -26.667 -39.5 -38s-31.5 -21.166 -49.5 -29.499s-36.667 -14.833 -56 -19.5s-39 -7 -59 -7c-61.333 0 -109.333 16.833 -144 50.5s-52 87.834 -52 162.501v711h-154c-12.667 0 -19 5 -19 15v18l174 8l14 379c0.666992 4 2.33398 7.83301 5.00098 11.5
s6.33398 5.5 11.001 5.5h22v-397h657v-948zM855 1282c0 -17.333 -6.83301 -32.5 -20.5 -45.5s-29.167 -19.5 -46.5 -19.5c-18 0 -33.5 6.5 -46.5 19.5s-19.5 28.167 -19.5 45.5c0 18 6.5 33.5 19.5 46.5s28.5 19.5 46.5 19.5c17.333 0 32.833 -6.5 46.5 -19.5
s20.5 -28.5 20.5 -46.5zM1114 1282c0 -17.333 -6.66699 -32.5 -20 -45.5s-28.666 -19.5 -45.999 -19.5c-18 0 -33.667 6.5 -47 19.5s-20 28.167 -20 45.5c0 18 6.66699 33.5 20 46.5s29 19.5 47 19.5c17.333 0 32.666 -6.5 45.999 -19.5s20 -28.5 20 -46.5z" />
    <glyph glyph-name="t_imacron.liga" unicode="t&#x12b;" horiz-adv-x="1131" 
d="M942 0l-52 -0.000976562v908h-605v-709c0 -30.667 4 -56.834 12 -78.501s18.667 -39.5 32 -53.5s29.166 -24.167 47.499 -30.5s38.166 -9.5 59.499 -9.5c26 0 48.833 4 68.5 12s36.5 16.667 50.5 26s25.333 18 34 26s15 12 19 12c3.33301 0 7 -2 11 -6l13 -19
c-11.333 -14 -24.5 -26.667 -39.5 -38s-31.5 -21.166 -49.5 -29.499s-36.667 -14.833 -56 -19.5s-39 -7 -59 -7c-61.333 0 -109.333 16.833 -144 50.5s-52 87.834 -52 162.501v711h-154c-12.667 0 -19 5 -19 15v18l174 8l14 379c0.666992 4 2.33398 7.83301 5.00098 11.5
s6.33398 5.5 11.001 5.5h22v-397h657v-948zM653 1301h530v-38h-530v38z" />
    <glyph glyph-name="t_itilde.liga" unicode="t&#x129;" horiz-adv-x="1127" 
d="M938 0l-52 -0.000976562v908h-605v-709c0 -30.667 4 -56.834 12 -78.501s18.667 -39.5 32 -53.5s29.166 -24.167 47.499 -30.5s38.166 -9.5 59.499 -9.5c26 0 48.833 4 68.5 12s36.5 16.667 50.5 26s25.333 18 34 26s15 12 19 12c3.33301 0 7 -2 11 -6l13 -19
c-11.333 -14 -24.5 -26.667 -39.5 -38s-31.5 -21.166 -49.5 -29.499s-36.667 -14.833 -56 -19.5s-39 -7 -59 -7c-61.333 0 -109.333 16.833 -144 50.5s-52 87.834 -52 162.501v711h-154c-12.667 0 -19 5 -19 15v18l174 8l14 379c0.666992 4 2.33398 7.83301 5.00098 11.5
s6.33398 5.5 11.001 5.5h22v-397h657v-948zM1031 1257c31.333 0 54.6689 10.165 70.002 30.498s23.666 46.5 24.999 78.5h33c0 -20.667 -2.66699 -40 -8 -58s-13.166 -33.667 -23.499 -47s-23.5 -23.833 -39.5 -31.5s-34.667 -11.5 -56 -11.5
c-22 0 -42.5 5.83301 -61.5 17.5s-37.333 24.334 -55 38.001s-35.334 26.334 -53.001 38.001s-35.834 17.5 -54.501 17.5c-30 0 -53 -10.5 -69 -31.5s-24.667 -46.833 -26 -77.5h-35c0 20.667 2.83301 40 8.5 58s14 33.667 25 47s24.5 24 40.5 32s34.333 12 55 12
c22 0 42.667 -5.83301 62 -17.5s37.833 -24.5 55.5 -38.5s35.167 -26.833 52.5 -38.5s35.333 -17.5 54 -17.5z" />
    <glyph glyph-name="t_ibreve.liga" unicode="t&#x12d;" horiz-adv-x="1130" 
d="M942 0l-52 -0.000976562v908h-605v-709c0 -30.667 4 -56.834 12 -78.501s18.667 -39.5 32 -53.5s29.166 -24.167 47.499 -30.5s38.166 -9.5 59.499 -9.5c26 0 48.833 4 68.5 12s36.5 16.667 50.5 26s25.333 18 34 26s15 12 19 12c3.33301 0 7 -2 11 -6l13 -19
c-11.333 -14 -24.5 -26.667 -39.5 -38s-31.5 -21.166 -49.5 -29.499s-36.667 -14.833 -56 -19.5s-39 -7 -59 -7c-61.333 0 -109.333 16.833 -144 50.5s-52 87.834 -52 162.501v711h-154c-12.667 0 -19 5 -19 15v18l174 8l14 379c0.666992 4 2.33398 7.83301 5.00098 11.5
s6.33398 5.5 11.001 5.5h22v-397h657v-948zM918 1171c-40 0 -73.998 6.16699 -101.998 18.5s-51 29.333 -69 51s-31 46.667 -39 75s-12 58.5 -12 90.5h40c0 -26 3.16699 -51 9.5 -75s16.666 -45 30.999 -63s33 -32.5 56 -43.5s51.5 -16.5 85.5 -16.5s62.5 5.5 85.5 16.5
s41.667 25.5 56 43.5s24.666 39 30.999 63s9.5 49 9.5 75h40c0 -32 -4 -62.167 -12 -90.5s-21 -53.333 -39 -75s-41 -38.667 -69 -51s-62 -18.5 -102 -18.5z" />
    <glyph glyph-name="t_uni01D0.liga" unicode="t&#x1d0;" horiz-adv-x="1130" 
d="M942 0l-52 -0.000976562v908h-605v-709c0 -30.667 4 -56.834 12 -78.501s18.667 -39.5 32 -53.5s29.166 -24.167 47.499 -30.5s38.166 -9.5 59.499 -9.5c26 0 48.833 4 68.5 12s36.5 16.667 50.5 26s25.333 18 34 26s15 12 19 12c3.33301 0 7 -2 11 -6l13 -19
c-11.333 -14 -24.5 -26.667 -39.5 -38s-31.5 -21.166 -49.5 -29.499s-36.667 -14.833 -56 -19.5s-39 -7 -59 -7c-61.333 0 -109.333 16.833 -144 50.5s-52 87.834 -52 162.501v711h-154c-12.667 0 -19 5 -19 15v18l174 8l14 379c0.666992 4 2.33398 7.83301 5.00098 11.5
s6.33398 5.5 11.001 5.5h22v-397h657v-948zM1154 1406l-213.999 -236h-44l-214 236h38c3.33301 0 6.83301 -1 10.5 -3s6.83398 -4 9.50098 -6l170 -185c4 -4 6.66699 -7 8 -9c1.33301 1.33301 2.66602 2.83301 3.99902 4.5s2.66602 3.16699 3.99902 4.5l171 185
c6 6 12.667 9 20 9h37z" />
    <glyph glyph-name="t_uni1E2D.liga" unicode="t&#x1e2d;" horiz-adv-x="1127" 
d="M938 0l-52 -0.000976562v908h-605v-709c0 -30.667 4 -56.834 12 -78.501s18.667 -39.5 32 -53.5s29.166 -24.167 47.499 -30.5s38.166 -9.5 59.499 -9.5c26 0 48.833 4 68.5 12s36.5 16.667 50.5 26s25.333 18 34 26s15 12 19 12c3.33301 0 7 -2 11 -6l13 -19
c-11.333 -14 -24.5 -26.667 -39.5 -38s-31.5 -21.166 -49.5 -29.499s-36.667 -14.833 -56 -19.5s-39 -7 -59 -7c-61.333 0 -109.333 16.833 -144 50.5s-52 87.834 -52 162.501v711h-154c-12.667 0 -19 5 -19 15v18l174 8l14 379c0.666992 4 2.33398 7.83301 5.00098 11.5
s6.33398 5.5 11.001 5.5h22v-397h657v-948zM983 1356c0 -8.66699 -2.00293 -17.0029 -6.00293 -25.0029s-9.16699 -15.167 -15.5 -21.5s-13.666 -11.333 -21.999 -15s-16.833 -5.5 -25.5 -5.5c-9.33301 0 -18.166 1.83301 -26.499 5.5s-15.666 8.66699 -21.999 15
s-11.333 13.5 -15 21.5s-5.5 16.333 -5.5 25c0 18.667 6.83301 34.834 20.5 48.501s29.834 20.5 48.501 20.5c8.66699 0 17.167 -1.83301 25.5 -5.5s15.666 -8.66699 21.999 -15s11.5 -13.666 15.5 -21.999s6 -17.166 6 -26.499zM1021 -229.004
c31.333 0 54.6689 10.165 70.002 30.498s23.666 46.5 24.999 78.5h33c0 -20.667 -2.66699 -40 -8 -58s-13.166 -33.667 -23.499 -47s-23.5 -23.833 -39.5 -31.5s-34.667 -11.5 -56 -11.5c-22 0 -42.5 5.83301 -61.5 17.5s-37.333 24.334 -55 38.001
s-35.334 26.334 -53.001 38.001s-35.834 17.5 -54.501 17.5c-30 0 -53 -10.5 -69 -31.5s-24.667 -46.833 -26 -77.5h-35c0 20.667 2.83301 40 8.5 58s14 33.667 25 47s24.5 24 40.5 32s34.333 12 55 12c22 0 42.667 -5.83301 62 -17.5s37.833 -24.5 55.5 -38.5
s35.167 -26.833 52.5 -38.5s35.333 -17.5 54 -17.5z" />
    <glyph glyph-name="t_uni1E2F.liga" unicode="t&#x1e2f;" horiz-adv-x="1126" 
d="M938 0l-52 -0.000976562v908h-605v-709c0 -30.667 4 -56.834 12 -78.501s18.667 -39.5 32 -53.5s29.166 -24.167 47.499 -30.5s38.166 -9.5 59.499 -9.5c26 0 48.833 4 68.5 12s36.5 16.667 50.5 26s25.333 18 34 26s15 12 19 12c3.33301 0 7 -2 11 -6l13 -19
c-11.333 -14 -24.5 -26.667 -39.5 -38s-31.5 -21.166 -49.5 -29.499s-36.667 -14.833 -56 -19.5s-39 -7 -59 -7c-61.333 0 -109.333 16.833 -144 50.5s-52 87.834 -52 162.501v711h-154c-12.667 0 -19 5 -19 15v18l174 8l14 379c0.666992 4 2.33398 7.83301 5.00098 11.5
s6.33398 5.5 11.001 5.5h22v-397h657v-948zM1154 1720l-208 -251c-6 -8 -14 -12 -24 -12h-32l162 237c6.66699 10 13 16.833 19 20.5s15.667 5.5 29 5.5h54zM812 1282c0 -17.333 -6.83301 -32.5 -20.5 -45.5s-29.167 -19.5 -46.5 -19.5c-18 0 -33.5 6.5 -46.5 19.5
s-19.5 28.167 -19.5 45.5c0 18 6.5 33.5 19.5 46.5s28.5 19.5 46.5 19.5c17.333 0 32.833 -6.5 46.5 -19.5s20.5 -28.5 20.5 -46.5zM1149 1282c0 -17.333 -6.66699 -32.5 -20 -45.5s-28.666 -19.5 -45.999 -19.5c-18 0 -33.667 6.5 -47 19.5s-20 28.167 -20 45.5
c0 18 6.66699 33.5 20 46.5s29 19.5 47 19.5c17.333 0 32.666 -6.5 45.999 -19.5s20 -28.5 20 -46.5z" />
    <glyph glyph-name="t_uni0268.liga" unicode="t&#x268;" horiz-adv-x="1164" 
d="M918 1289c-9.33301 0 -18.1689 1.83008 -26.502 5.49707s-15.666 8.66699 -21.999 15s-11.333 13.5 -15 21.5s-5.5 16.333 -5.5 25c0 18.667 6.83301 34.834 20.5 48.501s29.834 20.5 48.501 20.5c8.66699 0 17.167 -1.83301 25.5 -5.5s15.666 -8.66699 21.999 -15
s11.5 -13.666 15.5 -21.999s6 -17.166 6 -26.499c0 -8.66699 -2 -17 -6 -25s-9.16699 -15.167 -15.5 -21.5s-13.666 -11.333 -21.999 -15s-16.833 -5.5 -25.5 -5.5zM1117 506.997l-175 -0.000976562v-507h-52v507h-184v40h184v361h-605v-709c0 -30.667 4 -56.834 12 -78.501
s18.667 -39.5 32 -53.5s29.166 -24.167 47.499 -30.5s38.166 -9.5 59.499 -9.5c26 0 48.833 4 68.5 12s36.5 16.667 50.5 26s25.333 18 34 26s15 12 19 12c3.33301 0 7 -2 11 -6l13 -19c-11.333 -14 -24.5 -26.667 -39.5 -38s-31.5 -21.166 -49.5 -29.499
s-36.667 -14.833 -56 -19.5s-39 -7 -59 -7c-61.333 0 -109.333 16.833 -144 50.5s-52 87.834 -52 162.501v711h-154c-12.667 0 -19 5 -19 15v18l174 8l14 379c0.666992 4 2.33398 7.83301 5.00098 11.5s6.33398 5.5 11.001 5.5h22v-397h657v-401h175v-40z" />
    <glyph glyph-name="t_uni020B.liga" unicode="t&#x20b;" horiz-adv-x="1130" 
d="M942 0l-52 -0.000976562v908h-605v-709c0 -30.667 4 -56.834 12 -78.501s18.667 -39.5 32 -53.5s29.166 -24.167 47.499 -30.5s38.166 -9.5 59.499 -9.5c26 0 48.833 4 68.5 12s36.5 16.667 50.5 26s25.333 18 34 26s15 12 19 12c3.33301 0 7 -2 11 -6l13 -19
c-11.333 -14 -24.5 -26.667 -39.5 -38s-31.5 -21.166 -49.5 -29.499s-36.667 -14.833 -56 -19.5s-39 -7 -59 -7c-61.333 0 -109.333 16.833 -144 50.5s-52 87.834 -52 162.501v711h-154c-12.667 0 -19 5 -19 15v18l174 8l14 379c0.666992 4 2.33398 7.83301 5.00098 11.5
s6.33398 5.5 11.001 5.5h22v-397h657v-948zM918 1421c40 0 73.998 -6.16699 101.998 -18.5s51 -29.333 69 -51s31 -46.667 39 -75s12 -58.5 12 -90.5h-40c0 26 -3.16699 50.833 -9.5 74.5s-16.666 44.667 -30.999 63s-33 32.833 -56 43.5s-51.5 16 -85.5 16
s-62.5 -5.33301 -85.5 -16s-41.667 -25.167 -56 -43.5s-24.666 -39.333 -30.999 -63s-9.5 -48.5 -9.5 -74.5h-40c0 32 4 62.167 12 90.5s21 53.333 39 75s41 38.667 69 51s62 18.5 102 18.5z" />
    <glyph glyph-name="t_uni0209.liga" unicode="t&#x209;" horiz-adv-x="1130" 
d="M942 0l-52 -0.000976562v908h-605v-709c0 -30.667 4 -56.834 12 -78.501s18.667 -39.5 32 -53.5s29.166 -24.167 47.499 -30.5s38.166 -9.5 59.499 -9.5c26 0 48.833 4 68.5 12s36.5 16.667 50.5 26s25.333 18 34 26s15 12 19 12c3.33301 0 7 -2 11 -6l13 -19
c-11.333 -14 -24.5 -26.667 -39.5 -38s-31.5 -21.166 -49.5 -29.499s-36.667 -14.833 -56 -19.5s-39 -7 -59 -7c-61.333 0 -109.333 16.833 -144 50.5s-52 87.834 -52 162.501v711h-154c-12.667 0 -19 5 -19 15v18l174 8l14 379c0.666992 4 2.33398 7.83301 5.00098 11.5
s6.33398 5.5 11.001 5.5h22v-397h657v-948zM871 1422c13.333 0 23.167 -1.83301 29.5 -5.5s12.833 -10.5 19.5 -20.5l159 -237h-25c-10.667 0 -18.667 4 -24 12l-199 251h40zM626.001 1422c13.333 0 23 -1.83301 29 -5.5s12.667 -10.5 20 -20.5l183 -237h-27
c-10.667 0 -18.667 4 -24 12l-226 251h45z" />
    <glyph glyph-name="t_t_i.liga" unicode="tti" horiz-adv-x="1735" 
d="M1547 0l-53.0029 -0.000976562v908h-584v-709c0 -30.667 4 -56.834 12 -78.501s18.667 -39.5 32 -53.5s29.166 -24.167 47.499 -30.5s37.833 -9.5 58.5 -9.5c26.667 0 49.834 4 69.501 12s36.334 16.667 50.001 26s24.834 18 33.501 26s15 12 19 12
c3.33301 0 5.66602 -0.666992 6.99902 -2l4 -4l13 -19c-22 -28 -51.333 -50.667 -88 -68s-75 -26 -115 -26c-61.333 0 -109.333 16.833 -144 50.5s-52 87.834 -52 162.501v711h-572v-709c0 -30.667 4 -56.834 12 -78.501s18.667 -39.5 32 -53.5s29.166 -24.167 47.499 -30.5
s38.166 -9.5 59.499 -9.5c26 0 48.833 4 68.5 12s36.5 16.667 50.5 26s25.333 18 34 26s15 12 19 12c3.33301 0 7 -2 11 -6l13 -19c-11.333 -14 -24.5 -26.667 -39.5 -38s-31.5 -21.166 -49.5 -29.499s-36.667 -14.833 -56 -19.5s-39 -7 -59 -7
c-61.333 0 -109.333 16.833 -144 50.5s-52 87.834 -52 162.501v711h-154c-12.667 0 -19 5 -19 15v18l174 8l14 379c0.666992 4 2.33398 7.83301 5.00098 11.5s6.33398 5.5 11.001 5.5h22v-397h573l14 380c0.666992 4 2.33398 7.83301 5.00098 11.5s6.33398 5.5 11.001 5.5
h22v-397h637v-948zM1592 1356c0 -8.66699 -2.00293 -17.0029 -6.00293 -25.0029s-9.16699 -15.167 -15.5 -21.5s-13.666 -11.333 -21.999 -15s-16.833 -5.5 -25.5 -5.5c-9.33301 0 -18.166 1.83301 -26.499 5.5s-15.666 8.66699 -21.999 15s-11.333 13.5 -15 21.5
s-5.5 16.333 -5.5 25c0 18.667 6.83301 34.834 20.5 48.501s29.834 20.5 48.501 20.5c8.66699 0 17.167 -1.83301 25.5 -5.5s15.666 -8.66699 21.999 -15s11.5 -13.666 15.5 -21.999s6 -17.166 6 -26.499z" />
    <glyph glyph-name="t_t_igrave.liga" unicode="tt&#xec;" horiz-adv-x="1735" 
d="M1547 0l-53.0029 -0.000976562v908h-584v-709c0 -30.667 4 -56.834 12 -78.501s18.667 -39.5 32 -53.5s29.166 -24.167 47.499 -30.5s37.833 -9.5 58.5 -9.5c26.667 0 49.834 4 69.501 12s36.334 16.667 50.001 26s24.834 18 33.501 26s15 12 19 12
c3.33301 0 5.66602 -0.666992 6.99902 -2l4 -4l13 -19c-22 -28 -51.333 -50.667 -88 -68s-75 -26 -115 -26c-61.333 0 -109.333 16.833 -144 50.5s-52 87.834 -52 162.501v711h-572v-709c0 -30.667 4 -56.834 12 -78.501s18.667 -39.5 32 -53.5s29.166 -24.167 47.499 -30.5
s38.166 -9.5 59.499 -9.5c26 0 48.833 4 68.5 12s36.5 16.667 50.5 26s25.333 18 34 26s15 12 19 12c3.33301 0 7 -2 11 -6l13 -19c-11.333 -14 -24.5 -26.667 -39.5 -38s-31.5 -21.166 -49.5 -29.499s-36.667 -14.833 -56 -19.5s-39 -7 -59 -7
c-61.333 0 -109.333 16.833 -144 50.5s-52 87.834 -52 162.501v711h-154c-12.667 0 -19 5 -19 15v18l174 8l14 379c0.666992 4 2.33398 7.83301 5.00098 11.5s6.33398 5.5 11.001 5.5h22v-397h573l14 380c0.666992 4 2.33398 7.83301 5.00098 11.5s6.33398 5.5 11.001 5.5
h22v-397h637v-948zM1402 1422c13.333 0 23.167 -1.83301 29.5 -5.5s12.833 -10.5 19.5 -20.5l161 -237h-30c-10.667 0 -19 4 -25 12l-208 251h53z" />
    <glyph glyph-name="t_t_iacute.liga" unicode="tt&#xed;" horiz-adv-x="1731" 
d="M1543 0l-53.0029 -0.000976562v908h-584v-709c0 -30.667 4 -56.834 12 -78.501s18.667 -39.5 32 -53.5s29.166 -24.167 47.499 -30.5s37.833 -9.5 58.5 -9.5c26.667 0 49.834 4 69.501 12s36.334 16.667 50.001 26s24.834 18 33.501 26s15 12 19 12
c3.33301 0 5.66602 -0.666992 6.99902 -2l4 -4l13 -19c-22 -28 -51.333 -50.667 -88 -68s-75 -26 -115 -26c-61.333 0 -109.333 16.833 -144 50.5s-52 87.834 -52 162.501v711h-572v-709c0 -30.667 4 -56.834 12 -78.501s18.667 -39.5 32 -53.5s29.166 -24.167 47.499 -30.5
s38.166 -9.5 59.499 -9.5c26 0 48.833 4 68.5 12s36.5 16.667 50.5 26s25.333 18 34 26s15 12 19 12c3.33301 0 7 -2 11 -6l13 -19c-11.333 -14 -24.5 -26.667 -39.5 -38s-31.5 -21.166 -49.5 -29.499s-36.667 -14.833 -56 -19.5s-39 -7 -59 -7
c-61.333 0 -109.333 16.833 -144 50.5s-52 87.834 -52 162.501v711h-154c-12.667 0 -19 5 -19 15v18l174 8l14 379c0.666992 4 2.33398 7.83301 5.00098 11.5s6.33398 5.5 11.001 5.5h22v-397h573l14 380c0.666992 4 2.33398 7.83301 5.00098 11.5s6.33398 5.5 11.001 5.5
h22v-397h637v-948zM1710 1422l-208 -251c-6 -8 -14 -12 -24 -12h-32l162 237c6.66699 10 13 16.833 19 20.5s15.667 5.5 29 5.5h54z" />
    <glyph glyph-name="t_t_icircumflex.liga" unicode="tt&#xee;" horiz-adv-x="1735" 
d="M1547 0l-53.0029 -0.000976562v908h-584v-709c0 -30.667 4 -56.834 12 -78.501s18.667 -39.5 32 -53.5s29.166 -24.167 47.499 -30.5s37.833 -9.5 58.5 -9.5c26.667 0 49.834 4 69.501 12s36.334 16.667 50.001 26s24.834 18 33.501 26s15 12 19 12
c3.33301 0 5.66602 -0.666992 6.99902 -2l4 -4l13 -19c-22 -28 -51.333 -50.667 -88 -68s-75 -26 -115 -26c-61.333 0 -109.333 16.833 -144 50.5s-52 87.834 -52 162.501v711h-572v-709c0 -30.667 4 -56.834 12 -78.501s18.667 -39.5 32 -53.5s29.166 -24.167 47.499 -30.5
s38.166 -9.5 59.499 -9.5c26 0 48.833 4 68.5 12s36.5 16.667 50.5 26s25.333 18 34 26s15 12 19 12c3.33301 0 7 -2 11 -6l13 -19c-11.333 -14 -24.5 -26.667 -39.5 -38s-31.5 -21.166 -49.5 -29.499s-36.667 -14.833 -56 -19.5s-39 -7 -59 -7
c-61.333 0 -109.333 16.833 -144 50.5s-52 87.834 -52 162.501v711h-154c-12.667 0 -19 5 -19 15v18l174 8l14 379c0.666992 4 2.33398 7.83301 5.00098 11.5s6.33398 5.5 11.001 5.5h22v-397h573l14 380c0.666992 4 2.33398 7.83301 5.00098 11.5s6.33398 5.5 11.001 5.5
h22v-397h637v-948zM1759 1170h-37.0029c-3.33301 0 -6.66602 0.666992 -9.99902 2s-7 4 -11 8l-170 184c-1.33301 1.33301 -2.5 2.83301 -3.5 4.5s-2.16699 3.16699 -3.5 4.5c-1.33301 -1.33301 -2.66602 -2.83301 -3.99902 -4.5s-2.66602 -3.16699 -3.99902 -4.5l-170 -184
c-6.66699 -6.66699 -13.667 -10 -21 -10h-38l214 236h44z" />
    <glyph glyph-name="t_t_idieresis.liga" unicode="tt&#xef;" horiz-adv-x="1735" 
d="M1547 0l-53.0029 -0.000976562v908h-584v-709c0 -30.667 4 -56.834 12 -78.501s18.667 -39.5 32 -53.5s29.166 -24.167 47.499 -30.5s37.833 -9.5 58.5 -9.5c26.667 0 49.834 4 69.501 12s36.334 16.667 50.001 26s24.834 18 33.501 26s15 12 19 12
c3.33301 0 5.66602 -0.666992 6.99902 -2l4 -4l13 -19c-22 -28 -51.333 -50.667 -88 -68s-75 -26 -115 -26c-61.333 0 -109.333 16.833 -144 50.5s-52 87.834 -52 162.501v711h-572v-709c0 -30.667 4 -56.834 12 -78.501s18.667 -39.5 32 -53.5s29.166 -24.167 47.499 -30.5
s38.166 -9.5 59.499 -9.5c26 0 48.833 4 68.5 12s36.5 16.667 50.5 26s25.333 18 34 26s15 12 19 12c3.33301 0 7 -2 11 -6l13 -19c-11.333 -14 -24.5 -26.667 -39.5 -38s-31.5 -21.166 -49.5 -29.499s-36.667 -14.833 -56 -19.5s-39 -7 -59 -7
c-61.333 0 -109.333 16.833 -144 50.5s-52 87.834 -52 162.501v711h-154c-12.667 0 -19 5 -19 15v18l174 8l14 379c0.666992 4 2.33398 7.83301 5.00098 11.5s6.33398 5.5 11.001 5.5h22v-397h573l14 380c0.666992 4 2.33398 7.83301 5.00098 11.5s6.33398 5.5 11.001 5.5
h22v-397h637v-948zM1460 1282c0 -17.333 -6.83301 -32.5 -20.5 -45.5s-29.167 -19.5 -46.5 -19.5c-18 0 -33.5 6.5 -46.5 19.5s-19.5 28.167 -19.5 45.5c0 18 6.5 33.5 19.5 46.5s28.5 19.5 46.5 19.5c17.333 0 32.833 -6.5 46.5 -19.5s20.5 -28.5 20.5 -46.5zM1719 1282
c0 -17.333 -6.66699 -32.5 -20 -45.5s-28.666 -19.5 -45.999 -19.5c-18 0 -33.667 6.5 -47 19.5s-20 28.167 -20 45.5c0 18 6.66699 33.5 20 46.5s29 19.5 47 19.5c17.333 0 32.666 -6.5 45.999 -19.5s20 -28.5 20 -46.5z" />
    <glyph glyph-name="t_t_imacron.liga" unicode="tt&#x12b;" horiz-adv-x="1735" 
d="M1547 0l-53.0029 -0.000976562v908h-584v-709c0 -30.667 4 -56.834 12 -78.501s18.667 -39.5 32 -53.5s29.166 -24.167 47.499 -30.5s37.833 -9.5 58.5 -9.5c26.667 0 49.834 4 69.501 12s36.334 16.667 50.001 26s24.834 18 33.501 26s15 12 19 12
c3.33301 0 5.66602 -0.666992 6.99902 -2l4 -4l13 -19c-22 -28 -51.333 -50.667 -88 -68s-75 -26 -115 -26c-61.333 0 -109.333 16.833 -144 50.5s-52 87.834 -52 162.501v711h-572v-709c0 -30.667 4 -56.834 12 -78.501s18.667 -39.5 32 -53.5s29.166 -24.167 47.499 -30.5
s38.166 -9.5 59.499 -9.5c26 0 48.833 4 68.5 12s36.5 16.667 50.5 26s25.333 18 34 26s15 12 19 12c3.33301 0 7 -2 11 -6l13 -19c-11.333 -14 -24.5 -26.667 -39.5 -38s-31.5 -21.166 -49.5 -29.499s-36.667 -14.833 -56 -19.5s-39 -7 -59 -7
c-61.333 0 -109.333 16.833 -144 50.5s-52 87.834 -52 162.501v711h-154c-12.667 0 -19 5 -19 15v18l174 8l14 379c0.666992 4 2.33398 7.83301 5.00098 11.5s6.33398 5.5 11.001 5.5h22v-397h573l14 380c0.666992 4 2.33398 7.83301 5.00098 11.5s6.33398 5.5 11.001 5.5
h22v-397h637v-948zM1258 1301h530v-38h-530v38z" />
    <glyph glyph-name="t_t_itilde.liga" unicode="tt&#x129;" horiz-adv-x="1731" 
d="M1543 0l-53.0029 -0.000976562v908h-584v-709c0 -30.667 4 -56.834 12 -78.501s18.667 -39.5 32 -53.5s29.166 -24.167 47.499 -30.5s37.833 -9.5 58.5 -9.5c26.667 0 49.834 4 69.501 12s36.334 16.667 50.001 26s24.834 18 33.501 26s15 12 19 12
c3.33301 0 5.66602 -0.666992 6.99902 -2l4 -4l13 -19c-22 -28 -51.333 -50.667 -88 -68s-75 -26 -115 -26c-61.333 0 -109.333 16.833 -144 50.5s-52 87.834 -52 162.501v711h-572v-709c0 -30.667 4 -56.834 12 -78.501s18.667 -39.5 32 -53.5s29.166 -24.167 47.499 -30.5
s38.166 -9.5 59.499 -9.5c26 0 48.833 4 68.5 12s36.5 16.667 50.5 26s25.333 18 34 26s15 12 19 12c3.33301 0 7 -2 11 -6l13 -19c-11.333 -14 -24.5 -26.667 -39.5 -38s-31.5 -21.166 -49.5 -29.499s-36.667 -14.833 -56 -19.5s-39 -7 -59 -7
c-61.333 0 -109.333 16.833 -144 50.5s-52 87.834 -52 162.501v711h-154c-12.667 0 -19 5 -19 15v18l174 8l14 379c0.666992 4 2.33398 7.83301 5.00098 11.5s6.33398 5.5 11.001 5.5h22v-397h573l14 380c0.666992 4 2.33398 7.83301 5.00098 11.5s6.33398 5.5 11.001 5.5
h22v-397h637v-948zM1636 1257c31.333 0 54.6689 10.165 70.002 30.498s23.666 46.5 24.999 78.5h33c0 -20.667 -2.66699 -40 -8 -58s-13.166 -33.667 -23.499 -47s-23.5 -23.833 -39.5 -31.5s-34.667 -11.5 -56 -11.5c-22 0 -42.5 5.83301 -61.5 17.5
s-37.333 24.334 -55 38.001s-35.334 26.334 -53.001 38.001s-35.834 17.5 -54.501 17.5c-30 0 -53 -10.5 -69 -31.5s-24.667 -46.833 -26 -77.5h-35c0 20.667 2.83301 40 8.5 58s14 33.667 25 47s24.5 24 40.5 32s34.333 12 55 12c22 0 42.667 -5.83301 62 -17.5
s37.833 -24.5 55.5 -38.5s35.167 -26.833 52.5 -38.5s35.333 -17.5 54 -17.5z" />
    <glyph glyph-name="t_t_ibreve.liga" unicode="tt&#x12d;" horiz-adv-x="1735" 
d="M1547 0l-53.0029 -0.000976562v908h-584v-709c0 -30.667 4 -56.834 12 -78.501s18.667 -39.5 32 -53.5s29.166 -24.167 47.499 -30.5s37.833 -9.5 58.5 -9.5c26.667 0 49.834 4 69.501 12s36.334 16.667 50.001 26s24.834 18 33.501 26s15 12 19 12
c3.33301 0 5.66602 -0.666992 6.99902 -2l4 -4l13 -19c-22 -28 -51.333 -50.667 -88 -68s-75 -26 -115 -26c-61.333 0 -109.333 16.833 -144 50.5s-52 87.834 -52 162.501v711h-572v-709c0 -30.667 4 -56.834 12 -78.501s18.667 -39.5 32 -53.5s29.166 -24.167 47.499 -30.5
s38.166 -9.5 59.499 -9.5c26 0 48.833 4 68.5 12s36.5 16.667 50.5 26s25.333 18 34 26s15 12 19 12c3.33301 0 7 -2 11 -6l13 -19c-11.333 -14 -24.5 -26.667 -39.5 -38s-31.5 -21.166 -49.5 -29.499s-36.667 -14.833 -56 -19.5s-39 -7 -59 -7
c-61.333 0 -109.333 16.833 -144 50.5s-52 87.834 -52 162.501v711h-154c-12.667 0 -19 5 -19 15v18l174 8l14 379c0.666992 4 2.33398 7.83301 5.00098 11.5s6.33398 5.5 11.001 5.5h22v-397h573l14 380c0.666992 4 2.33398 7.83301 5.00098 11.5s6.33398 5.5 11.001 5.5
h22v-397h637v-948zM1523 1171c-40 0 -73.998 6.16699 -101.998 18.5s-51 29.333 -69 51s-31 46.667 -39 75s-12 58.5 -12 90.5h40c0 -26 3.16699 -51 9.5 -75s16.666 -45 30.999 -63s33 -32.5 56 -43.5s51.5 -16.5 85.5 -16.5s62.5 5.5 85.5 16.5s41.667 25.5 56 43.5
s24.666 39 30.999 63s9.5 49 9.5 75h40c0 -32 -4 -62.167 -12 -90.5s-21 -53.333 -39 -75s-41 -38.667 -69 -51s-62 -18.5 -102 -18.5z" />
    <glyph glyph-name="t_t_uni01D0.liga" unicode="tt&#x1d0;" horiz-adv-x="1735" 
d="M1547 0l-53.0029 -0.000976562v908h-584v-709c0 -30.667 4 -56.834 12 -78.501s18.667 -39.5 32 -53.5s29.166 -24.167 47.499 -30.5s37.833 -9.5 58.5 -9.5c26.667 0 49.834 4 69.501 12s36.334 16.667 50.001 26s24.834 18 33.501 26s15 12 19 12
c3.33301 0 5.66602 -0.666992 6.99902 -2l4 -4l13 -19c-22 -28 -51.333 -50.667 -88 -68s-75 -26 -115 -26c-61.333 0 -109.333 16.833 -144 50.5s-52 87.834 -52 162.501v711h-572v-709c0 -30.667 4 -56.834 12 -78.501s18.667 -39.5 32 -53.5s29.166 -24.167 47.499 -30.5
s38.166 -9.5 59.499 -9.5c26 0 48.833 4 68.5 12s36.5 16.667 50.5 26s25.333 18 34 26s15 12 19 12c3.33301 0 7 -2 11 -6l13 -19c-11.333 -14 -24.5 -26.667 -39.5 -38s-31.5 -21.166 -49.5 -29.499s-36.667 -14.833 -56 -19.5s-39 -7 -59 -7
c-61.333 0 -109.333 16.833 -144 50.5s-52 87.834 -52 162.501v711h-154c-12.667 0 -19 5 -19 15v18l174 8l14 379c0.666992 4 2.33398 7.83301 5.00098 11.5s6.33398 5.5 11.001 5.5h22v-397h573l14 380c0.666992 4 2.33398 7.83301 5.00098 11.5s6.33398 5.5 11.001 5.5
h22v-397h637v-948zM1759 1406l-213.999 -236h-44l-214 236h38c3.33301 0 6.83301 -1 10.5 -3s6.83398 -4 9.50098 -6l170 -185c4 -4 6.66699 -7 8 -9c1.33301 1.33301 2.66602 2.83301 3.99902 4.5s2.66602 3.16699 3.99902 4.5l171 185c6 6 12.667 9 20 9h37z" />
    <glyph glyph-name="t_t_uni1E2D.liga" unicode="tt&#x1e2d;" horiz-adv-x="1731" 
d="M1543 0l-53.0029 -0.000976562v908h-584v-709c0 -30.667 4 -56.834 12 -78.501s18.667 -39.5 32 -53.5s29.166 -24.167 47.499 -30.5s37.833 -9.5 58.5 -9.5c26.667 0 49.834 4 69.501 12s36.334 16.667 50.001 26s24.834 18 33.501 26s15 12 19 12
c3.33301 0 5.66602 -0.666992 6.99902 -2l4 -4l13 -19c-22 -28 -51.333 -50.667 -88 -68s-75 -26 -115 -26c-61.333 0 -109.333 16.833 -144 50.5s-52 87.834 -52 162.501v711h-572v-709c0 -30.667 4 -56.834 12 -78.501s18.667 -39.5 32 -53.5s29.166 -24.167 47.499 -30.5
s38.166 -9.5 59.499 -9.5c26 0 48.833 4 68.5 12s36.5 16.667 50.5 26s25.333 18 34 26s15 12 19 12c3.33301 0 7 -2 11 -6l13 -19c-11.333 -14 -24.5 -26.667 -39.5 -38s-31.5 -21.166 -49.5 -29.499s-36.667 -14.833 -56 -19.5s-39 -7 -59 -7
c-61.333 0 -109.333 16.833 -144 50.5s-52 87.834 -52 162.501v711h-154c-12.667 0 -19 5 -19 15v18l174 8l14 379c0.666992 4 2.33398 7.83301 5.00098 11.5s6.33398 5.5 11.001 5.5h22v-397h573l14 380c0.666992 4 2.33398 7.83301 5.00098 11.5s6.33398 5.5 11.001 5.5
h22v-397h637v-948zM1627 -229.001c31.333 0 54.6689 10.165 70.002 30.498s23.666 46.5 24.999 78.5h33c0 -20.667 -2.66699 -40 -8 -58s-13.166 -33.667 -23.499 -47s-23.5 -23.833 -39.5 -31.5s-34.667 -11.5 -56 -11.5c-22 0 -42.5 5.83301 -61.5 17.5
s-37.333 24.334 -55 38.001s-35.334 26.334 -53.001 38.001s-35.834 17.5 -54.501 17.5c-30 0 -53 -10.5 -69 -31.5s-24.667 -46.833 -26 -77.5h-35c0 20.667 2.83301 40 8.5 58s14 33.667 25 47s24.5 24 40.5 32s34.333 12 55 12c22 0 42.667 -5.83301 62 -17.5
s37.833 -24.5 55.5 -38.5s35.167 -26.833 52.5 -38.5s35.333 -17.5 54 -17.5zM1588 1356c0 -8.66699 -2.00293 -17.0029 -6.00293 -25.0029s-9.16699 -15.167 -15.5 -21.5s-13.666 -11.333 -21.999 -15s-16.833 -5.5 -25.5 -5.5c-9.33301 0 -18.166 1.83301 -26.499 5.5
s-15.666 8.66699 -21.999 15s-11.333 13.5 -15 21.5s-5.5 16.333 -5.5 25c0 18.667 6.83301 34.834 20.5 48.501s29.834 20.5 48.501 20.5c8.66699 0 17.167 -1.83301 25.5 -5.5s15.666 -8.66699 21.999 -15s11.5 -13.666 15.5 -21.999s6 -17.166 6 -26.499z" />
    <glyph glyph-name="t_t_uni1E2F.liga" unicode="tt&#x1e2f;" horiz-adv-x="1731" 
d="M1543 0l-53.0029 -0.000976562v908h-584v-709c0 -30.667 4 -56.834 12 -78.501s18.667 -39.5 32 -53.5s29.166 -24.167 47.499 -30.5s37.833 -9.5 58.5 -9.5c26.667 0 49.834 4 69.501 12s36.334 16.667 50.001 26s24.834 18 33.501 26s15 12 19 12
c3.33301 0 5.66602 -0.666992 6.99902 -2l4 -4l13 -19c-22 -28 -51.333 -50.667 -88 -68s-75 -26 -115 -26c-61.333 0 -109.333 16.833 -144 50.5s-52 87.834 -52 162.501v711h-572v-709c0 -30.667 4 -56.834 12 -78.501s18.667 -39.5 32 -53.5s29.166 -24.167 47.499 -30.5
s38.166 -9.5 59.499 -9.5c26 0 48.833 4 68.5 12s36.5 16.667 50.5 26s25.333 18 34 26s15 12 19 12c3.33301 0 7 -2 11 -6l13 -19c-11.333 -14 -24.5 -26.667 -39.5 -38s-31.5 -21.166 -49.5 -29.499s-36.667 -14.833 -56 -19.5s-39 -7 -59 -7
c-61.333 0 -109.333 16.833 -144 50.5s-52 87.834 -52 162.501v711h-154c-12.667 0 -19 5 -19 15v18l174 8l14 379c0.666992 4 2.33398 7.83301 5.00098 11.5s6.33398 5.5 11.001 5.5h22v-397h573l14 380c0.666992 4 2.33398 7.83301 5.00098 11.5s6.33398 5.5 11.001 5.5
h22v-397h637v-948zM1759 1720l-208 -251c-6 -8 -14 -12 -24 -12h-32l162 237c6.66699 10 13 16.833 19 20.5s15.667 5.5 29 5.5h54zM1417 1282c0 -17.333 -6.83301 -32.5 -20.5 -45.5s-29.167 -19.5 -46.5 -19.5c-18 0 -33.5 6.5 -46.5 19.5s-19.5 28.167 -19.5 45.5
c0 18 6.5 33.5 19.5 46.5s28.5 19.5 46.5 19.5c17.333 0 32.833 -6.5 46.5 -19.5s20.5 -28.5 20.5 -46.5zM1754 1282c0 -17.333 -6.66699 -32.5 -20 -45.5s-28.666 -19.5 -45.999 -19.5c-18 0 -33.667 6.5 -47 19.5s-20 28.167 -20 45.5c0 18 6.66699 33.5 20 46.5
s29 19.5 47 19.5c17.333 0 32.666 -6.5 45.999 -19.5s20 -28.5 20 -46.5z" />
    <glyph glyph-name="t_t_uni0268.liga" unicode="tt&#x268;" horiz-adv-x="1768" 
d="M1523 1289c-9.33301 0 -18.1689 1.83008 -26.502 5.49707s-15.666 8.66699 -21.999 15s-11.333 13.5 -15 21.5s-5.5 16.333 -5.5 25c0 18.667 6.83301 34.834 20.5 48.501s29.834 20.5 48.501 20.5c8.66699 0 17.167 -1.83301 25.5 -5.5s15.666 -8.66699 21.999 -15
s11.5 -13.666 15.5 -21.999s6 -17.166 6 -26.499c0 -8.66699 -2 -17 -6 -25s-9.16699 -15.167 -15.5 -21.5s-13.666 -11.333 -21.999 -15s-16.833 -5.5 -25.5 -5.5zM1722 506.997l-175.003 -0.000976562v-507h-53v507h-183v40h183v361h-584v-709
c0 -30.667 4 -56.834 12 -78.501s18.667 -39.5 32 -53.5s29.166 -24.167 47.499 -30.5s37.833 -9.5 58.5 -9.5c26.667 0 49.834 4 69.501 12s36.334 16.667 50.001 26s24.834 18 33.501 26s15 12 19 12c3.33301 0 5.66602 -0.666992 6.99902 -2l4 -4l13 -19
c-22 -28 -51.333 -50.667 -88 -68s-75 -26 -115 -26c-61.333 0 -109.333 16.833 -144 50.5s-52 87.834 -52 162.501v711h-572v-709c0 -30.667 4 -56.834 12 -78.501s18.667 -39.5 32 -53.5s29.166 -24.167 47.499 -30.5s38.166 -9.5 59.499 -9.5c26 0 48.833 4 68.5 12
s36.5 16.667 50.5 26s25.333 18 34 26s15 12 19 12c3.33301 0 7 -2 11 -6l13 -19c-11.333 -14 -24.5 -26.667 -39.5 -38s-31.5 -21.166 -49.5 -29.499s-36.667 -14.833 -56 -19.5s-39 -7 -59 -7c-61.333 0 -109.333 16.833 -144 50.5s-52 87.834 -52 162.501v711h-154
c-12.667 0 -19 5 -19 15v18l174 8l14 379c0.666992 4 2.33398 7.83301 5.00098 11.5s6.33398 5.5 11.001 5.5h22v-397h573l14 380c0.666992 4 2.33398 7.83301 5.00098 11.5s6.33398 5.5 11.001 5.5h22v-397h637v-401h175v-40z" />
    <glyph glyph-name="t_t_uni020B.liga" unicode="tt&#x20b;" horiz-adv-x="1735" 
d="M1547 0l-53.0029 -0.000976562v908h-584v-709c0 -30.667 4 -56.834 12 -78.501s18.667 -39.5 32 -53.5s29.166 -24.167 47.499 -30.5s37.833 -9.5 58.5 -9.5c26.667 0 49.834 4 69.501 12s36.334 16.667 50.001 26s24.834 18 33.501 26s15 12 19 12
c3.33301 0 5.66602 -0.666992 6.99902 -2l4 -4l13 -19c-22 -28 -51.333 -50.667 -88 -68s-75 -26 -115 -26c-61.333 0 -109.333 16.833 -144 50.5s-52 87.834 -52 162.501v711h-572v-709c0 -30.667 4 -56.834 12 -78.501s18.667 -39.5 32 -53.5s29.166 -24.167 47.499 -30.5
s38.166 -9.5 59.499 -9.5c26 0 48.833 4 68.5 12s36.5 16.667 50.5 26s25.333 18 34 26s15 12 19 12c3.33301 0 7 -2 11 -6l13 -19c-11.333 -14 -24.5 -26.667 -39.5 -38s-31.5 -21.166 -49.5 -29.499s-36.667 -14.833 -56 -19.5s-39 -7 -59 -7
c-61.333 0 -109.333 16.833 -144 50.5s-52 87.834 -52 162.501v711h-154c-12.667 0 -19 5 -19 15v18l174 8l14 379c0.666992 4 2.33398 7.83301 5.00098 11.5s6.33398 5.5 11.001 5.5h22v-397h573l14 380c0.666992 4 2.33398 7.83301 5.00098 11.5s6.33398 5.5 11.001 5.5
h22v-397h637v-948zM1523 1421c40 0 73.998 -6.16699 101.998 -18.5s51 -29.333 69 -51s31 -46.667 39 -75s12 -58.5 12 -90.5h-40c0 26 -3.16699 50.833 -9.5 74.5s-16.666 44.667 -30.999 63s-33 32.833 -56 43.5s-51.5 16 -85.5 16s-62.5 -5.33301 -85.5 -16
s-41.667 -25.167 -56 -43.5s-24.666 -39.333 -30.999 -63s-9.5 -48.5 -9.5 -74.5h-40c0 32 4 62.167 12 90.5s21 53.333 39 75s41 38.667 69 51s62 18.5 102 18.5z" />
    <glyph glyph-name="t_t_uni0209.liga" unicode="tt&#x209;" horiz-adv-x="1735" 
d="M1547 0l-53.0029 -0.000976562v908h-584v-709c0 -30.667 4 -56.834 12 -78.501s18.667 -39.5 32 -53.5s29.166 -24.167 47.499 -30.5s37.833 -9.5 58.5 -9.5c26.667 0 49.834 4 69.501 12s36.334 16.667 50.001 26s24.834 18 33.501 26s15 12 19 12
c3.33301 0 5.66602 -0.666992 6.99902 -2l4 -4l13 -19c-22 -28 -51.333 -50.667 -88 -68s-75 -26 -115 -26c-61.333 0 -109.333 16.833 -144 50.5s-52 87.834 -52 162.501v711h-572v-709c0 -30.667 4 -56.834 12 -78.501s18.667 -39.5 32 -53.5s29.166 -24.167 47.499 -30.5
s38.166 -9.5 59.499 -9.5c26 0 48.833 4 68.5 12s36.5 16.667 50.5 26s25.333 18 34 26s15 12 19 12c3.33301 0 7 -2 11 -6l13 -19c-11.333 -14 -24.5 -26.667 -39.5 -38s-31.5 -21.166 -49.5 -29.499s-36.667 -14.833 -56 -19.5s-39 -7 -59 -7
c-61.333 0 -109.333 16.833 -144 50.5s-52 87.834 -52 162.501v711h-154c-12.667 0 -19 5 -19 15v18l174 8l14 379c0.666992 4 2.33398 7.83301 5.00098 11.5s6.33398 5.5 11.001 5.5h22v-397h573l14 380c0.666992 4 2.33398 7.83301 5.00098 11.5s6.33398 5.5 11.001 5.5
h22v-397h637v-948zM1476 1422c13.333 0 23.167 -1.83301 29.5 -5.5s12.833 -10.5 19.5 -20.5l159 -237h-25c-10.667 0 -18.667 4 -24 12l-199 251h40zM1231 1422c13.333 0 23 -1.83301 29 -5.5s12.667 -10.5 20 -20.5l183 -237h-27c-10.667 0 -18.667 4 -24 12l-226 251h45z
" />
    <glyph glyph-name=".notdef" horiz-adv-x="1006" 
d="M269 1130c12.667 12.667 26.668 24.8379 42.001 36.5049s32.5 22.167 51.5 31.5s39.667 16.833 62 22.5s46.833 8.5 73.5 8.5c32.667 0 63.667 -4.83301 93 -14.5s55 -23.834 77 -42.501s39.5 -41.167 52.5 -67.5s19.5 -55.833 19.5 -88.5
c0 -36.667 -5.66699 -68.167 -17 -94.5s-25.666 -49.5 -42.999 -69.5s-36.166 -37.667 -56.499 -53l-56.5 -43c-17.333 -13.333 -32.166 -26.833 -44.499 -40.5s-18.833 -28.834 -19.5 -45.501l-7 -120h-35l-3 124c-0.666992 19.333 4.66602 36.5 15.999 51.5
s25.666 29.5 42.999 43.5s36.166 28.333 56.499 43s39.166 31.334 56.499 50.001s31.833 40.167 43.5 64.5s17.5 53.166 17.5 86.499c0 27.333 -5.5 51.666 -16.5 72.999s-25.5 39.5 -43.5 54.5s-38.833 26.333 -62.5 34s-48.167 11.5 -73.5 11.5
c-32 0 -60 -4.33301 -84 -13s-44 -18.334 -60 -29.001s-28.667 -20.334 -38 -29.001s-15.333 -13 -18 -13c-6 0 -10.333 2 -13 6zM417.001 250.004c0 17.333 5.66699 32 17 44s25.666 18 42.999 18s31.666 -6 42.999 -18s17 -26.667 17 -44
c0 -16.667 -5.66699 -30.834 -17 -42.501s-25.666 -17.5 -42.999 -17.5s-31.666 5.83301 -42.999 17.5s-17 25.834 -17 42.501zM49.001 1406h908v-1406h-908v1406zM75.001 26.0039h855v1354h-855v-1354z" />
    <glyph glyph-name="glyph1" horiz-adv-x="0" 
 />
    <glyph glyph-name="glyph1" horiz-adv-x="0" 
 />
    <glyph glyph-name="space" unicode=" " horiz-adv-x="559" 
 />
    <glyph glyph-name="space" unicode="&#xa0;" horiz-adv-x="559" 
 />
    <glyph glyph-name="exclam" unicode="!" horiz-adv-x="494" 
d="M275 1406l-0.00195312 -572c0 -29.333 -0.166992 -57 -0.5 -83s-0.833008 -52.667 -1.5 -80s-1.66699 -56.333 -3 -87s-2.66602 -65.334 -3.99902 -104.001h-36c-1.33301 38.667 -2.66602 73.334 -3.99902 104.001s-2.33301 59.667 -3 87s-1.16699 54 -1.5 80
s-0.5 53.667 -0.5 83v572h54zM168.998 59c0 21.333 7.16699 39.5 21.5 54.5s32.166 22.5 53.499 22.5s39.5 -7.5 54.5 -22.5s22.5 -33.167 22.5 -54.5s-7.5 -39.166 -22.5 -53.499s-33.167 -21.5 -54.5 -21.5s-39.166 7.16699 -53.499 21.5s-21.5 32.166 -21.5 53.499z" />
    <glyph glyph-name="quotedbl" unicode="&#x22;" horiz-adv-x="651" 
d="M214 1406v-293l-5 -153c-1.33301 -12.667 -7.33301 -19 -18 -19s-16.667 6.33301 -18 19l-4 153v293h45zM483 1406v-293l-5 -153c-1.33301 -12.667 -7.33301 -19 -18 -19s-16.667 6.33301 -18 19l-4 153v293h45z" />
    <glyph glyph-name="numbersign" unicode="#" horiz-adv-x="1160" 
d="M784 914h-325l-91 -422h324zM1065 953l-3 -19c-1.33301 -13.333 -10 -20 -26 -20h-207l-92 -422h249c15.333 0 22 -7.66699 20 -23l-1 -16h-274l-99 -453h-19c-7.33301 0 -13.166 2.16699 -17.499 6.5s-5.16602 11.166 -2.49902 20.499l93 426h-324l-93 -427
c-2 -9.33301 -5.5 -16 -10.5 -20s-11.167 -6 -18.5 -6h-22l99 453h-202c-6.66699 0 -12 1.83301 -16 5.5s-5.33301 9.83398 -4 18.501l1 15h227l91 422h-265l2 19c1.33301 13.333 10 20 26 20h243l93 428c2.66699 16.667 12.667 25 30 25h21l-99 -453h325l98 453h23
c7.33301 0 12.666 -2.5 15.999 -7.5s3.66602 -12.167 0.999023 -21.5l-93 -424h230z" />
    <glyph glyph-name="dollar" unicode="$" horiz-adv-x="1160" 
d="M582 29c58 2.66699 109.832 14 155.499 34s84.334 46.333 116.001 79s55.667 70.5 72 113.5s24.5 88.833 24.5 137.5c0 50.667 -9.5 93 -28.5 127s-44.333 62.5 -76 85.5s-68 42.167 -109 57.5s-83.167 30 -126.5 44zM599.999 1376c-54 -2 -101.5 -11.5 -142.5 -28.5
s-75.5 -39.333 -103.5 -67s-49 -59.5 -63 -95.5s-21 -73.333 -21 -112c0 -46.667 8.33301 -86.167 25 -118.5s39 -59.833 67 -82.5s60.5 -42 97.5 -58s75.5 -30.667 115.5 -44zM611.999 758c47.333 -15.333 94.1709 -31.3291 140.504 -47.9961s87.666 -38 123.999 -64
s65.833 -58.5 88.5 -97.5s34 -87.833 34 -146.5c0 -56.667 -9.33301 -109.834 -28 -159.501s-45.834 -93.334 -81.501 -131.001s-79.5 -67.667 -131.5 -90s-111.333 -34.833 -178 -37.5l-9 -229c0 -14.667 -6.33301 -22 -19 -22h-20l10 251
c-44.667 0.666992 -85.5 5.5 -122.5 14.5s-71.167 21.333 -102.5 37s-60.333 34.5 -87 56.5s-52 47 -76 75l13 18c3.33301 3.33301 6.16602 5.83301 8.49902 7.5s5.83301 2.5 10.5 2.5s11.167 -4 19.5 -12l31.5 -30c12.667 -12 28.167 -25 46.5 -39s40 -27.333 65 -40
s53.5 -23.334 85.5 -32.001s68.667 -13.334 110 -14.001l29 691c-44.667 14 -88 29.5 -130 46.5s-79.5 38.5 -112.5 64.5s-59.5 58.167 -79.5 96.5s-30 86.166 -30 143.499c0 44.667 8.33301 87.834 25 129.501s41.167 78.5 73.5 110.5s72.166 58 119.499 78
s101.666 30.667 162.999 32l7 180c0 14.667 6.33301 22 19 22h20l-8 -202c66 -3.33301 124.167 -16.5 174.5 -39.5s97.166 -57.167 140.499 -102.5l-11 -17c-4 -6.66699 -9.33301 -10 -16 -10c-7.33301 0 -17.166 6.16699 -29.499 18.5s-29.666 26 -51.999 41
s-50.333 29.167 -84 42.5s-75.167 21 -124.5 23z" />
    <glyph glyph-name="percent" unicode="%" horiz-adv-x="1537" 
d="M680 1068c0 -59.333 -7.66602 -111 -22.999 -155s-36 -80.5 -62 -109.5s-56.333 -50.667 -91 -65s-71.334 -21.5 -110.001 -21.5c-40 0 -77.333 7.16699 -112 21.5s-65 36 -91 65s-46.5 65.5 -61.5 109.5s-22.5 95.667 -22.5 155c0 60 7.5 112.167 22.5 156.5
s35.5 81.166 61.5 110.499s56.333 51.166 91 65.499s72 21.5 112 21.5c39.333 0 76.333 -7.16699 111 -21.5s65 -36.166 91 -65.499s46.5 -66.166 61.5 -110.499s22.5 -96.5 22.5 -156.5zM637.001 1068c0 55.333 -6.5 103 -19.5 143s-30.5 72.833 -52.5 98.5
s-47.833 44.667 -77.5 57s-60.834 18.5 -93.501 18.5c-33.333 0 -64.833 -6.16699 -94.5 -18.5s-55.5 -31.333 -77.5 -57s-39.5 -58.5 -52.5 -98.5s-19.5 -87.667 -19.5 -143s6.5 -102.833 19.5 -142.5s30.5 -72.167 52.5 -97.5s47.833 -44 77.5 -56s61.167 -18 94.5 -18
c32.667 0 63.834 6 93.501 18s55.5 30.667 77.5 56s39.5 57.833 52.5 97.5s19.5 87.167 19.5 142.5zM1234 1394c3.33301 4 6.66699 7 10 9s8 3 14 3h35l-999 -1394c-5.33301 -8 -13 -12 -23 -12h-36zM1430 335c0 -59.333 -7.66699 -111 -23 -155
s-36.166 -80.5 -62.499 -109.5s-56.833 -50.667 -91.5 -65s-71.334 -21.5 -110.001 -21.5c-39.333 0 -76.5 7.16699 -111.5 21.5s-65.5 36 -91.5 65s-46.5 65.5 -61.5 109.5s-22.5 95.667 -22.5 155c0 60 7.5 112.167 22.5 156.5s35.5 81 61.5 110s56.5 50.667 91.5 65
s72.167 21.5 111.5 21.5s76.333 -7.16699 111 -21.5s65 -36 91 -65s46.667 -65.667 62 -110s23 -96.5 23 -156.5zM1387 335c0 55.333 -6.5 103 -19.5 143s-30.5 72.833 -52.5 98.5s-47.833 44.667 -77.5 57s-61.167 18.5 -94.5 18.5s-64.666 -6.16699 -93.999 -18.5
s-55 -31.333 -77 -57s-39.5 -58.5 -52.5 -98.5s-19.5 -87.667 -19.5 -143s6.5 -102.833 19.5 -142.5s30.5 -72.334 52.5 -98.001s47.667 -44.5 77 -56.5s60.666 -18 93.999 -18s64.833 6 94.5 18s55.5 30.833 77.5 56.5s39.5 58.334 52.5 98.001s19.5 87.167 19.5 142.5z
" />
    <glyph glyph-name="ampersand" unicode="&#x26;" horiz-adv-x="1383" 
d="M498 753c-48.667 -17.333 -92.999 -39.668 -132.999 -67.001s-74.5 -58.333 -103.5 -93s-51.5 -72.167 -67.5 -112.5s-24 -82.5 -24 -126.5c0 -55.333 10.833 -103.5 32.5 -144.5s49.5 -75 83.5 -102s71.5 -47.167 112.5 -60.5s80.833 -20 119.5 -20
c52.667 0 102 6.33301 148 19s88.667 30.334 128 53.001s75.166 49 107.499 79s61.5 62.667 87.5 98l-471 457zM1343 -0.00195312l-44.9961 0.00390625c-8.66699 0 -15.667 0.666992 -21 2s-11.666 5.66602 -18.999 12.999l-238 231
c-28.667 -36.667 -60.834 -71 -96.501 -103s-74.834 -59.667 -117.501 -83s-88.5 -41.833 -137.5 -55.5s-101.167 -20.5 -156.5 -20.5c-48.667 0 -96.5 8 -143.5 24s-89.167 39.5 -126.5 70.5s-67.5 69.333 -90.5 115s-34.5 98.167 -34.5 157.5c0 49.333 9 96.333 27 141
s43 85.5 75 122.5s69.5 69.667 112.5 98s89.5 51.166 139.5 68.499c-52.667 55.333 -92 108.333 -118 159s-39 106.667 -39 168c0 45.333 8.33301 87.166 25 125.499s40 71.5 70 99.5s66 49.833 108 65.5s88.667 23.5 140 23.5c41.333 0 80.833 -7.33301 118.5 -22
s71 -34.5 100 -59.5s52.167 -53.833 69.5 -86.5s26.333 -67.334 27 -104.001l-25 -4c-4.66699 -0.666992 -9.16699 0.5 -13.5 3.5s-7.5 8.16699 -9.5 15.5c-2 18 -8.83301 39.333 -20.5 64s-28.334 48.167 -50.001 70.5s-48.834 41.333 -81.501 57s-71 23.5 -115 23.5
c-43.333 0 -83 -6.66699 -119 -20s-66.833 -32 -92.5 -56s-45.667 -52.667 -60 -86s-21.5 -70 -21.5 -110c0 -59.333 15.5 -116 46.5 -170s78.167 -111.333 141.5 -172l465 -450c32 50 57.333 101.5 76 154.5s30.667 103.833 36 152.5
c1.33301 6.66699 3.16602 11.667 5.49902 15s6.83301 5 13.5 5h27c-1.33301 -54 -12.833 -112.333 -34.5 -175s-52.5 -123.667 -92.5 -183z" />
    <glyph glyph-name="quotesingle" unicode="'" horiz-adv-x="382" 
d="M214 1406v-293l-5 -153c-1.33301 -12.667 -7.33301 -19 -18 -19s-16.667 6.33301 -18 19l-4 153v293h45z" />
    <glyph glyph-name="parenleft" unicode="(" horiz-adv-x="507" 
d="M168 631c0 -153.333 21 -299.169 63 -437.502s105.667 -272.5 191 -402.5c4.66699 -7.33301 6.33398 -13.166 5.00098 -17.499s-3.66602 -7.5 -6.99902 -9.5l-23 -14c-52 78.667 -95.5 154.667 -130.5 228s-63.333 145.666 -85 216.999s-37.167 142.833 -46.5 214.5
s-14 145.5 -14 221.5s4.66699 149.833 14 221.5s24.833 143.334 46.5 215.001s50 144 85 217s78.5 149.167 130.5 228.5l23 -14c3.33301 -2 5.66602 -5.16699 6.99902 -9.5s-0.333984 -10.166 -5.00098 -17.499c-84.667 -130 -148.167 -264.5 -190.5 -403.5
s-63.5 -284.833 -63.5 -437.5z" />
    <glyph glyph-name="parenright" unicode=")" horiz-adv-x="507" 
d="M340 631c0 152.667 -21.3311 298.503 -63.998 437.503s-106.334 273.5 -191.001 403.5c-4.66699 7.33301 -6.33398 13.166 -5.00098 17.499s3.66602 7.5 6.99902 9.5l23 14c52 -79.333 95.5 -155.5 130.5 -228.5s63.333 -145.333 85 -217s37.167 -143.334 46.5 -215.001
s14 -145.5 14 -221.5s-4.66699 -149.833 -14 -221.5s-24.833 -143.167 -46.5 -214.5s-50 -143.666 -85 -216.999s-78.5 -149.333 -130.5 -228l-23 14c-3.33301 2 -5.66602 5.16699 -6.99902 9.5s0.333984 10.166 5.00098 17.499c85.333 130 149.166 264.167 191.499 402.5
s63.5 284.166 63.5 437.499z" />
    <glyph glyph-name="asterisk" unicode="*" horiz-adv-x="850" 
d="M687 1068l-15.999 -29.001l-198 115c-8.66699 5.33301 -15.334 9.66602 -20.001 12.999s-11.667 10.333 -21 21l6 -27.5c1.33301 -6.33301 2 -14.166 2 -23.499v-223h-32v223c0 9.33301 0.833008 17.333 2.5 24s4.16699 15.334 7.5 26.001h-1
c-8 -9.33301 -14.667 -15.833 -20 -19.5l-20 -13.5l-196 -114l-16 28l196 115c8 5.33301 15.333 8.66602 22 9.99902s15.667 3.33301 27 6v1l-27.5 7.5c-6.33301 1.66699 -13.5 5.16699 -21.5 10.5l-198 115l16 28l198 -114c4 -2.66699 7.5 -5.16699 10.5 -7.5
s6 -4.83301 9 -7.5s6 -5.66699 9 -9s7.16699 -7.33301 12.5 -12c-3.33301 12 -5.83301 21.5 -7.5 28.5s-2.5 15.167 -2.5 24.5v222h32v-222c0 -9.33301 -0.5 -17.5 -1.5 -24.5s-3.16699 -16.5 -6.5 -28.5c8 9.33301 14.667 16.333 20 21s12.333 9.66699 21 15l196 114
l16 -28l-196 -115c-8 -5.33301 -15.333 -9.33301 -22 -12s-16 -5 -28 -7l28.5 -6c6.33301 -1.33301 13.5 -4.66602 21.5 -9.99902z" />
    <glyph glyph-name="plus" unicode="+" horiz-adv-x="1160" 
d="M1045 650h-444v-465h-43v465h-442v41h442v462h43v-462h444v-41z" />
    <glyph glyph-name="comma" unicode="," horiz-adv-x="430" 
d="M151 -236c-3.33301 3.33301 -5 7 -5 11c0 2 1.66699 5.33301 5 10l24.5 30.5c11 13.667 22 30 33 49s20.833 40.333 29.5 64s14 48.834 16 75.501c-11.333 -7.33301 -25 -11 -41 -11c-19.333 0 -35.333 6.66699 -48 20s-19 30.666 -19 51.999c0 19.333 6.5 36 19.5 50
s30.167 21 51.5 21c22 0 39.667 -7.83301 53 -23.5s20 -37.5 20 -65.5c0 -53.333 -12 -105.5 -36 -156.5s-55.667 -95.833 -95 -134.5z" />
    <glyph glyph-name="hyphen" unicode="-" horiz-adv-x="739" 
d="M144 612h450v-44h-450v44z" />
    <glyph glyph-name="hyphen" unicode="&#x2010;" horiz-adv-x="739" 
d="M144 612h450v-44h-450v44z" />
    <glyph glyph-name="hyphen" unicode="&#xad;" horiz-adv-x="739" 
d="M144 612h450v-44h-450v44z" />
    <glyph glyph-name="period" unicode="." horiz-adv-x="465" 
d="M157 59c0 21.333 7.16699 39.5 21.5 54.5s32.166 22.5 53.499 22.5s39.5 -7.5 54.5 -22.5s22.5 -33.167 22.5 -54.5s-7.5 -39.166 -22.5 -53.499s-33.167 -21.5 -54.5 -21.5s-39.166 7.16699 -53.499 21.5s-21.5 32.166 -21.5 53.499z" />
    <glyph glyph-name="slash" unicode="/" horiz-adv-x="852" 
d="M138 -58c-3.33301 -8 -8.33203 -13.667 -14.999 -17s-13.667 -5 -21 -5h-20l632 1504c7.33301 14.667 18.666 22 33.999 22h22z" />
    <glyph glyph-name="zero" unicode="0" horiz-adv-x="1160" 
d="M1080 703c0 -123.333 -13.167 -230 -39.5 -320s-62.166 -164.333 -107.499 -223s-98.333 -102.334 -159 -131.001s-125.334 -43 -194.001 -43s-133.334 14.333 -194.001 43s-113.667 72.334 -159 131.001s-81.166 133 -107.499 223s-39.5 196.667 -39.5 320
c0 122.667 13.167 229.167 39.5 319.5s62.166 165.166 107.499 224.499s98.333 103.333 159 132s125.334 43 194.001 43s133.334 -14.333 194.001 -43s113.667 -72.667 159 -132s81.166 -134.166 107.499 -224.499s39.5 -196.833 39.5 -319.5zM1025 703
c0 118 -11.833 219.5 -35.5 304.5s-55.834 155 -96.501 210s-88 95.5 -142 121.5s-111 39 -171 39c-60.667 0 -118 -13 -172 -39s-101.333 -66.5 -142 -121.5s-73 -125 -97 -210s-36 -186.5 -36 -304.5s12 -219.5 36 -304.5s56.333 -154.667 97 -209s88 -94.5 142 -120.5
s111.333 -39 172 -39c60 0 117 13 171 39s101.333 66.167 142 120.5s72.834 124 96.501 209s35.5 186.5 35.5 304.5z" />
    <glyph glyph-name="one" unicode="1" horiz-adv-x="1160" 
d="M986 41v-41.001h-709v41h334v1238c0 10 0.333008 20.333 1 31s1.66699 21.334 3 32.001l-343 -308c-5.33301 -5.33301 -11 -7.5 -17 -6.5s-11 3.83301 -15 8.5l-15 20l400 357h38v-1372h323z" />
    <glyph glyph-name="two" unicode="2" horiz-adv-x="1160" 
d="M998 49c12.667 0 19 -6.33105 19 -18.998v-30h-890v19c0 5.33301 1.16699 10.166 3.5 14.499s5.16602 8.16602 8.49902 11.499l496 502l114 121c35.333 39.333 66.333 79.166 93 119.499s47.667 81.833 63 124.5s23 88.334 23 137.001
c0 57.333 -9.66699 106.666 -29 147.999s-45 75.5 -77 102.5s-68.5 46.833 -109.5 59.5s-83.5 19 -127.5 19c-49.333 0 -94.5 -7.5 -135.5 -22.5s-77.333 -36 -109 -63s-57.667 -59.333 -78 -97s-34.5 -79.167 -42.5 -124.5c-4.66699 -17.333 -14.667 -25 -30 -23l-25 3
c8 58 23.833 109.833 47.5 155.5s53.834 84.5 90.501 116.5s79 56.5 127 73.5s100.333 25.5 157 25.5c50.667 0 99.667 -7.33301 147 -22s89.333 -37.167 126 -67.5s66 -69 88 -116s33 -102.5 33 -166.5c0 -53.333 -8.33301 -103 -25 -149s-39.167 -90 -67.5 -132
s-61.166 -83 -98.499 -123l-118 -122l-474 -484c17.333 2.66699 36.166 4.83398 56.499 6.50098s41.833 2.5 64.5 2.5h679z" />
    <glyph glyph-name="three" unicode="3" horiz-adv-x="1160" 
d="M170 1051c8 58 23.8271 109.835 47.4941 155.502s53.834 84.5 90.501 116.5s79 56.5 127 73.5s100.333 25.5 157 25.5c50.667 0 99.167 -7 145.5 -21s87.333 -35.5 123 -64.5s64.167 -65.667 85.5 -110s32 -96.833 32 -157.5c0 -46 -8 -88 -24 -126
s-37.667 -71.5 -65 -100.5s-59.166 -53 -95.499 -72s-74.5 -32.833 -114.5 -41.5c54.667 -7.33301 103 -21 145 -41s77.333 -45.167 106 -75.5s50.167 -65.333 64.5 -105s21.5 -82.834 21.5 -129.501c0 -54 -11.167 -105 -33.5 -153s-53.166 -89.833 -92.499 -125.5
s-86 -63.834 -140 -84.501s-113 -31 -177 -31c-55.333 0 -104 5.33301 -146 16s-78.667 25 -110 43s-57.833 39 -79.5 63s-40 49.167 -55 75.5s-27.167 53.166 -36.5 80.499s-17 53.333 -23 78l17 8c5.33301 2 12 2.5 20 1.5s14 -7.16699 18 -18.5
c2 -5.33301 5.5 -16.666 10.5 -33.999s12.667 -37.166 23 -59.499s24.5 -45.833 42.5 -70.5s41.333 -47.334 70 -68.001s63.167 -37.667 103.5 -51s88.5 -20 144.5 -20c65.333 0 122.5 10.833 171.5 32.5s89.833 49.5 122.5 83.5s57.167 71.667 73.5 113
s24.5 81.333 24.5 120c0 46 -7.83301 88.833 -23.5 128.5s-40.667 74.167 -75 103.5s-78.666 52.333 -132.999 69s-120.5 25.334 -198.5 26.001v37c61.333 2 116.333 11 165 27s89.834 38.167 123.501 66.5s59.334 61.833 77.001 100.5s26.5 81.334 26.5 128.001
c0 54.667 -9.33301 102 -28 142s-43.5 72.667 -74.5 98s-66.667 44.166 -107 56.499s-82.5 18.5 -126.5 18.5c-49.333 0 -94.666 -7.5 -135.999 -22.5s-77.833 -36 -109.5 -63s-57.834 -59.333 -78.501 -97s-35 -79.167 -43 -124.5c-2.66699 -9.33301 -6 -15.833 -10 -19.5
s-10 -4.83398 -18 -3.50098z" />
    <glyph glyph-name="four" unicode="4" horiz-adv-x="1160" 
d="M764 464v818.999c0 8.66699 0.333008 17.334 1 26.001s1.66699 17.667 3 27l-659 -872h655zM1092 463.999l-0.000976562 -25.001c0 -11.333 -6.66699 -17 -20 -17h-261v-422h-47v422h-685c-8 0 -13.667 1.33301 -17 4s-5.66602 6.33398 -6.99902 11.001l-5 24l719 947h42
v-944h281z" />
    <glyph glyph-name="five" unicode="5" horiz-adv-x="1160" 
d="M282 835c48 12.667 93.499 21.8311 136.499 27.498s83.833 8.5 122.5 8.5c72.667 0 136.834 -10.333 192.501 -31s102 -49.5 139 -86.5s65 -81 84 -132s28.5 -107.167 28.5 -168.5c0 -74 -12.667 -140 -38 -198s-59.833 -107.167 -103.5 -147.5s-94.167 -71 -151.5 -92
s-118 -31.5 -182 -31.5c-37.333 0 -73 3.16699 -107 9.5s-66 14.833 -96 25.5s-57.5 22.834 -82.5 36.501s-46.833 27.5 -65.5 41.5l15 20c4 6.66699 10.333 10 19 10c6.66699 0 18 -5 34 -15s37.167 -20.833 63.5 -32.5s57.833 -22.5 94.5 -32.5s79 -15 127 -15
c58 0 112.333 9.16699 163 27.5s95 45.333 133 81s68 79.667 90 132s33 112.5 33 180.5c0 54.667 -8 104.834 -24 150.501s-40.167 85.167 -72.5 118.5s-73.5 59.333 -123.5 78s-109 28 -177 28c-78 0 -168 -13 -270 -39l-35 12l107 605h615v-22
c0 -7.33301 -2.5 -13.5 -7.5 -18.5s-12.833 -7.5 -23.5 -7.5h-544z" />
    <glyph glyph-name="six" unicode="6" horiz-adv-x="1160" 
d="M579 28c62.667 0 118.833 9.5 168.5 28.5s91.834 45.5 126.501 79.5s61.167 74.333 79.5 121s27.5 97.667 27.5 153c0 58 -9.16699 110.333 -27.5 157s-44 86.334 -77 119.001s-72.333 57.834 -118 75.501s-96.167 26.5 -151.5 26.5c-64 0 -121.167 -11.167 -171.5 -33.5
s-92.833 -51.166 -127.5 -86.499s-61 -74.833 -79 -118.5s-27 -87.167 -27 -130.5c0 -56.667 8.83301 -108.834 26.5 -156.501s43 -88.834 76 -123.501s72.667 -61.834 119 -81.501s98.166 -29.5 155.499 -29.5zM384.999 847c-28 -38 -52.6689 -72.8311 -74.002 -104.498
s-39.666 -62.5 -54.999 -92.5c19.333 28 42 53 68 75s54.5 40.667 85.5 56s63.833 27.166 98.5 35.499s70.667 12.5 108 12.5c62.667 0 119.667 -10.167 171 -30.5s95.333 -48.833 132 -85.5s65 -80.5 85 -131.5s30 -107.167 30 -168.5
c0 -63.333 -11.167 -121.333 -33.5 -174s-53.666 -97.834 -93.999 -135.501s-88.333 -67 -144 -88s-116.834 -31.5 -183.501 -31.5c-63.333 0 -121.166 10.167 -173.499 30.5s-97.333 49.833 -135 88.5s-67 86.167 -88 142.5s-31.5 120.5 -31.5 192.5
c0 52 14.167 112.5 42.5 181.5s74.833 147.833 139.5 236.5l398 537c6 8.66699 15.333 13 28 13h45z" />
    <glyph glyph-name="seven" unicode="7" horiz-adv-x="1160" 
d="M1060 1406v-24c0 -6 -0.833008 -11.5 -2.5 -16.5s-3.5 -9.16699 -5.5 -12.5l-677 -1332c-6.66699 -14 -18.667 -21 -36 -21h-33l680 1330l9 15c2.66699 4.66699 5.66699 9 9 13h-851c-12 0 -18 6 -18 18v30h925z" />
    <glyph glyph-name="eight" unicode="8" horiz-adv-x="1160" 
d="M580 26c58 0 111.167 8 159.5 24s89.833 38.667 124.5 68s61.667 65 81 107s29 88.667 29 140c0 45.333 -6 85.5 -18 120.5s-28.167 65.333 -48.5 91s-43.833 47.167 -70.5 64.5s-54.5 31.166 -83.5 41.499s-58.5 17.666 -88.5 21.999s-58.333 6.5 -85 6.5
s-55 -2.16699 -85 -6.5s-59.5 -11.666 -88.5 -21.999s-56.833 -24.166 -83.5 -41.499s-50.167 -38.833 -70.5 -64.5s-36.5 -56 -48.5 -91s-18 -75.167 -18 -120.5c0 -51.333 9.66699 -98 29 -140s46.333 -77.667 81 -107s76.167 -52 124.5 -68s101.5 -24 159.5 -24z
M235 1068c0 -40.667 7.00391 -80 21.0039 -118s35.333 -71.5 64 -100.5s64.667 -52.167 108 -69.5s94 -26 152 -26s108.667 8.66699 152 26s79.333 40.5 108 69.5s50 62.5 64 100.5s21 77.333 21 118c0 44.667 -7.83301 86 -23.5 124s-38.334 71 -68.001 99
s-65.834 49.833 -108.501 65.5s-91 23.5 -145 23.5s-102.333 -7.83301 -145 -23.5s-78.834 -37.5 -108.501 -65.5s-52.334 -61 -68.001 -99s-23.5 -79.333 -23.5 -124zM700.004 734c45.333 -8.66699 88.002 -22.334 128.002 -41.001s74.833 -43 104.5 -73
s53 -66.167 70 -108.5s25.5 -91.5 25.5 -147.5c0 -58.667 -11 -111.5 -33 -158.5s-52.833 -86.833 -92.5 -119.5s-86.834 -57.834 -141.501 -75.501s-115 -26.5 -181 -26.5s-126.333 8.83301 -181 26.5s-101.834 42.834 -141.501 75.501s-70.5 72.5 -92.5 119.5
s-33 99.833 -33 158.5c0 56 8.5 105.167 25.5 147.5s40.333 78.5 70 108.5s64.5 54.333 104.5 73s82.667 32.334 128 41.001c-44 10.667 -83.167 26.334 -117.5 47.001s-63.333 45.5 -87 74.5s-41.5 61.5 -53.5 97.5s-18 74.667 -18 116c0 48.667 9 94.5 27 137.5
s44 80.5 78 112.5s75.5 57.167 124.5 75.5s104.5 27.5 166.5 27.5s117.5 -9.16699 166.5 -27.5s90.5 -43.5 124.5 -75.5s60 -69.5 78 -112.5s27 -88.833 27 -137.5c0 -41.333 -6 -80 -18 -116s-29.833 -68.5 -53.5 -97.5s-52.667 -53.833 -87 -74.5
s-73.5 -36.334 -117.5 -47.001z" />
    <glyph glyph-name="nine" unicode="9" horiz-adv-x="1160" 
d="M556 651c62 0 117.001 10.665 165.001 31.998s88.5 48.833 121.5 82.5s58.167 71.334 75.5 113.001s26 83.167 26 124.5c0 54.667 -9 105 -27 151s-43.167 85.5 -75.5 118.5s-70.5 58.833 -114.5 77.5s-92 28 -144 28c-56.667 0 -108.667 -8.83301 -156 -26.5
s-88 -42.667 -122 -75s-60.333 -71 -79 -116s-28 -94.5 -28 -148.5c0 -56 8.66699 -106.167 26 -150.5s41.666 -82.166 72.999 -113.499s69 -55.333 113 -72s92.667 -25 146 -25zM773.001 590.998l69.498 101.498c21 30.333 39.167 60.5 54.5 90.5
c-19.333 -27.333 -41.666 -51.666 -66.999 -72.999s-53.166 -39.5 -83.499 -54.5s-62.333 -26.5 -96 -34.5s-68.167 -12 -103.5 -12c-60 0 -114.833 9.83301 -164.5 29.5s-92 47.167 -127 82.5s-62.167 77.5 -81.5 126.5s-29 103.167 -29 162.5s11.167 114.166 33.5 164.499
s53 93.833 92 130.5s85.167 65.334 138.5 86.001s111.333 31 174 31c59.333 0 114.166 -10.333 164.499 -31s93.833 -50 130.5 -88s65.334 -83.667 86.001 -137s31 -112.666 31 -177.999c0 -34 -4 -66.833 -12 -98.5s-19.5 -63.667 -34.5 -96s-33.333 -66 -55 -101
s-46.5 -72.833 -74.5 -113.5l-382 -566c-6 -8.66699 -15 -13 -27 -13h-47z" />
    <glyph glyph-name="colon" unicode=":" horiz-adv-x="471" 
d="M160 59c0 21.333 7.16699 39.5 21.5 54.5s32.166 22.5 53.499 22.5s39.5 -7.5 54.5 -22.5s22.5 -33.167 22.5 -54.5s-7.5 -39.166 -22.5 -53.499s-33.167 -21.5 -54.5 -21.5s-39.166 7.16699 -53.499 21.5s-21.5 32.166 -21.5 53.499zM160 881
c0 21.333 7.16699 39.5 21.5 54.5s32.166 22.5 53.499 22.5s39.5 -7.5 54.5 -22.5s22.5 -33.167 22.5 -54.5s-7.5 -39.166 -22.5 -53.499s-33.167 -21.5 -54.5 -21.5s-39.166 7.16699 -53.499 21.5s-21.5 32.166 -21.5 53.499z" />
    <glyph glyph-name="semicolon" unicode=";" horiz-adv-x="490" 
d="M179 -236c-3.33301 3.33301 -5 7 -5 11c0 2 1.66699 5.33301 5 10l24.5 30.5c11 13.667 22 30 33 49s20.833 40.333 29.5 64s14 48.834 16 75.501c-11.333 -7.33301 -25 -11 -41 -11c-19.333 0 -35.333 6.66699 -48 20s-19 30.666 -19 51.999c0 19.333 6.5 36 19.5 50
s30.167 21 51.5 21c22 0 39.667 -7.83301 53 -23.5s20 -37.5 20 -65.5c0 -53.333 -12 -105.5 -36 -156.5s-55.667 -95.833 -95 -134.5zM170 881c0 21.333 7.16699 39.5 21.5 54.5s32.166 22.5 53.499 22.5s39.5 -7.5 54.5 -22.5s22.5 -33.167 22.5 -54.5
s-7.5 -39.166 -22.5 -53.499s-33.167 -21.5 -54.5 -21.5s-39.166 7.16699 -53.499 21.5s-21.5 32.166 -21.5 53.499z" />
    <glyph glyph-name="less" unicode="&#x3c;" horiz-adv-x="1160" 
d="M289 693c-19.333 -10 -39.333 -17.333 -60 -22c22 -5.33301 42 -13 60 -23l608 -308c14.667 -7.33301 22 -16 22 -26v-33l-738 378v23l738 378v-33c0 -10 -7.33301 -19 -22 -27z" />
    <glyph glyph-name="equal" unicode="=" horiz-adv-x="1160" 
d="M174 546h811v-41h-811v41zM174 848h811v-41h-811v41z" />
    <glyph glyph-name="greater" unicode="&#x3e;" horiz-adv-x="1160" 
d="M979 682v-23.0029l-738 -378v33c0 10 7.33301 18.667 22 26l608 308c9.33301 4.66699 18.833 8.83398 28.5 12.501s20.167 6.83398 31.5 9.50098c-20.667 4.66699 -40.667 12.334 -60 23.001l-608 307c-14.667 8 -22 17 -22 27v33z" />
    <glyph glyph-name="question" unicode="?" horiz-adv-x="848" 
d="M101 1285c16.667 17.333 35.501 34.166 56.501 50.499s44.5 31 70.5 44s54.333 23.333 85 31s64 11.5 100 11.5c43.333 0 84.833 -6.66699 124.5 -20s74.667 -32.5 105 -57.5s54.5 -55.5 72.5 -91.5s27 -76.667 27 -122c0 -38 -4.66699 -72 -14 -102
s-21.666 -57 -36.999 -81s-32.833 -45.667 -52.5 -65s-39.834 -37.166 -60.501 -53.499s-41 -31.5 -61 -45.5s-38 -28.167 -54 -42.5s-29 -28.833 -39 -43.5s-15.333 -31 -16 -49l-8 -169h-35l-3 173c-0.666992 26.667 7 50.334 23 71.001s36.333 40.667 61 60l79.5 60
c28.333 20.667 54.833 44.167 79.5 70.5s45.167 56.833 61.5 91.5s24.5 75.667 24.5 123c0 39.333 -7.83301 74.5 -23.5 105.5s-36.5 57.167 -62.5 78.5s-55.833 37.666 -89.5 48.999s-68.834 17 -105.501 17c-46 0 -85.833 -6.33301 -119.5 -19s-62 -26.667 -85 -42
s-40.833 -29.333 -53.5 -42s-20.667 -19 -24 -19c-6 0 -10.667 2.33301 -14 7zM307.001 59c0 21.333 7.16699 39.5 21.5 54.5s32.166 22.5 53.499 22.5s39.5 -7.5 54.5 -22.5s22.5 -33.167 22.5 -54.5s-7.5 -39.166 -22.5 -53.499s-33.167 -21.5 -54.5 -21.5
s-39.166 7.16699 -53.499 21.5s-21.5 32.166 -21.5 53.499z" />
    <glyph glyph-name="at" unicode="@" horiz-adv-x="1649" 
d="M1103 858c-18.667 5.33301 -37.001 9.33301 -55.001 12s-40.333 4 -67 4c-65.333 0 -124.333 -13.167 -177 -39.5s-97.5 -60.333 -134.5 -102s-65.333 -88.5 -85 -140.5s-29.5 -104 -29.5 -156c0 -28 3.5 -54.333 10.5 -79s17.833 -46.167 32.5 -64.5
s32.834 -32.833 54.501 -43.5s47.167 -16 76.5 -16c26 0 52.833 4.33301 80.5 13s54.5 24.5 80.5 47.5s50.167 54.333 72.5 94s41.5 90.167 57.5 151.5zM1064 539c-17.333 -66.667 -25.5059 -120.497 -24.5059 -161.497s8 -72.667 21 -95s30.5 -37.333 52.5 -45
s45 -11.5 69 -11.5c40.667 0 79.834 10.333 117.501 31s70.834 50.334 99.501 89.001s51.5 85.5 68.5 140.5s25.5 117.167 25.5 186.5c0 102.667 -17 192 -51 268s-79.667 139 -137 189s-124 87.167 -200 111.5s-156 36.5 -240 36.5
c-61.333 0 -121.166 -8.16699 -179.499 -24.5s-113.166 -39.666 -164.499 -69.999s-98.5 -67.5 -141.5 -111.5s-79.833 -93.333 -110.5 -148s-54.667 -114.334 -72 -179.001s-26 -133.334 -26 -206.001c0 -120 19.333 -225.833 58 -317.5s91 -168.5 157 -230.5
s143 -108.833 231 -140.5s181.333 -47.5 280 -47.5c193.333 0 361.666 47 504.999 141c6 4 11.333 5.33301 16 4s8 -4.66602 10 -9.99902l10 -21c-75.333 -50 -157.666 -88.167 -246.999 -114.5s-187.333 -39.5 -294 -39.5s-206.667 17 -300 51
s-174.833 83.833 -244.5 149.5s-124.5 146.667 -164.5 243s-60 207.166 -60 332.499c0 74.667 8.83301 145.834 26.5 213.501s42.667 130.334 75 188.001s71 109.667 116 156s94.833 85.666 149.5 117.999s113.167 57.333 175.5 75s127.166 26.5 194.499 26.5
c58 0 115 -6 171 -18s108.833 -29.833 158.5 -53.5s95.334 -53.334 137.001 -89.001s77.5 -77.334 107.5 -125.001s53.5 -101.334 70.5 -161.001s25.5 -125.167 25.5 -196.5c0 -72.667 -9.5 -138.834 -28.5 -198.501s-44.667 -110.667 -77 -153s-70.333 -75 -114 -98
s-90.167 -34.5 -139.5 -34.5c-64 0 -109.5 18.333 -136.5 55s-38.833 86.667 -35.5 150c-36 -69.333 -78 -119.833 -126 -151.5s-101 -47.5 -159 -47.5c-36 0 -67.167 6.16699 -93.5 18.5s-48.166 29.333 -65.499 51s-30.166 47.167 -38.499 76.5s-12.5 61 -12.5 95
c0 56.667 10.833 113.334 32.5 170.001s53 107.667 94 153s91 82.166 150 110.499s125.833 42.5 200.5 42.5c30.667 0 60.667 -2.66699 90 -8s55 -13.333 77 -24z" />
    <glyph glyph-name="A" unicode="A" horiz-adv-x="1289" 
d="M987 504l-322 783c-7.33301 18 -14.333 38 -21 60c-6 -22 -13 -42 -21 -60l-322 -783h686zM1253 0h-43c-10 0 -17.333 5.66699 -22 17l-183 445h-722l-183 -445c-3.33301 -11.333 -11 -17 -23 -17h-41l582 1406h53z" />
    <glyph glyph-name="B" unicode="B" horiz-adv-x="1249" 
d="M657 45c131.333 0 232.167 28.166 302.5 84.499s105.5 138.5 105.5 246.5c0 48.667 -9.5 92.334 -28.5 131.001s-46 71.667 -81 99s-77.667 48.333 -128 63s-106.833 22 -169.5 22h-380v-646h379zM278.001 1362l-0.00195312 -629.001h333
c70.667 0 130.834 9.5 180.501 28.5s90.334 43.667 122.001 74s54.667 64.333 69 102s21.5 74.834 21.5 111.501c0 100.667 -32.833 178 -98.5 232s-166.167 81 -301.5 81h-326zM603.999 1406c153.333 0 267.333 -30.667 342 -92s112 -148.333 112 -261
c0 -39.333 -7.33301 -77.166 -22 -113.499s-35.167 -69.5 -61.5 -99.5s-58.333 -55.667 -96 -77s-79.5 -36.333 -125.5 -45c57.333 -6 108.666 -18.167 153.999 -36.5s83.833 -42 115.5 -71s55.834 -63.333 72.501 -103s25 -83.834 25 -132.501
c0 -60 -10.333 -113.167 -31 -159.5s-50.834 -85.5 -90.501 -117.5s-88.167 -56.333 -145.5 -73s-122.666 -25 -195.999 -25h-434v1406h381z" />
    <glyph glyph-name="C" unicode="C" horiz-adv-x="1360" 
d="M1252 209c2.66699 0 6.3291 -1.66602 10.9961 -4.99902l21 -22c-29.333 -29.333 -61 -56.166 -95 -80.499s-71.333 -45.166 -112 -62.499s-85.167 -30.833 -133.5 -40.5s-101.5 -14.5 -159.5 -14.5c-95.333 0 -183.166 16.833 -263.499 50.5s-149.5 81.667 -207.5 144
s-103.333 137.833 -136 226.5s-49 188 -49 298c0 107.333 16.333 205.166 49 293.499s78.834 164 138.501 227s131 111.833 214 146.5s174.5 52 274.5 52c94 0 177.333 -14.333 250 -43s140.334 -70 203.001 -124l-15 -22c-2.66699 -4.66699 -8 -7 -16 -7
c-4 0 -10.833 3.66699 -20.5 11l-38 27.5c-15.667 11 -34.667 23 -57 36s-48.5 25 -78.5 36s-64 20.167 -102 27.5s-80 11 -126 11c-90.667 0 -174 -15.667 -250 -47s-141.333 -76 -196 -134s-97.167 -128.5 -127.5 -211.5s-45.5 -176.167 -45.5 -279.5
c0 -105.333 15.167 -199.5 45.5 -282.5s72.5 -153.333 126.5 -211s117.667 -101.834 191 -132.501s153 -46 239 -46c54 0 102.333 3.66699 145 11s81.834 18.333 117.501 33s68.667 32.667 99 54s60.5 45.666 90.5 72.999c4.66699 4.66699 9 7 13 7z" />
    <glyph glyph-name="D" unicode="D" horiz-adv-x="1519" 
d="M1388 703c0 -110 -16 -208.5 -48 -295.5s-77 -160.667 -135 -221s-127.333 -106.5 -208 -138.5s-169.667 -48 -267 -48h-507v1406h507c97.333 0 186.333 -16 267 -48s150 -78.167 208 -138.5s103 -134 135 -221s48 -185.5 48 -295.5zM1330 703
c0 104.667 -14.5 197.832 -43.5 279.499s-70 150.5 -123 206.5s-116.333 98.667 -190 128s-154.834 44 -243.501 44h-452v-1316h452c88.667 0 169.834 14.667 243.501 44s137 72 190 128s94 124.833 123 206.5s43.5 174.834 43.5 279.501z" />
    <glyph glyph-name="E" unicode="E" horiz-adv-x="1163" 
d="M1055 47l-2 -47h-830v1406h830v-47h-775v-623h653v-46h-653v-643h777z" />
    <glyph glyph-name="F" unicode="F" horiz-adv-x="1128" 
d="M278 1359v-644h675v-47h-675v-668h-55v1406h830v-47h-775z" />
    <glyph glyph-name="G" unicode="G" horiz-adv-x="1476" 
d="M1336 618l0.00292969 -480c-69.333 -47.333 -144 -84.833 -224 -112.5s-170.333 -41.5 -271 -41.5c-110 0 -209 16.833 -297 50.5s-162.833 81.667 -224.5 144s-108.834 137.833 -141.501 226.5s-49 188 -49 298s16.167 209.167 48.5 297.5s78.833 163.833 139.5 226.5
s134 110.834 220 144.501s182.667 50.5 290 50.5c52.667 0 101.167 -3.33301 145.5 -10s85.5 -16.834 123.5 -30.501s73.833 -30.834 107.5 -51.501s66.167 -44.667 97.5 -72l-14 -21c-5.33301 -8 -13 -10.667 -23 -8c-6.66699 2 -18.834 10.667 -36.501 26
s-43.5 31.833 -77.5 49.5s-77.5 33.834 -130.5 48.501s-117.5 22 -193.5 22c-98 0 -186.5 -15.333 -265.5 -46s-146.333 -75 -202 -133s-98.5 -128.5 -128.5 -211.5s-45 -176.833 -45 -281.5c0 -104 15 -197.667 45 -281s73.167 -154.166 129.5 -212.499s125 -103 206 -134
s172.5 -46.5 274.5 -46.5c46 0 88.833 3 128.5 9s77.167 14.667 112.5 26s69.666 25.166 102.999 41.499s67 34.833 101 55.5v413h-297c-4.66699 0 -8.66699 1.66699 -12 5s-5 7 -5 11v28h365z" />
    <glyph glyph-name="H" unicode="H" horiz-adv-x="1502" 
d="M1279 1406v-1406h-56v691h-945v-691h-55v1406h55v-671h945v671h56z" />
    <glyph glyph-name="I" unicode="I" horiz-adv-x="501" 
d="M278 0h-55v1406h55v-1406z" />
    <glyph glyph-name="J" unicode="J" horiz-adv-x="821" 
d="M613 460c0 -78.667 -9.66895 -147.668 -29.002 -207.001s-46.833 -109 -82.5 -149s-78.667 -70 -129 -90s-106.166 -30 -167.499 -30c-56.667 0 -116 10 -178 30l2 12.5l2 13.5c1.33301 3.33301 2.83301 6.66602 4.5 9.99902s6.16699 5 13.5 5c6 0 13.333 -1.33301 22 -4
s19 -5.5 31 -8.5s26 -5.83301 42 -8.5s35 -4 57 -4c54.667 0 104 8.83301 148 26.5s81.333 44.334 112 80.001s54.334 80.334 71.001 134.001s25 116.5 25 188.5v947h56v-946z" />
    <glyph glyph-name="K" unicode="K" horiz-adv-x="1241" 
d="M278 739l90 -0.00195312c12.667 0 23.5 0.333008 32.5 1s17.333 2.33398 25 5.00098s14.667 6.33398 21 11.001s13.166 10.667 20.499 18l620 611c8 8 15.5 13.5 22.5 16.5s15.167 4.5 24.5 4.5h40l-655 -645c-12 -11.333 -22.167 -20 -30.5 -26s-18.5 -10.667 -30.5 -14
c12.667 -3.33301 23.667 -8 33 -14s19 -14.667 29 -26l694 -681h-40c-12.667 0 -22 1.5 -28 4.5s-11.667 7.83301 -17 14.5l-652 635c-7.33301 7.33301 -14 13.5 -20 18.5s-12.667 9.16699 -20 12.5s-16.166 5.83301 -26.499 7.5s-23.5 2.5 -39.5 2.5h-93v-695h-55v1406h55
v-667z" />
    <glyph glyph-name="L" unicode="L" horiz-adv-x="1005" 
d="M975 48v-48h-752v1406h55v-1358h697z" />
    <glyph glyph-name="M" unicode="M" horiz-adv-x="1796" 
d="M1573 1406v-1406h-48v1286c0 5.33301 0.166992 10.666 0.5 15.999s0.5 10.666 0.5 15.999l-590 -1035c-6.66699 -11.333 -14.667 -17 -24 -17h-10c-10 0 -18.333 5.66699 -25 17l-608 1037c0.666992 -6 1.16699 -11.833 1.5 -17.5s0.5 -11.167 0.5 -16.5v-1286h-48v1406
h33c5.33301 0 9.83301 -0.833008 13.5 -2.5s7.16699 -5.16699 10.5 -10.5l610 -1036l17 -37l8 18.5c2.66699 6.33301 5.66699 12.833 9 19.5l592 1035c3.33301 5.33301 6.83301 8.83301 10.5 10.5s8.16699 2.5 13.5 2.5h33z" />
    <glyph glyph-name="N" unicode="N" horiz-adv-x="1502" 
d="M1279 1406l0.000976562 -1406h-23c-8.66699 0 -16 4 -22 12l-965 1304c0.666992 -6 1.16699 -12.167 1.5 -18.5s0.5 -12.166 0.5 -17.499v-1280h-48v1406h25c5.33301 0 9.66602 -0.833008 12.999 -2.5s7 -5.16699 11 -10.5l961 -1299c-0.666992 6 -1.16699 12 -1.5 18
s-0.5 11.667 -0.5 17v1277h48z" />
    <glyph glyph-name="O" unicode="O" horiz-adv-x="1574" 
d="M1445 703c0 -110 -16 -209.167 -48 -297.5s-77 -163.666 -135 -225.999s-127.333 -110.166 -208 -143.499s-170 -50 -268 -50c-96.667 0 -185.334 16.667 -266.001 50s-150 81.166 -208 143.499s-103 137.666 -135 225.999s-48 187.5 -48 297.5
c0 109.333 16 208.333 48 297s77 164.167 135 226.5s127.333 110.5 208 144.5s169.334 51 266.001 51c98 0 187.333 -16.833 268 -50.5s150 -81.667 208 -144s103 -137.833 135 -226.5s48 -188 48 -298zM1387 703c0 104.667 -14.5 198.5 -43.5 281.5s-70 153.5 -123 211.5
s-116.333 102.333 -190 133s-155.167 46 -244.5 46c-88 0 -168.833 -15.333 -242.5 -46s-137 -75 -190 -133s-94.333 -128.5 -124 -211.5s-44.5 -176.833 -44.5 -281.5s14.833 -198.5 44.5 -281.5s71 -153.167 124 -210.5s116.333 -101.333 190 -132s154.5 -46 242.5 -46
c89.333 0 170.833 15.333 244.5 46s137 74.667 190 132s94 127.5 123 210.5s43.5 176.833 43.5 281.5z" />
    <glyph glyph-name="P" unicode="P" horiz-adv-x="1133" 
d="M559 633c66 0 125.499 9.33105 178.499 27.998s98 44.334 135 77.001s65.5 71.334 85.5 116.001s30 92.667 30 144c0 118.667 -35.667 209 -107 271s-178.666 93 -321.999 93h-281v-729h281zM558.999 1406c158.667 0 279.169 -34.0029 361.502 -102.003
s123.5 -170 123.5 -306c0 -59.333 -11.5 -114.166 -34.5 -164.499s-55.833 -93.666 -98.5 -129.999s-93.834 -64.666 -153.501 -84.999s-125.834 -30.5 -198.501 -30.5h-281v-588h-55v1406h336z" />
    <glyph glyph-name="Q" unicode="Q" horiz-adv-x="1574" 
d="M185 703c0 -104.667 14.833 -198.5 44.5 -281.5s71 -153.167 124 -210.5s116.333 -101.333 190 -132s154.5 -46 242.5 -46c89.333 0 170.833 15.333 244.5 46s137 74.667 190 132s94 127.5 123 210.5s43.5 176.833 43.5 281.5s-14.5 198.5 -43.5 281.5
s-70 153.5 -123 211.5s-116.333 102.333 -190 133s-155.167 46 -244.5 46c-88 0 -168.833 -15.333 -242.5 -46s-137 -75 -190 -133s-94.333 -128.5 -124 -211.5s-44.5 -176.833 -44.5 -281.5zM1498 -320l-47 0.00292969c-16 0 -28.667 4.66699 -38 14l-331 355
c-44 -20.667 -90.667 -36.334 -140 -47.001s-101.333 -16 -156 -16c-96.667 0 -185.334 16.667 -266.001 50s-150 81.166 -208 143.499s-103 137.666 -135 225.999s-48 187.5 -48 297.5c0 109.333 16 208.333 48 297s77 164.167 135 226.5s127.333 110.5 208 144.5
s169.334 51 266.001 51c98 0 187.333 -16.833 268 -50.5s150 -81.667 208 -144s103 -137.833 135 -226.5s48 -188 48 -298c0 -73.333 -7.33301 -142.166 -22 -206.499s-35.667 -123 -63 -176s-60.5 -100.333 -99.5 -142s-83.167 -76.834 -132.5 -105.501z" />
    <glyph glyph-name="R" unicode="R" horiz-adv-x="1194" 
d="M278 704l268 -0.000976562c66 0 125.5 7.83301 178.5 23.5s98 38.334 135 68.001s65.333 65.5 85 107.5s29.5 89.333 29.5 142c0 108.667 -35.333 188.667 -106 240s-172.667 77 -306 77h-284v-658zM1156 -0.000976562h-45.001c-7.33301 0 -13.833 1 -19.5 3
s-11.167 6.66699 -16.5 14l-496 607c-5.33301 7.33301 -10.833 13.333 -16.5 18s-12 8.5 -19 11.5s-15.333 5.16699 -25 6.5s-21.5 2 -35.5 2h-205v-662h-55v1406h339c152.667 0 268.667 -29.667 348 -89s119 -149.333 119 -270c0 -55.333 -10.333 -105.5 -31 -150.5
s-49.667 -84 -87 -117s-82.666 -59.333 -135.999 -79s-112.333 -31.5 -177 -35.5c12 -6.66699 23.667 -16.667 35 -30z" />
    <glyph glyph-name="S" unicode="S" horiz-adv-x="1063" 
d="M887 1260c-4 -6.66699 -9.66699 -10.0049 -17 -10.0049s-17.5 6.5 -30.5 19.5s-31.167 27.5 -54.5 43.5s-53.333 30.5 -90 43.5s-82 19.5 -136 19.5c-54.667 0 -103.167 -8.16699 -145.5 -24.5s-77.833 -38.5 -106.5 -66.5s-50.334 -60.167 -65.001 -96.5
s-22 -74.5 -22 -114.5c0 -51.333 10.333 -94.166 31 -128.499s48 -63.166 82 -86.499s72.5 -43 115.5 -59s87.167 -31.5 132.5 -46.5s89.5 -31 132.5 -48s81.5 -38.5 115.5 -64.5s61.333 -58.167 82 -96.5s31 -85.833 31 -142.5c0 -58 -9.83301 -112.5 -29.5 -163.5
s-48.334 -95.333 -86.001 -133s-83.667 -67.334 -138 -89.001s-116.166 -32.5 -185.499 -32.5c-47.333 0 -90.166 4.16699 -128.499 12.5s-73.666 20.333 -105.999 36s-62 34.834 -89 57.501s-52.833 48.334 -77.5 77.001l13 20
c3.33301 3.33301 6.16602 5.83301 8.49902 7.5s5.83301 2.5 10.5 2.5s11.167 -4.16699 19.5 -12.5l32.5 -31c13.333 -12.333 29.333 -25.666 48 -39.999s40.834 -27.666 66.501 -39.999s55.334 -22.666 89.001 -30.999s71.834 -12.5 114.501 -12.5
c60.667 0 115 9.5 163 28.5s88.5 45 121.5 78s58.167 71.5 75.5 115.5s26 91 26 141c0 53.333 -10.333 97.333 -31 132s-47.834 63.667 -81.501 87s-72.167 42.833 -115.5 58.5s-87.5 30.667 -132.5 45s-89.167 30 -132.5 47s-81.833 38.667 -115.5 65
s-60.834 59 -81.501 98s-31 87.833 -31 146.5c0 46 8.66699 90 26 132s42.5 79.167 75.5 111.5s73.667 58.166 122 77.499s103.833 29 166.5 29c70.667 0 133.167 -11.333 187.5 -34s105.166 -58 152.499 -106z" />
    <glyph glyph-name="T" unicode="T" horiz-adv-x="1146" 
d="M1117 1358h-515v-1358h-55v1358h-518v48h1088v-48z" />
    <glyph glyph-name="U" unicode="U" horiz-adv-x="1446" 
d="M723 32c72.667 0 137.5 12.833 194.5 38.5s105.333 60.834 145 105.501s70 97.167 91 157.5s31.5 125.166 31.5 194.499v878h56v-878c0 -76 -12 -147.167 -36 -213.5s-58.5 -124.166 -103.5 -173.499s-99.333 -88.166 -163 -116.499s-135.5 -42.5 -215.5 -42.5
s-152 14.167 -216 42.5s-118.333 67.166 -163 116.499s-79 107.166 -103 173.499s-36 137.5 -36 213.5v878h55v-876c0 -69.333 10.5 -134.333 31.5 -195s51.333 -113.5 91 -158.5s88.167 -80.333 145.5 -106s122.333 -38.5 195 -38.5z" />
    <glyph glyph-name="V" unicode="V" horiz-adv-x="1289" 
d="M1253 1406l-583.999 -1406h-49l-584 1406h43c11.333 0 18.666 -5.66699 21.999 -17l522 -1259c4 -10.667 7.83301 -21.5 11.5 -32.5s7.16699 -22.167 10.5 -33.5c6 22.667 13 44.667 21 66l521 1259c3.33301 11.333 11.333 17 24 17h42z" />
    <glyph glyph-name="W" unicode="W" horiz-adv-x="2015" 
d="M1959 1406l-444.998 -1406h-49l-446 1298c-4.66699 13.333 -8.33398 26.666 -11.001 39.999c-2.66699 -13.333 -6.33398 -26.666 -11.001 -39.999l-448 -1298h-48l-445 1406h45c11.333 0 18.666 -5.66699 21.999 -17l388 -1249
c6.66699 -22.667 12.334 -46.667 17.001 -72c2.66699 13.333 5.5 26 8.5 38s6.16699 23.333 9.5 34l433 1249c3.33301 11.333 11.333 17 24 17h13c11.333 0 18.666 -5.66699 21.999 -17l433 -1249c6.66699 -20.667 12.667 -44.334 18 -71.001
c2.66699 13.333 5.33398 25.833 8.00098 37.5s5.66699 22.834 9 33.501l388 1249c3.33301 11.333 11.333 17 24 17h41z" />
    <glyph glyph-name="X" unicode="X" horiz-adv-x="1219" 
d="M1167 0l-54.0029 0.000976562c-6.66699 0 -11.667 2.16699 -15 6.5s-6.66602 8.16602 -9.99902 11.499l-479 677c-2 -8 -5.33301 -14.667 -10 -20l-472 -657l-11.5 -12c-3.66699 -4 -8.16699 -6 -13.5 -6h-51l520 720l-497 686h54c6.66699 0 11.5 -1.83301 14.5 -5.5
s6.16699 -7.16699 9.5 -10.5l459 -643c1.33301 3.33301 2.83301 6.83301 4.5 10.5s3.83398 7.5 6.50098 11.5l447 620c2.66699 4 5.83398 7.83301 9.50098 11.5s8.16699 5.5 13.5 5.5h52l-495 -682z" />
    <glyph glyph-name="Y" unicode="Y" horiz-adv-x="1160" 
d="M608 591v-590.999h-56v591l-522 815h47c6 0 10.667 -1.16699 14 -3.5s6.66602 -6.16602 9.99902 -11.499l445 -698l19 -33c6 -10.667 11 -21.334 15 -32.001c4.66699 11.333 9.83398 22.166 15.501 32.499l18.5 32.5l445 698c5.33301 10 13 15 23 15h48z" />
    <glyph glyph-name="Z" unicode="Z" horiz-adv-x="1191" 
d="M1106 1390c0 -8.66699 -3.33203 -18.333 -9.99902 -29l-944 -1314h950v-47h-1025v17c0 5.33301 0.666992 9.83301 2 13.5s3.66602 7.5 6.99902 11.5l945 1317h-933v47h1008v-16z" />
    <glyph glyph-name="bracketleft" unicode="[" horiz-adv-x="584" 
d="M259 1471v-1685h225c13.333 0 20 -6.33301 20 -19v-18h-291v1759h291v-18c0 -12.667 -6.66699 -19 -20 -19h-225z" />
    <glyph glyph-name="backslash" unicode="\" horiz-adv-x="852" 
d="M82 1446h22c16 0 27 -7.33301 33 -22l633 -1504h-20c-7.33301 0 -14.333 1.66699 -21 5s-11.667 9 -15 17z" />
    <glyph glyph-name="bracketright" unicode="]" horiz-adv-x="584" 
d="M371 -251h-291v18c0 12.667 6.66699 19 20 19h226v1685h-226c-13.333 0 -20 6.33301 -20 19v18h291v-1759z" />
    <glyph glyph-name="asciicircum" unicode="^" horiz-adv-x="1160" 
d="M966 725l-34.999 0.000976562c-5.33301 0 -10.333 1.66699 -15 5s-8.33398 7.66602 -11.001 12.999l-303 560l-12.5 26c-3.66699 8 -6.83398 16.667 -9.50098 26c-3.33301 -9.33301 -6.66602 -18 -9.99902 -26s-7.33301 -16.667 -12 -26l-302 -560c-2 -4 -5 -8 -9 -12
s-9.33301 -6 -16 -6h-37l370 681h31z" />
    <glyph glyph-name="underscore" unicode="_" horiz-adv-x="892" 
d="M840 -226v-40h-788v40h788z" />
    <glyph glyph-name="grave" unicode="`" 
d="M279 1422c13.333 0 23.167 -1.83301 29.5 -5.5s12.833 -10.5 19.5 -20.5l161 -237h-30c-10.667 0 -19 4 -25 12l-208 251h53z" />
    <glyph glyph-name="a" unicode="a" horiz-adv-x="955" 
d="M737 494c-201.333 -6.66699 -350.166 -31.667 -446.499 -75s-144.5 -104.333 -144.5 -183c0 -36.667 6.16699 -68.334 18.5 -95.001s28.666 -48.834 48.999 -66.501s43.5 -30.667 69.5 -39s52.667 -12.5 80 -12.5c42.667 0 81.667 4.83301 117 14.5s68 22.834 98 39.501
s58 36.334 84 59.001s51 46.667 75 72v286zM147 846c49.333 50.667 100.998 89.3359 154.998 116.003s115.667 40 185 40c51.333 0 96 -8.16699 134 -24.5s69.5 -39.833 94.5 -70.5s43.5 -67.834 55.5 -111.501s18 -92.834 18 -147.501v-648h-18c-13.333 0 -21 7 -23 21
l-10 146c-27.333 -28 -54.666 -53.333 -81.999 -76s-56.333 -41.834 -87 -57.501s-63.667 -27.834 -99 -36.501s-74.333 -13 -117 -13c-31.333 0 -62.333 4.66699 -93 14s-58.334 24 -83.001 44s-44.5 45.833 -59.5 77.5s-22.5 69.834 -22.5 114.501
c0 43.333 12.5 82.666 37.5 117.999s63.833 65.833 116.5 91.5s119.334 46 200.001 61s176.667 23.833 288 26.5v117c0 98.667 -21.333 175.334 -64 230.001s-106 82 -190 82c-50 0 -93 -7.16699 -129 -21.5s-66 -30.333 -90 -48s-43.167 -33.667 -57.5 -48
s-25.166 -21.5 -32.499 -21.5c-6.66699 0 -12.667 3.66699 -18 11z" />
    <glyph glyph-name="b" unicode="b" horiz-adv-x="1093" 
d="M229 205c40.667 -64.667 86.333 -110.168 137 -136.501s108 -39.5 172 -39.5c65.333 0 122.166 11.833 170.499 35.5s88.333 56.834 120 99.501s55.334 94 71.001 154s23.5 126.667 23.5 200c0 146 -29.5 256.167 -88.5 330.5s-142.167 111.5 -249.5 111.5
c-78 0 -145.833 -19 -203.5 -57s-108.5 -90.667 -152.5 -158v-540zM228.999 796.999c44 63.333 95.834 113.335 155.501 150.002s130.167 55 211.5 55c60 0 113.667 -10.667 161 -32s87.333 -52.5 120 -93.5s57.5 -91.333 74.5 -151s25.5 -127.834 25.5 -204.501
c0 -80 -9.33301 -152.833 -28 -218.5s-46.334 -121.667 -83.001 -168s-81.667 -82.333 -135 -108s-114.666 -38.5 -183.999 -38.5c-140.667 0 -247.334 56.333 -320.001 169l-5 -139c-0.666992 -4.66699 -2.16699 -8.83398 -4.5 -12.501s-6.83301 -5.5 -13.5 -5.5h-28v1446
h53v-649z" />
    <glyph glyph-name="c" unicode="c" horiz-adv-x="937" 
d="M827 878c-2 -2 -4.00098 -3.83008 -6.00098 -5.49707s-4.66699 -2.5 -8 -2.5c-5.33301 0 -13.666 4.66699 -24.999 14s-27 19.666 -47 30.999s-45.333 21.666 -76 30.999s-67.667 14 -111 14c-61.333 0 -115.833 -10.833 -163.5 -32.5s-88 -52.834 -121 -93.501
s-58.167 -89.667 -75.5 -147s-26 -122 -26 -194c0 -74 8.83301 -139.833 26.5 -197.5s42.667 -106.167 75 -145.5s71.333 -69.333 117 -90s96.5 -31 152.5 -31c50.667 0 93.167 5.83301 127.5 17.5s62.833 24.667 85.5 39s40 27.333 52 39s20.667 17.5 26 17.5
s9.66602 -2 12.999 -6l12 -15c-12 -16.667 -28.5 -33 -49.5 -49s-45.333 -30.167 -73 -42.5s-58.334 -22.333 -92.001 -30s-69.5 -11.5 -107.5 -11.5c-63.333 0 -120.666 11.333 -171.999 34s-95.166 55.667 -131.499 99s-64.5 96.333 -84.5 159s-30 133.667 -30 213
c0 76 9.83301 145.333 29.5 208s48.167 116.167 85.5 160.5s83 78.833 137 103.5s115.667 37 185 37c61.333 0 116 -9.83301 164 -29.5s89.333 -45.5 124 -77.5z" />
    <glyph glyph-name="d" unicode="d" horiz-adv-x="1093" 
d="M864 787c-41.333 63.333 -87 108.166 -137 134.499s-107.333 39.5 -172 39.5s-121 -11.833 -169 -35.5s-88 -56.5 -120 -98.5s-56 -91.667 -72 -149s-24 -119.666 -24 -186.999c0 -156.667 29.5 -272.667 88.5 -348s145.167 -113 258.5 -113c69.333 0 133.5 19 192.5 57
s110.5 90.667 154.5 158v542zM917 1446l-0.00195312 -1446h-24c-13.333 0 -20.333 6.66699 -21 20l-6 176c-44 -64.667 -96.5 -115.5 -157.5 -152.5s-128.5 -55.5 -202.5 -55.5c-125.333 0 -221.666 41.333 -288.999 124s-101 209 -101 379c0 72 9.16699 139 27.5 201
s45.666 116 81.999 162s81.333 82.167 135 108.5s115.834 39.5 186.501 39.5s131.834 -13.5 183.501 -40.5s96.167 -67.5 133.5 -121.5v606h53z" />
    <glyph glyph-name="e" unicode="e" horiz-adv-x="1036" 
d="M885 588c0 59.333 -8.49902 112.168 -25.499 158.501s-40.333 85.5 -70 117.5s-64.834 56.333 -105.501 73s-84.667 25 -132 25c-56 0 -106.167 -8.83301 -150.5 -26.5s-82.5 -42.834 -114.5 -75.501s-57.833 -72 -77.5 -118s-32.5 -97.333 -38.5 -154h714z
M907.001 121.002c-13.333 -16.667 -32.001 -33.002 -56.001 -49.002s-51.5 -30.167 -82.5 -42.5s-64.667 -22.333 -101 -30s-73.5 -11.5 -111.5 -11.5c-67.333 0 -128.166 11.833 -182.499 35.5s-100.666 57.834 -138.999 102.501s-67.833 99.5 -88.5 164.5
s-31 139.167 -31 222.5c0 72 9.83301 137.833 29.5 197.5s48.167 111.167 85.5 154.5s83 77 137 101s115.333 36 184 36c53.333 0 103.166 -9.33301 149.499 -28s86.833 -46.167 121.5 -82.5s61.834 -81.166 81.501 -134.499s29.5 -114.333 29.5 -183c0 -14 -6 -21 -18 -21
h-747c-0.666992 -6.66699 -1 -13.167 -1 -19.5v-20.5c0 -78.667 9.33301 -148 28 -208s45 -110.333 79 -151s75.167 -71.5 123.5 -92.5s102.166 -31.5 161.499 -31.5c52.667 0 98.334 5.83301 137.001 17.5s71 24.5 97 38.5s46.167 26.833 60.5 38.5s23.5 17.5 27.5 17.5
c5.33301 0 9.66602 -2 12.999 -6z" />
    <glyph glyph-name="f" unicode="f" horiz-adv-x="671" 
d="M231 0v906.995l-154 6c-12.667 1.33301 -19 6.33301 -19 15v20h173v141c0 56 6.83301 104.833 20.5 146.5s33 76.334 58 104.001s54.833 48.167 89.5 61.5s72.667 20 114 20c20 0 40.333 -1.66699 61 -5s38.667 -8.66602 54 -15.999l-3 -23
c-0.666992 -5.33301 -3 -8.16602 -7 -8.49902s-10.333 0.333984 -19 2.00098l-32.5 6c-13 2.33301 -28.833 3.5 -47.5 3.5c-34 0 -65.333 -5.16699 -94 -15.5s-53.5 -27.166 -74.5 -50.499s-37.5 -53.5 -49.5 -90.5s-18 -82.167 -18 -135.5v-140h338v-40h-337v-908h-53z" />
    <glyph glyph-name="g" unicode="g" horiz-adv-x="1011" 
d="M487 411c46 0 87.166 6.66699 123.499 20s67 32.166 92 56.499s44 53.333 57 87s19.5 71.167 19.5 112.5c0 40.667 -6.66699 78 -20 112s-32.5 63 -57.5 87s-55.667 42.667 -92 56s-77.166 20 -122.499 20s-86 -6.66699 -122 -20s-66.5 -32 -91.5 -56
s-44.167 -53 -57.5 -87s-20 -71.333 -20 -112c0 -41.333 6.66699 -78.833 20 -112.5s32.5 -62.667 57.5 -87s55.5 -43.166 91.5 -56.499s76.667 -20 122 -20zM885.999 -74c0 34.667 -8.83398 62.666 -26.501 83.999s-41 37.833 -70 49.5s-62.5 19.834 -100.5 24.501
s-77.5 8 -118.5 10l-123 6c-41 2 -79.167 6.33301 -114.5 13c-29.333 -10.667 -56.166 -23.167 -80.499 -37.5s-45.333 -30.5 -63 -48.5s-31.5 -38 -41.5 -60s-15 -46 -15 -72c0 -32 8.33301 -62 25 -90s40.834 -52.167 72.501 -72.5s70.167 -36.5 115.5 -48.5
s96.666 -18 153.999 -18c52 0 101.333 6.33301 148 19s87.667 30.5 123 53.5s63.333 50.5 84 82.5s31 67 31 105zM948.998 939.999v-16.002c0 -5.33301 -2 -9.66602 -6 -12.999s-9 -5.33301 -15 -6l-177 -7c24.667 -27.333 43.667 -58.666 57 -93.999s20 -74 20 -116
c0 -47.333 -8.16699 -90.333 -24.5 -129s-39.333 -71.834 -69 -99.501s-65.5 -49 -107.5 -64s-88.667 -22.5 -140 -22.5c-62.667 0 -118 11 -166 33c-31.333 -18 -56.5 -39.833 -75.5 -65.5s-28.5 -50.167 -28.5 -73.5c0 -31.333 10.333 -55.333 31 -72s47.667 -29 81 -37
s71.5 -13.167 114.5 -15.5s87 -4.5 132 -6.5s89 -5.66699 132 -11s81.167 -15 114.5 -29s60.333 -34 81 -60s31 -60.667 31 -104c0 -40 -10.167 -78.5 -30.5 -115.5s-49.5 -69.5 -87.5 -97.5s-83.833 -50.5 -137.5 -67.5s-113.5 -25.5 -179.5 -25.5
c-67.333 0 -126.833 7 -178.5 21s-95 33.167 -130 57.5s-61.333 52.5 -79 84.5s-26.5 66 -26.5 102c0 54 18.333 100.833 55 140.5s86.667 70.167 150 91.5c-36 10.667 -64.833 26.334 -86.5 47.001s-32.5 50 -32.5 88c0 13.333 2.83301 27.5 8.5 42.5s13.667 29.667 24 44
s22.833 28.166 37.5 41.499s31.334 25 50.001 35c-46 26.667 -81.667 62.834 -107 108.501s-38 98.5 -38 158.5c0 46.667 8 89.167 24 127.5s38.833 71.333 68.5 99s65.5 49.167 107.5 64.5s89 23 141 23c43.333 0 83.166 -5.33301 119.499 -16s68.5 -26 96.5 -46h246z" />
    <glyph glyph-name="h" unicode="h" horiz-adv-x="1092" 
d="M229 798c46 62 100.667 111.501 164 148.501s132.333 55.5 207 55.5c54.667 0 102.5 -8.5 143.5 -25.5s75 -41.333 102 -73s47.333 -70.5 61 -116.5s20.5 -98 20.5 -156v-631h-53v631c0 51.333 -5.66699 97.333 -17 138s-28.833 75.167 -52.5 103.5s-53.167 50 -88.5 65
s-77 22.5 -125 22.5c-72 0 -138.5 -18.833 -199.5 -56.5s-115.167 -89.834 -162.5 -156.501v-747h-53v1446h53v-648z" />
    <glyph glyph-name="i" unicode="i" horiz-adv-x="428" 
d="M240 986v-986h-52v986h52zM283 1342c0 -9.33301 -2 -18.0029 -6 -26.0029s-9.16699 -15.167 -15.5 -21.5s-13.666 -11.333 -21.999 -15s-16.833 -5.5 -25.5 -5.5c-18.667 0 -34.834 6.83301 -48.501 20.5s-20.5 29.5 -20.5 47.5c0 18.667 6.83301 34.834 20.5 48.501
s29.834 20.5 48.501 20.5c8.66699 0 17.167 -1.83301 25.5 -5.5s15.666 -8.66699 21.999 -15s11.5 -13.666 15.5 -21.999s6 -17.166 6 -26.499z" />
    <glyph glyph-name="j" unicode="j" horiz-adv-x="428" 
d="M240 986l-0.000976562 -1140c0 -31.333 -4.66699 -60.333 -14 -87s-23.166 -49.667 -41.499 -69s-40.666 -34.5 -66.999 -45.5s-56.5 -16.5 -90.5 -16.5c-18.667 0 -34.834 1.83301 -48.501 5.5s-27.167 8.83398 -40.5 15.501l5 25c2 5.33301 4.66699 8.16602 8 8.49902
s8 -0.5 14 -2.5s13.5 -4.33301 22.5 -7s20.167 -4 33.5 -4c55.333 0 97 16 125 48s42 75 42 129v1140h52zM281.999 1342c0 -9.33301 -2 -18.0029 -6 -26.0029s-9.16699 -15.167 -15.5 -21.5s-13.666 -11.333 -21.999 -15s-16.833 -5.5 -25.5 -5.5
c-18.667 0 -34.834 6.83301 -48.501 20.5s-20.5 29.5 -20.5 47.5c0 18.667 6.83301 34.834 20.5 48.501s29.834 20.5 48.501 20.5c8.66699 0 17.167 -1.83301 25.5 -5.5s15.666 -8.66699 21.999 -15s11.5 -13.666 15.5 -21.999s6 -17.166 6 -26.499z" />
    <glyph glyph-name="k" unicode="k" horiz-adv-x="919" 
d="M229 1446l0.000976562 -896.999h46c7.33301 0 15 1 23 3s17 7.66699 27 17l439 397c6 6.66699 12.167 11.667 18.5 15s14.5 5 24.5 5h44l-473 -427c-5.33301 -5.33301 -10.5 -9.83301 -15.5 -13.5s-10.167 -7.16699 -15.5 -10.5
c9.33301 -3.33301 17.666 -7.83301 24.999 -13.5s14.333 -11.834 21 -18.501l496 -503h-45c-6.66699 0 -12.834 1 -18.501 3s-11.167 6.33301 -16.5 13l-463 467c-11.333 11.333 -21.666 19 -30.999 23s-24 6 -44 6h-42v-512h-53v1446h53z" />
    <glyph glyph-name="l" unicode="l" horiz-adv-x="426" 
d="M239 1446v-1446h-52v1446h52z" />
    <glyph glyph-name="m" unicode="m" horiz-adv-x="1591" 
d="M176 0l0.000976562 985.999h25c12.667 0 19.334 -6.66699 20.001 -20l6 -166c38.667 61.333 84.167 110.333 136.5 147s110.166 55 173.499 55c75.333 0 135 -22.667 179 -68s72.667 -109 86 -191c10 44 25.5 82.167 46.5 114.5s45.5 59.333 73.5 81s58.667 37.667 92 48
s67.666 15.5 102.999 15.5c47.333 0 90.166 -8.16699 128.499 -24.5s70.833 -40.166 97.5 -71.499s47.167 -70 61.5 -116s21.5 -99 21.5 -159v-631h-53v631c0 106.667 -22.833 188.167 -68.5 244.5s-110.834 84.5 -195.501 84.5c-37.333 0 -73.166 -6.83301 -107.499 -20.5
s-64.666 -34.334 -90.999 -62.001s-47.5 -62 -63.5 -103s-24 -88.833 -24 -143.5v-631h-53v631c0 104.667 -20.667 185.667 -62 243s-102 86 -182 86c-60 0 -115 -18.667 -165 -56s-94 -88.666 -132 -153.999v-750h-53z" />
    <glyph glyph-name="n" unicode="n" horiz-adv-x="1092" 
d="M227 795c46 63.333 100.832 113.668 164.499 151.001s133.167 56 208.5 56c54.667 0 102.5 -8.5 143.5 -25.5s75 -41.333 102 -73s47.333 -70.5 61 -116.5s20.5 -98 20.5 -156v-631h-53v631c0 51.333 -5.66699 97.333 -17 138s-28.833 75.167 -52.5 103.5
s-53.167 50 -88.5 65s-77 22.5 -125 22.5c-72 0 -138.5 -18.833 -199.5 -56.5s-115.167 -89.834 -162.5 -156.501v-747h-53v986h25c12.667 0 19.334 -6.66699 20.001 -20z" />
    <glyph glyph-name="o" unicode="o" horiz-adv-x="1107" 
d="M553 1002c70 0 132.167 -12.167 186.5 -36.5s100.166 -58.666 137.499 -102.999s65.666 -97.833 84.999 -160.5s29 -132.334 29 -209.001s-9.66699 -146.167 -29 -208.5s-47.666 -115.5 -84.999 -159.5s-83.166 -77.833 -137.499 -101.5s-116.5 -35.5 -186.5 -35.5
s-132.167 11.833 -186.5 35.5s-100.166 57.5 -137.499 101.5s-65.666 97.167 -84.999 159.5s-29 131.833 -29 208.5s9.66699 146.334 29 209.001s47.666 116.167 84.999 160.5s83.166 78.666 137.499 102.999s116.5 36.5 186.5 36.5zM553 30c64 0 120 11 168 33
s88.167 53.333 120.5 94s56.5 89.334 72.5 146.001s24 120 24 190s-8 133.667 -24 191s-40.167 106.5 -72.5 147.5s-72.5 72.667 -120.5 95s-104 33.5 -168 33.5s-120 -11.167 -168 -33.5s-88.167 -54 -120.5 -95s-56.5 -90.167 -72.5 -147.5s-24 -121 -24 -191
s8 -133.333 24 -190s40.167 -105.334 72.5 -146.001s72.5 -72 120.5 -94s104 -33 168 -33z" />
    <glyph glyph-name="p" unicode="p" horiz-adv-x="1093" 
d="M229 205c40.667 -64.667 86 -110.166 136 -136.499s107.667 -39.5 173 -39.5c64.667 0 121 11.833 169 35.5s88 56.5 120 98.5s56 91.667 72 149s24 119.666 24 186.999c0 156.667 -29.667 272.667 -89 348s-145.333 113 -258 113c-69.333 0 -133.5 -19 -192.5 -57
s-110.5 -90.667 -154.5 -158v-540zM227 794.001c44 64.667 96.499 115.5 157.499 152.5s128.5 55.5 202.5 55.5c124.667 0 220.834 -41.333 288.501 -124s101.5 -209 101.5 -379c0 -72 -9.16699 -139 -27.5 -201s-45.666 -116 -81.999 -162s-81.333 -82.167 -135 -108.5
s-115.834 -39.5 -186.501 -39.5c-138.667 0 -244.334 54.333 -317.001 163v-508h-53v1343h25c12.667 0 19.334 -6.66699 20.001 -20z" />
    <glyph glyph-name="q" unicode="q" horiz-adv-x="1091" 
d="M864 787c-38.667 62 -83.5 106.499 -134.5 133.499s-109.167 40.5 -174.5 40.5c-64.667 0 -121 -11.833 -169 -35.5s-88 -56.5 -120 -98.5s-56 -91.667 -72 -149s-24 -119.666 -24 -186.999c0 -156.667 29.5 -272.667 88.5 -348s145.167 -113 258.5 -113
c69.333 0 133.5 19 192.5 57s110.5 90.667 154.5 158v542zM917 985.999v-1343h-53v551c-44 -64 -96.333 -114.333 -157 -151s-127.667 -55 -201 -55c-125.333 0 -221.666 41.333 -288.999 124s-101 209 -101 379c0 72 9.16699 139 27.5 201s45.666 116 81.999 162
s81.333 82.167 135 108.5s115.834 39.5 186.501 39.5s132.167 -13.667 184.5 -41s97.166 -68.666 134.499 -123.999l6 129c0.666992 13.333 7.66699 20 21 20h24z" />
    <glyph glyph-name="r" unicode="r" horiz-adv-x="695" 
d="M227 722c14.667 44.667 32.002 84.333 52.002 119s43.167 64 69.5 88s56.166 42.167 89.499 54.5s71 18.5 113 18.5c19.333 0 39.166 -1.5 59.499 -4.5s38.5 -9.16699 54.5 -18.5l-6 -31c-2.66699 -7.33301 -7.33398 -11 -14.001 -11c-7.33301 0 -18.5 2.5 -33.5 7.5
s-37.167 7.5 -66.5 7.5c-41.333 0 -78.166 -6.5 -110.499 -19.5s-61 -32.167 -86 -57.5s-47.167 -57 -66.5 -95s-37 -82.333 -53 -133v-647h-53v986h24c13.333 0 20.333 -7.33301 21 -22z" />
    <glyph glyph-name="s" unicode="s" horiz-adv-x="842" 
d="M700 885c-3.33301 -6 -8.33105 -8.99609 -14.998 -8.99609c-6 0 -14.5 4.5 -25.5 13.5s-26.167 18.667 -45.5 29s-43.5 20 -72.5 29s-64.833 13.5 -107.5 13.5c-39.333 0 -75.166 -5.83301 -107.499 -17.5s-60.166 -27.167 -83.499 -46.5s-41.333 -42 -54 -68
s-19 -53 -19 -81c0 -33.333 8.16699 -61.333 24.5 -84s37.833 -41.834 64.5 -57.501s57 -29 91 -40l104 -33c35.333 -11 70 -22.833 104 -35.5s64.333 -28.334 91 -47.001s48.167 -41.667 64.5 -69s24.5 -61 24.5 -101c0 -41.333 -7.33301 -80 -22 -116
s-36.167 -67.5 -64.5 -94.5s-63 -48.167 -104 -63.5s-87.833 -23 -140.5 -23c-35.333 0 -67.333 2.83301 -96 8.5s-55.334 13.667 -80.001 24s-47.667 22.833 -69 37.5s-42 31 -62 49l13 17c2.66699 3.33301 5.16699 5.83301 7.5 7.5s6.16602 2.5 11.499 2.5
c6.66699 0 16.167 -5.5 28.5 -16.5s29 -23.167 50 -36.5s47.5 -25.5 79.5 -36.5s71.333 -16.5 118 -16.5c46 0 86.5 6.5 121.5 19.5s64.333 30.833 88 53.5s41.5 49.167 53.5 79.5s18 62.5 18 96.5c0 36 -8.16699 66 -24.5 90s-37.833 44.167 -64.5 60.5
s-57 30.166 -91 41.499s-68.667 22.333 -104 33s-70 22.167 -104 34.5s-64.333 27.666 -91 45.999s-48.167 40.833 -64.5 67.5s-24.5 60 -24.5 100c0 33.333 7.5 65.5 22.5 96.5s36.167 58.333 63.5 82s60.166 42.5 98.499 56.5s81.166 21 128.499 21
c57.333 0 108 -8 152 -24s85.667 -41.333 125 -76z" />
    <glyph glyph-name="t" unicode="t" horiz-adv-x="668" 
d="M428 -16c-61.333 0 -109.333 16.832 -144 50.499s-52 87.834 -52 162.501v711h-154c-12.667 0 -19 5 -19 15v18l173 7l15 380c0.666992 4 2.33398 7.83301 5.00098 11.5s6.33398 5.5 11.001 5.5h22v-397h326v-40h-326v-709c0 -30.667 4 -56.834 12 -78.501
s18.667 -39.5 32 -53.5s29.166 -24.167 47.499 -30.5s38.166 -9.5 59.499 -9.5c26 0 48.833 4 68.5 12s36.5 16.667 50.5 26s25.333 18 34 26s15 12 19 12c3.33301 0 7 -2 11 -6l13 -19c-11.333 -14 -24.5 -26.667 -39.5 -38s-31.5 -21.166 -49.5 -29.499
s-36.667 -14.833 -56 -19.5s-39 -7 -59 -7z" />
    <glyph glyph-name="u" unicode="u" horiz-adv-x="1090" 
d="M916 986l-0.000976562 -986.001h-24c-12 0 -19 6.66699 -21 20l-5 172c-46.667 -63.333 -101.667 -113.833 -165 -151.5s-133 -56.5 -209 -56.5c-54.667 0 -102.5 8.5 -143.5 25.5s-75 41.333 -102 73s-47.333 70.5 -61 116.5s-20.5 98 -20.5 156v631h53v-631
c0 -51.333 5.66699 -97.333 17 -138s28.833 -75.167 52.5 -103.5s53.334 -50 89.001 -65s77.5 -22.5 125.5 -22.5c71.333 0 137.5 18.833 198.5 56.5s115.5 89.834 163.5 156.501v747h52z" />
    <glyph glyph-name="v" unicode="v" horiz-adv-x="988" 
d="M940 986l-424 -985.999h-44l-424 986h39c6.66699 0 12 -2 16 -6s6.66699 -8 8 -12l366 -853c4 -9.33301 7.33301 -18.833 10 -28.5s5 -19.167 7 -28.5l8 28.5c2.66699 9.66699 6 19.167 10 28.5l366 853c2.66699 5.33301 6 9.66602 10 12.999s9 5 15 5h37z" />
    <glyph glyph-name="w" unicode="w" horiz-adv-x="1508" 
d="M1449 986l-333.999 -985.998h-35c-7.33301 0 -12.666 4.66699 -15.999 14l-297 871c-4.66699 13.333 -8.66699 27 -12 41c-3.33301 -14 -7.33301 -27.667 -12 -41l-301 -871c-3.33301 -9.33301 -8.33301 -14 -15 -14h-33l-335 986h37c7.33301 0 13 -2 17 -6
s6.66699 -8 8 -12l281 -853c3.33301 -10.667 6.16602 -20.834 8.49902 -30.501s4.5 -19.5 6.5 -29.5c2.66699 10 5.5 19.833 8.5 29.5l9.5 30.5l294 862c3.33301 9.33301 9 14 17 14h19c8.66699 0 14.667 -4.66699 18 -14l291 -862l9.5 -31c3 -10 5.5 -20 7.5 -30l8 29.5
l9 31.5l281 853c2 5.33301 5.16699 9.66602 9.5 12.999s9.16602 5 14.499 5h36z" />
    <glyph glyph-name="x" unicode="x" horiz-adv-x="908" 
d="M854 0l-50.001 0.000976562c-6.66699 0 -11.667 2.16699 -15 6.5l-9 11.5l-327 462c-2 -8.66699 -5.66699 -16.334 -11 -23.001l-316 -439l-10.5 -12c-3.66699 -4 -8.5 -6 -14.5 -6h-47l364 503l-350 483h50c6.66699 0 11.5 -1.83301 14.5 -5.5l8.5 -10.5l315 -443
c1.33301 4 2.83301 8 4.5 12s4.16699 8 7.5 12l301 418c2.66699 4 5.83398 7.83301 9.50098 11.5s8.16699 5.5 13.5 5.5h48l-350 -479z" />
    <glyph glyph-name="y" unicode="y" horiz-adv-x="989" 
d="M943 986l-574.997 -1317c-3.33301 -6.66699 -7.33301 -12.667 -12 -18s-11.334 -8 -20.001 -8h-35l170 381l-422 962h40c7.33301 0 13.166 -2 17.499 -6s7.16602 -8 8.49902 -12l368 -844c6.66699 -14.667 11.667 -30 15 -46c4.66699 14 10.334 29.333 17.001 46l366 844
c2.66699 5.33301 6.16699 9.66602 10.5 12.999s9.16602 5 14.499 5h37z" />
    <glyph glyph-name="z" unicode="z" horiz-adv-x="878" 
d="M806 986v-22c0 -4 -0.833008 -7.66699 -2.5 -11s-4.16699 -7 -7.5 -11l-661 -900h643v-42h-709v19c0 4 0.833008 7.66699 2.5 11s4.16699 7.33301 7.5 12l662 902h-638v42h703z" />
    <glyph glyph-name="braceleft" unicode="{" horiz-adv-x="584" 
d="M445 1471c-30 0 -57.667 -5.50195 -83 -16.502s-47.333 -26.5 -66 -46.5s-33.167 -44.167 -43.5 -72.5s-15.5 -59.833 -15.5 -94.5c0 -38 3.33301 -75.333 10 -112s14 -73 22 -109s15.333 -72.167 22 -108.5s10 -72.833 10 -109.5c0 -25.333 -4.33301 -47.833 -13 -67.5
s-20 -36.834 -34 -51.501s-29.833 -26.5 -47.5 -35.5s-35.5 -15.167 -53.5 -18.5c18 -3.33301 35.833 -9.66602 53.5 -18.999s33.5 -21.333 47.5 -36s25.333 -32 34 -52s13 -42.333 13 -67c0 -36.667 -3.33301 -73.167 -10 -109.5s-14 -72.5 -22 -108.5
s-15.333 -72.333 -22 -109s-10 -74 -10 -112c0 -35.333 5.16699 -67.166 15.5 -95.499s24.833 -52.5 43.5 -72.5s40.667 -35.333 66 -46s53 -16 83 -16h40c4.66699 0 8.66699 -1.33301 12 -4s5 -6.33398 5 -11.001v-22h-56c-39.333 0 -74.666 6.83301 -105.999 20.5
s-58.166 32.667 -80.499 57s-39.5 52.833 -51.5 85.5s-18 68 -18 106c0 38.667 3.33301 76 10 112s14.167 71.667 22.5 107s15.833 71 22.5 107s10 73 10 111c0 22.667 -4.16699 43.5 -12.5 62.5s-19.833 35.5 -34.5 49.5s-32.167 24.833 -52.5 32.5s-42.5 11.5 -66.5 11.5
v36c24 0 46.167 3.83301 66.5 11.5s37.833 18.334 52.5 32.001s26.167 30 34.5 49s12.5 39.833 12.5 62.5c0 38 -3.33301 74.833 -10 110.5s-14.167 71.334 -22.5 107.001s-15.833 71.5 -22.5 107.5s-10 73.333 -10 112c0 38 6 73.333 18 106s29.167 61.167 51.5 85.5
s49.166 43.333 80.499 57s66.666 20.5 105.999 20.5h56v-21c0 -5.33301 -1.66699 -9.33301 -5 -12s-7.33301 -4 -12 -4h-40z" />
    <glyph glyph-name="bar" unicode="|" horiz-adv-x="464" 
d="M211 1508h42v-1867h-42v1867z" />
    <glyph glyph-name="braceright" unicode="}" horiz-adv-x="584" 
d="M495 611c-24 0 -46.167 -3.83105 -66.5 -11.498s-37.833 -18.5 -52.5 -32.5s-26.167 -30.5 -34.5 -49.5s-12.5 -39.833 -12.5 -62.5c0 -38 3.33301 -75 10 -111s14.167 -71.667 22.5 -107s15.833 -71 22.5 -107s10 -73.333 10 -112c0 -38 -6 -73.333 -18 -106
s-29.167 -61.167 -51.5 -85.5s-49.333 -43.333 -81 -57s-66.834 -20.5 -105.501 -20.5h-56v22c0 4.66699 1.66699 8.33398 5 11.001s7.33301 4 12 4h40c30 0 57.667 5.33301 83 16s47.333 26 66 46s33.167 44.167 43.5 72.5s15.5 60.166 15.5 95.499
c0 38 -3.33301 75.333 -10 112s-14 73 -22 109s-15.333 72.167 -22 108.5s-10 72.833 -10 109.5c0 24.667 4.33301 47 13 67s20 37.333 34 52s29.833 26.667 47.5 36s35.5 15.666 53.5 18.999c-18 3.33301 -35.833 9.5 -53.5 18.5s-33.5 20.833 -47.5 35.5
s-25.333 31.834 -34 51.501s-13 42.167 -13 67.5c0 36.667 3.33301 73.167 10 109.5s14 72.5 22 108.5s15.333 72.333 22 109s10 74 10 112c0 34.667 -5.16699 66.167 -15.5 94.5s-24.833 52.5 -43.5 72.5s-40.667 35.5 -66 46.5s-53 16.5 -83 16.5h-40
c-4.66699 0 -8.66699 1.33301 -12 4s-5 6.66699 -5 12v21h56c38.667 0 73.834 -6.83301 105.501 -20.5s58.667 -32.667 81 -57s39.5 -52.833 51.5 -85.5s18 -68 18 -106c0 -38.667 -3.33301 -76 -10 -112s-14.167 -71.833 -22.5 -107.5s-15.833 -71.334 -22.5 -107.001
s-10 -72.5 -10 -110.5c0 -22.667 4.16699 -43.5 12.5 -62.5s19.833 -35.333 34.5 -49s32.167 -24.334 52.5 -32.001s42.5 -11.5 66.5 -11.5v-36z" />
    <glyph glyph-name="asciitilde" unicode="~" horiz-adv-x="1160" 
d="M792 544c26.667 0 50.8389 4.83008 72.5059 14.4971s40 23.167 55 40.5s26.667 37.5 35 60.5s12.833 48.167 13.5 75.5h43c0 -32 -4.83301 -62.167 -14.5 -90.5s-23.834 -53.166 -42.501 -74.499s-41.334 -38.333 -68.001 -51s-57.334 -19 -92.001 -19
c-34 0 -69.333 7.16699 -106 21.5s-73.167 30 -109.5 47s-71.833 32.667 -106.5 47s-67.334 21.5 -98.001 21.5c-27.333 0 -51.666 -4.83301 -72.999 -14.5s-39.5 -23.167 -54.5 -40.5s-26.667 -37.666 -35 -60.999s-12.833 -48.666 -13.5 -75.999h-43
c0 32 4.83301 62.167 14.5 90.5s23.667 53.333 42 75s41 38.667 68 51s57.833 18.5 92.5 18.5c22.667 0 46 -3.33301 70 -10s48.167 -15 72.5 -25s48.666 -21 72.999 -33s48.166 -23 71.499 -33s46.166 -18.333 68.499 -25s43.833 -10 64.5 -10z" />
    <glyph glyph-name="exclamdown" unicode="&#xa1;" horiz-adv-x="437" 
d="M193 -357l0.00195312 555c0 29.333 0.166992 57 0.5 83s0.833008 52.667 1.5 80s1.66699 56.333 3 87s2.66602 65.334 3.99902 104.001h35c1.33301 -38.667 2.66602 -73.334 3.99902 -104.001s2.5 -59.667 3.5 -87s1.66699 -54 2 -80s0.5 -53.667 0.5 -83v-555h-54z
M140.002 927c0 21.333 7.33301 39.166 22 53.499s32.667 21.5 54 21.5s39.5 -7.16699 54.5 -21.5s22.5 -32.166 22.5 -53.499s-7.5 -39.5 -22.5 -54.5s-33.167 -22.5 -54.5 -22.5s-39.333 7.5 -54 22.5s-22 33.167 -22 54.5z" />
    <glyph glyph-name="cent" unicode="&#xa2;" horiz-adv-x="1160" 
d="M651 960c-66.667 -0.666992 -126 -12.002 -178 -34.002s-96 -53.167 -132 -93.5s-63.5 -89.166 -82.5 -146.499s-28.5 -121.666 -28.5 -192.999s9 -135 27 -191s43.833 -103.667 77.5 -143s74.167 -70 121.5 -92s100 -34.333 158 -37zM988 120.998
c-12 -16 -28.834 -31.8311 -50.501 -47.498s-47 -29.667 -76 -42s-61.333 -22.5 -97 -30.5s-73.5 -12.333 -113.5 -13l-9 -228c-1.33301 -14.667 -7.66602 -22 -18.999 -22h-21l10 250c-65.333 2.66699 -124.666 16 -177.999 40s-99 57.5 -137 100.5
s-67.333 95.167 -88 156.5s-31 130.666 -31 207.999c0 76 10.667 145.167 32 207.5s52.166 115.666 92.499 159.999s90 78.833 149 103.5s126.167 37.334 201.5 38.001l9 220c0 14.667 6.33301 22 19 22h20l-10 -243c59.333 -3.33301 112.333 -14.5 159 -33.5
s87 -43.167 121 -72.5l-14 -17c-3.33301 -4.66699 -7.66602 -7 -12.999 -7c-4.66699 0 -12.667 4.16699 -24 12.5s-27 17.666 -47 27.999s-45 20.333 -75 30s-66 15.5 -108 17.5l-37 -930c54 0.666992 99.333 7 136 19s67 25 91 39s42.5 26.667 55.5 38s22.167 17 27.5 17
s9.66602 -2.33301 12.999 -7z" />
    <glyph glyph-name="sterling" unicode="&#xa3;" horiz-adv-x="1160" 
d="M67 659c0 6.66699 2.33496 11.8369 7.00195 15.5039s10 5.5 16 5.5h181v311c0 62 8.5 119.167 25.5 171.5s42.167 97.5 75.5 135.5s74.833 67.833 124.5 89.5s107.5 32.5 173.5 32.5c50 0 94 -6 132 -18s71 -28.333 99 -49s51.833 -44.834 71.5 -72.501
s36.167 -56.834 49.5 -87.501l-21 -10c-6.66699 -2.66699 -12.334 -3.33398 -17.001 -2.00098s-9.66699 5.66602 -15 12.999c-13.333 22.667 -27.833 45 -43.5 67s-34.834 41.5 -57.501 58.5s-50 30.667 -82 41s-70.667 15.5 -116 15.5c-56.667 0 -106.5 -9.5 -149.5 -28.5
s-79 -45.5 -108 -79.5s-50.833 -74.5 -65.5 -121.5s-22 -98.833 -22 -155.5v-311h499v-21c0 -5.33301 -2 -9.5 -6 -12.5s-8.66699 -4.5 -14 -4.5h-479v-337c0 -65.333 -14 -118.833 -42 -160.5s-65.667 -76.5 -113 -104.5c26 4 52 6 78 6h844v-22
c0 -5.33301 -2.33301 -10.666 -7 -15.999s-11 -8 -19 -8h-973v39c23.333 10 45.666 22 66.999 36s40.333 31.333 57 52s29.834 44.667 39.501 72s14.5 59.666 14.5 96.999v346h-204v17z" />
    <glyph glyph-name="currency" unicode="&#xa4;" horiz-adv-x="1160" 
d="M286 670c0 -40 7.83301 -77.833 23.5 -113.5s36.834 -66.834 63.501 -93.501s57.834 -47.834 93.501 -63.501s73.5 -23.5 113.5 -23.5c40.667 0 79 7.83301 115 23.5s67.333 36.834 94 63.501s47.834 57.834 63.501 93.501s23.5 73.5 23.5 113.5
c0 40.667 -7.83301 79.167 -23.5 115.5s-36.834 67.833 -63.501 94.5s-58 47.834 -94 63.501s-74.333 23.5 -115 23.5c-40 0 -77.833 -7.83301 -113.5 -23.5s-66.834 -36.834 -93.501 -63.501s-47.834 -58.167 -63.501 -94.5s-23.5 -74.833 -23.5 -115.5zM832 895
c26.667 -30 47.501 -64.001 62.501 -102.001s22.5 -79 22.5 -123c0 -43.333 -7.5 -83.833 -22.5 -121.5s-35.833 -71.5 -62.5 -101.5l155 -155l-28 -28l-155 155c-30 -26 -64 -46.5 -102 -61.5s-78.667 -22.5 -122 -22.5c-42.667 0 -82.834 7.5 -120.501 22.5
s-71.5 35.5 -101.5 61.5l-157 -156l-28 28l157 157c-26.667 30 -47.5 63.833 -62.5 101.5s-22.5 77.834 -22.5 120.501c0 43.333 7.5 83.833 22.5 121.5s35.5 71.5 61.5 101.5l-156 156l28 28l156 -156c30 27.333 63.833 48.5 101.5 63.5s78.167 22.5 121.5 22.5
s84 -7.5 122 -22.5s72 -35.5 102 -61.5l155 155l28 -29z" />
    <glyph glyph-name="yen" unicode="&#xa5;" horiz-adv-x="1160" 
d="M618 611h367v-35h-379v-124h379v-35h-379v-417h-52v417h-380v35h380v124h-380v35h368l-430 795h43c10.667 0 18.667 -5 24 -15l382 -716c4 -8.66699 7.5 -16.667 10.5 -24s5.83301 -14.666 8.5 -21.999c2.66699 7.33301 5.5 14.666 8.5 21.999s6.5 15.333 10.5 24
l382 716c5.33301 10 13 15 23 15h44z" />
    <glyph glyph-name="brokenbar" unicode="&#xa6;" horiz-adv-x="470" 
d="M214 1508h42v-768h-42v768zM214 411h42v-768h-42v768z" />
    <glyph glyph-name="section" unicode="&#xa7;" horiz-adv-x="959" 
d="M171 728c0 -30.667 7.16699 -57.833 21.5 -81.5s33.666 -45 57.999 -64s52.333 -36.5 84 -52.5s64.834 -31.5 99.501 -46.5l104 -46c34.667 -15.667 67.334 -32.5 98.001 -50.5c52.667 24 90.667 53.667 114 89s35 75.666 35 120.999c0 33.333 -6.5 62.833 -19.5 88.5
s-30.5 48.667 -52.5 69s-47.5 38.5 -76.5 54.5s-59.167 31 -90.5 45l-96 42c-32.667 14 -63.334 29 -92.001 45c-68.667 -27.333 -117 -58.666 -145 -93.999s-42 -75 -42 -119zM776 1305c-4 -6 -9.00195 -8.99707 -15.002 -8.99707s-14.5 4.5 -25.5 13.5
s-26.167 18.667 -45.5 29s-43.666 20 -72.999 29s-65 13.5 -107 13.5c-40 0 -76.333 -5.83301 -109 -17.5s-60.667 -27.334 -84 -47.001s-41.333 -42.5 -54 -68.5s-19 -53 -19 -81c0 -33.333 8.5 -62.333 25.5 -87s39.167 -46.834 66.5 -66.501s58.666 -37.5 93.999 -53.5
l108 -48.5c36.667 -16.333 72.667 -33.5 108 -51.5s66.666 -39 93.999 -63s49.5 -51.333 66.5 -82s25.5 -67 25.5 -109c0 -56 -14.167 -104 -42.5 -144s-69.166 -71.667 -122.499 -95c36 -25.333 65.5 -54.166 88.5 -86.499s34.5 -71.5 34.5 -117.5
c0 -41.333 -7.33301 -80 -22 -116s-36.167 -67.5 -64.5 -94.5s-63 -48.167 -104 -63.5s-87.833 -23 -140.5 -23c-35.333 0 -67.333 2.83301 -96 8.5s-55.167 13.667 -79.5 24s-47.166 22.833 -68.499 37.5s-42 31 -62 49l13 17c4.66699 6.66699 10.667 10 18 10
c6.66699 0 16.167 -5.5 28.5 -16.5s29 -23.167 50 -36.5s47.667 -25.5 80 -36.5s71.833 -16.5 118.5 -16.5c45.333 0 85.5 6.5 120.5 19.5s64.5 30.833 88.5 53.5s42.167 49.167 54.5 79.5s18.5 62.833 18.5 97.5c0 36 -8.83301 67.5 -26.5 94.5s-41 51 -70 72
s-62 40 -99 57l-114 50c-39 16.333 -77 33.5 -114 51.5s-70 38.167 -99 60.5s-52.333 48.166 -70 77.499s-26.5 63.666 -26.5 102.999c0 24.667 3.66699 48.5 11 71.5s19 44.667 35 65s36.667 39 62 56s56.333 32.167 93 45.5c-37.333 24 -68.166 52.333 -92.499 85
s-36.5 72.667 -36.5 120c0 34 7.5 66.5 22.5 97.5s36.333 58.333 64 82s60.667 42.5 99 56.5s80.833 21 127.5 21c57.333 0 108 -8 152 -24s85.667 -41.333 125 -76z" />
    <glyph glyph-name="dieresis" unicode="&#xa8;" 
d="M298 1282c0 -17.333 -6.83301 -32.5 -20.5 -45.5s-29.167 -19.5 -46.5 -19.5c-18 0 -33.5 6.5 -46.5 19.5s-19.5 28.167 -19.5 45.5c0 18 6.5 33.5 19.5 46.5s28.5 19.5 46.5 19.5c17.333 0 32.833 -6.5 46.5 -19.5s20.5 -28.5 20.5 -46.5zM635 1282
c0 -17.333 -6.66699 -32.5 -20 -45.5s-28.666 -19.5 -45.999 -19.5c-18 0 -33.667 6.5 -47 19.5s-20 28.167 -20 45.5c0 18 6.66699 33.5 20 46.5s29 19.5 47 19.5c17.333 0 32.666 -6.5 45.999 -19.5s20 -28.5 20 -46.5z" />
    <glyph glyph-name="copyright" unicode="&#xa9;" horiz-adv-x="1692" 
d="M1155 401c3.33301 0.666992 5.83301 0.832031 7.5 0.499023s3.16699 -0.833008 4.5 -1.5l21 -20c-39.333 -36.667 -85.333 -66.334 -138 -89.001s-117.667 -34 -195 -34c-63.333 0 -121.666 10.5 -174.999 31.5s-99.333 50.833 -138 89.5s-68.667 85.5 -90 140.5
s-32 116.5 -32 184.5c0 66.667 11 127.5 33 182.5s52.667 102.333 92 142s86.666 70.334 141.999 92.001s116 32.5 182 32.5c34.667 0 66 -2.33301 94 -7s54 -11.5 78 -20.5s46.667 -20 68 -33s42.666 -28.167 63.999 -45.5l-12 -17
c-2.66699 -4.66699 -7.33398 -7 -14.001 -7c-5.33301 0 -13.5 4.66699 -24.5 14s-27 19.5 -48 30.5s-48 21.167 -81 30.5s-73.833 14 -122.5 14c-59.333 0 -113.666 -9.5 -162.999 -28.5s-91.666 -46.167 -126.999 -81.5s-62.833 -78.166 -82.5 -128.499
s-29.5 -106.833 -29.5 -169.5c0 -64 9.66699 -121 29 -171s46.333 -92.333 81 -127s75.5 -61.167 122.5 -79.5s98.5 -27.5 154.5 -27.5c37.333 0 70.333 2.33301 99 7s54.5 11.5 77.5 20.5s44.167 19.833 63.5 32.5s39 27 59 43zM129 702.998c0 66 8.5 129.5 25.5 190.5
s41.167 118.167 72.5 171.5s68.666 101.666 111.999 144.999s91.666 80.666 144.999 111.999s110.5 55.5 171.5 72.5s124.5 25.5 190.5 25.5s129.5 -8.5 190.5 -25.5s118 -41.167 171 -72.5s101.333 -68.666 145 -111.999s81.167 -91.666 112.5 -144.999
s55.5 -110.5 72.5 -171.5s25.5 -124.5 25.5 -190.5s-8.5 -129.5 -25.5 -190.5s-41.167 -118.167 -72.5 -171.5s-68.833 -101.666 -112.5 -144.999s-92 -80.666 -145 -111.999s-110 -55.5 -171 -72.5s-124.5 -25.5 -190.5 -25.5s-129.5 8.5 -190.5 25.5
s-118.167 41.167 -171.5 72.5s-101.666 68.666 -144.999 111.999s-80.666 91.666 -111.999 144.999s-55.5 110.5 -72.5 171.5s-25.5 124.5 -25.5 190.5zM167 702.998c0 -62.667 8 -123 24 -181s38.667 -112.333 68 -163s64.666 -96.667 105.999 -138
s87.166 -76.666 137.499 -105.999s104.5 -52.166 162.5 -68.499s118.333 -24.5 181 -24.5s123 8.16699 181 24.5s112.167 39.166 162.5 68.499s96.333 64.666 138 105.999s77.167 87.333 106.5 138s52.166 105 68.499 163s24.5 118.333 24.5 181
s-8.16699 123.167 -24.5 181.5s-39.166 112.833 -68.499 163.5s-64.833 96.834 -106.5 138.501s-87.667 77.167 -138 106.5s-104.5 52.166 -162.5 68.499s-118.333 24.5 -181 24.5s-123 -8.16699 -181 -24.5s-112.167 -39.166 -162.5 -68.499
s-96.166 -64.833 -137.499 -106.5s-76.666 -87.834 -105.999 -138.501s-52 -105.167 -68 -163.5s-24 -118.833 -24 -181.5z" />
    <glyph glyph-name="ordfeminine" unicode="&#xaa;" horiz-adv-x="736" 
d="M529 1122c-122 -4.66699 -211.335 -19.335 -268.002 -44.002s-85 -58.334 -85 -101.001c0 -20.667 3.66699 -38.167 11 -52.5s17 -26.166 29 -35.499s25.833 -16.166 41.5 -20.499s31.834 -6.5 48.501 -6.5c24.667 0 47.5 2.66699 68.5 8s40.333 12.833 58 22.5
s34.334 20.834 50.001 33.501s31.167 26 46.5 40v156zM168.998 1328c30 30.667 61.4961 53.5029 94.4961 68.5029s70.833 22.5 113.5 22.5c64.667 0 113.167 -18.333 145.5 -55s48.5 -87.334 48.5 -152.001v-374h-18c-8 0 -13.333 4.66699 -16 14l-7 80
c-34 -32.667 -68.833 -58 -104.5 -76s-78.5 -27 -128.5 -27c-20 0 -39.833 2.66699 -59.5 8s-37 13.833 -52 25.5s-27.167 26.667 -36.5 45s-14 40.5 -14 66.5c0 24.667 7.5 47.834 22.5 69.501s38.5 40.334 70.5 56.001s72.833 28.167 122.5 37.5
s109.167 14.666 178.5 15.999v59c0 55.333 -12.333 97.666 -37 126.999s-64 44 -118 44c-30 0 -55.5 -3.83301 -76.5 -11.5s-38.667 -16.334 -53 -26.001s-25.666 -18.334 -33.999 -26.001s-15.166 -11.5 -20.499 -11.5c-3.33301 0 -6.16602 0.833008 -8.49902 2.5
s-4.16602 3.16699 -5.49902 4.5z" />
    <glyph glyph-name="guillemotleft" unicode="&#xab;" horiz-adv-x="761" 
d="M376 178c5.33301 -7.33301 7.16699 -13.833 5.5 -19.5s-5.16699 -10.167 -10.5 -13.5l-15 -9l-237 374v7l237 374l15 -9c12.667 -6.66699 14.334 -17.667 5.00098 -33l-195 -311c-8.66699 -13.333 -15.334 -21.333 -20.001 -24c5.33301 -4 12 -12.333 20 -25z
M610.001 178c5.33301 -7.33301 7.16699 -13.833 5.5 -19.5s-5.16699 -10.167 -10.5 -13.5l-15 -9l-237 374v7l237 374l15 -9c12.667 -6.66699 14.334 -17.667 5.00098 -33l-195 -311c-8.66699 -13.333 -15.334 -21.333 -20.001 -24c5.33301 -4 12 -12.333 20 -25z" />
    <glyph glyph-name="logicalnot" unicode="&#xac;" horiz-adv-x="1160" 
d="M989 352h-46v298h-766v41h812v-339z" />
    <glyph glyph-name="registered" unicode="&#xae;" horiz-adv-x="1692" 
d="M808 711c84 0 148.333 17.667 193 53s67 86 67 152c0 66.667 -20.167 115 -60.5 145s-102.5 45 -186.5 45h-178v-395h165zM821 1144c95.333 0 168.333 -18.332 219 -54.999s76 -93.334 76 -170.001c0 -34 -6.16699 -65 -18.5 -93s-29.833 -52.167 -52.5 -72.5
s-50.334 -36.833 -83.001 -49.5s-69 -20.667 -109 -24c12.667 -7.33301 23.667 -18 33 -32l315 -386h-44c-4.66699 0 -8.66699 0.666992 -12 2s-6.66602 4.33301 -9.99902 9l-306 377c-5.33301 6.66699 -12 12.167 -20 16.5s-21.333 6.5 -40 6.5h-126v-411h-48v882h226z
M846 22.001c62.667 0 123 8.16699 181 24.5s112.167 39.166 162.5 68.499s96.333 64.666 138 105.999s77.167 87.333 106.5 138s52.166 105 68.499 163s24.5 118.333 24.5 181s-8.16699 123.167 -24.5 181.5s-39.166 112.833 -68.499 163.5s-64.833 96.834 -106.5 138.501
s-87.667 77.167 -138 106.5s-104.5 52.166 -162.5 68.499s-118.333 24.5 -181 24.5s-123 -8.16699 -181 -24.5s-112.167 -39.166 -162.5 -68.499s-96.166 -64.833 -137.499 -106.5s-76.666 -87.834 -105.999 -138.501s-52 -105.167 -68 -163.5s-24 -118.833 -24 -181.5
s8 -123 24 -181s38.667 -112.333 68 -163s64.666 -96.667 105.999 -138s87.166 -76.666 137.499 -105.999s104.5 -52.166 162.5 -68.499s118.333 -24.5 181 -24.5zM846 1420c66 0 129.5 -8.5 190.5 -25.5s118 -41.167 171 -72.5s101.333 -68.666 145 -111.999
s81.167 -91.666 112.5 -144.999s55.5 -110.5 72.5 -171.5s25.5 -124.5 25.5 -190.5s-8.5 -129.5 -25.5 -190.5s-41.167 -118.167 -72.5 -171.5s-68.833 -101.666 -112.5 -144.999s-92 -80.666 -145 -111.999s-110 -55.5 -171 -72.5s-124.5 -25.5 -190.5 -25.5
s-129.5 8.5 -190.5 25.5s-118.167 41.167 -171.5 72.5s-101.666 68.666 -144.999 111.999s-80.666 91.666 -111.999 144.999s-55.5 110.5 -72.5 171.5s-25.5 124.5 -25.5 190.5s8.5 129.5 25.5 190.5s41.167 118.167 72.5 171.5s68.666 101.666 111.999 144.999
s91.666 80.666 144.999 111.999s110.5 55.5 171.5 72.5s124.5 25.5 190.5 25.5z" />
    <glyph glyph-name="macron" unicode="&#xaf;" 
d="M135 1301h530v-38h-530v38z" />
    <glyph glyph-name="macron" unicode="&#x2c9;" 
d="M135 1301h530v-38h-530v38z" />
    <glyph glyph-name="degree" unicode="&#xb0;" horiz-adv-x="827" 
d="M125 1138c0 39.333 7.5 76.333 22.5 111s35.5 64.834 61.5 90.501s56.5 45.834 91.5 60.501s72.5 22 112.5 22s77.667 -7.33301 113 -22s66 -34.834 92 -60.501s46.5 -55.834 61.5 -90.501s22.5 -71.667 22.5 -111s-7.5 -76.333 -22.5 -111s-35.5 -65 -61.5 -91
s-56.667 -46.5 -92 -61.5s-73 -22.5 -113 -22.5s-77.5 7.5 -112.5 22.5s-65.5 35.5 -91.5 61.5s-46.5 56.333 -61.5 91s-22.5 71.667 -22.5 111zM168 1138c0 -34 6.33301 -66 19 -96s30.167 -56.167 52.5 -78.5s48.333 -39.833 78 -52.5s61.5 -19 95.5 -19s66 6.33301 96 19
s56.167 30.167 78.5 52.5s39.833 48.5 52.5 78.5s19 62 19 96s-6.33301 66 -19 96s-30.167 56 -52.5 78s-48.5 39.5 -78.5 52.5s-62 19.5 -96 19.5s-65.833 -6.5 -95.5 -19.5s-55.667 -30.5 -78 -52.5s-39.833 -48 -52.5 -78s-19 -62 -19 -96z" />
    <glyph glyph-name="plusminus" unicode="&#xb1;" horiz-adv-x="1160" 
d="M116 121h928v-41h-928v41zM1044 707v-41h-443v-421h-44v421h-441v41h441v420h44v-420h443z" />
    <glyph glyph-name="uni00B2" unicode="&#xb2;" horiz-adv-x="668" 
d="M543 938c9.33301 0 14.001 -4.66992 14.001 -14.0029v-24h-455v14c0 7.33301 3 14 9 20l243 246l56 58.5c17.333 19 32.5 38.333 45.5 58s23.167 40 30.5 61s11 43.167 11 66.5c0 26.667 -4.5 49.834 -13.5 69.501s-21 35.834 -36 48.501s-32.167 22 -51.5 28
s-39.333 9 -60 9c-46.667 0 -84.834 -13.167 -114.501 -39.5s-49.167 -61.166 -58.5 -104.499c-3.33301 -9.33301 -11 -13.666 -23 -12.999l-21 4c4 30 12.167 56.667 24.5 80s28 43 47 59s40.833 28.333 65.5 37s51.667 13 81 13c26.667 0 52.167 -3.83301 76.5 -11.5
s45.833 -19.334 64.5 -35.001s33.5 -35.5 44.5 -59.5s16.5 -52 16.5 -84c0 -26.667 -4.16699 -51.5 -12.5 -74.5s-19.5 -45 -33.5 -66s-30.333 -41.333 -49 -61l-58 -60.5l-228 -231c20 4 42.667 6 68 6h317z" />
    <glyph glyph-name="uni00B3" unicode="&#xb3;" horiz-adv-x="668" 
d="M120 1426c8.66699 60 32.4961 106.503 71.4961 139.503s87.5 49.5 145.5 49.5c26.667 0 52 -3.66699 76 -11s45 -18.5 63 -33.5s32.333 -33.5 43 -55.5s16 -48 16 -78c0 -22.667 -3.66699 -43.334 -11 -62.001s-17.333 -35.334 -30 -50.001s-27.667 -27 -45 -37
s-36 -17.333 -56 -22c52.667 -9.33301 92.667 -29 120 -59s41 -68 41 -114c0 -28.667 -5.83301 -55.334 -17.5 -80.001s-27.667 -46 -48 -64s-44.333 -32 -72 -42s-57.5 -15 -89.5 -15c-40.667 0 -74.5 5.5 -101.5 16.5s-49 25.167 -66 42.5s-30.167 36.5 -39.5 57.5
s-17 41.833 -23 62.5l16 8c4.66699 2 9.83398 2.66699 15.501 2s9.83398 -4.66699 12.501 -12c2 -4.66699 5.33301 -14.667 10 -30s13.5 -31.333 26.5 -48s31.333 -31.5 55 -44.5s54.834 -19.5 93.501 -19.5c30.667 0 57.5 5 80.5 15s42.333 23 58 39
s27.334 33.667 35.001 53s11.5 38.333 11.5 57c0 22.667 -3.83301 43.5 -11.5 62.5s-19.667 35.5 -36 49.5s-37.666 24.833 -63.999 32.5s-58.166 11.5 -95.499 11.5v29c61.333 2 108.333 16.833 141 44.5s49 64.5 49 110.5c0 25.333 -4.33301 47.333 -13 66
s-20.334 34 -35.001 46s-31.5 21 -50.5 27s-38.833 9 -59.5 9c-46.667 0 -84.834 -13.333 -114.501 -40s-49.167 -61.334 -58.5 -104.001c-3.33301 -9.33301 -10.333 -13.666 -21 -12.999z" />
    <glyph glyph-name="acute" unicode="&#xb4;" 
d="M591 1422l-208 -251c-6 -8 -14 -12 -24 -12h-32l162 237c6.66699 10 13 16.833 19 20.5s15.667 5.5 29 5.5h54z" />
    <glyph glyph-name="uni00B5" unicode="&#xb5;" horiz-adv-x="1259" 
d="M1187 33l-0.00292969 -21.998c0 -5.33301 -4.83301 -9.83301 -14.5 -13.5s-24.5 -5.5 -44.5 -5.5c-27.333 0 -53.666 4 -78.999 12s-47.666 20.5 -66.999 37.5s-35.166 38.667 -47.499 65s-19.5 58.166 -21.5 95.499c-45.333 -66.667 -99.5 -119 -162.5 -157
s-131.833 -57 -206.5 -57c-77.333 0 -139.666 16.667 -186.999 50s-81.333 81.333 -102 144c1.33301 -30.667 2.5 -62.5 3.5 -95.5s1.5 -63.167 1.5 -90.5v-353h-26c-8 0 -14.167 2.16699 -18.5 6.5s-6.5 10.166 -6.5 17.499v1319h53v-625
c0 -51.333 5.66699 -97.5 17 -138.5s28.833 -75.667 52.5 -104s53.334 -50 89.001 -65s77.5 -22.5 125.5 -22.5c73.333 0 140.666 19.333 201.999 58s114.666 93 159.999 163v734h52v-767c0 -32.667 4.83301 -60.667 14.5 -84s23 -42.5 40 -57.5s37.333 -26.167 61 -33.5
s49.5 -11 77.5 -11h34z" />
    <glyph glyph-name="paragraph" unicode="&#xb6;" horiz-adv-x="1268" 
d="M1198 1360h-228v-1544h-49v1544h-354v-1544h-49v903c-68.667 0 -130 8.83301 -184 26.5s-99.833 42.334 -137.5 74.001s-66.5 69 -86.5 112s-30 89.5 -30 139.5c0 51.333 10 97.666 30 138.999s48.833 76.5 86.5 105.5s83.5 51.333 137.5 67s115.333 23.5 184 23.5h680
v-46z" />
    <glyph glyph-name="periodcentered" unicode="&#xb7;" horiz-adv-x="466" 
d="M157 591c0 21.333 7.50098 39.666 22.501 54.999s32.167 23 51.5 23c21.333 0 39.833 -7.66699 55.5 -23s23.5 -33.666 23.5 -54.999c0 -10 -2.16699 -19.5 -6.5 -28.5s-10 -17 -17 -24s-15.333 -12.5 -25 -16.5s-19.834 -6 -30.501 -6c-10 0 -19.333 2 -28 6
s-16.5 9.5 -23.5 16.5s-12.5 15 -16.5 24s-6 18.5 -6 28.5z" />
    <glyph glyph-name="periodcentered" unicode="&#x2219;" horiz-adv-x="466" 
d="M157 591c0 21.333 7.50098 39.666 22.501 54.999s32.167 23 51.5 23c21.333 0 39.833 -7.66699 55.5 -23s23.5 -33.666 23.5 -54.999c0 -10 -2.16699 -19.5 -6.5 -28.5s-10 -17 -17 -24s-15.333 -12.5 -25 -16.5s-19.834 -6 -30.501 -6c-10 0 -19.333 2 -28 6
s-16.5 9.5 -23.5 16.5s-12.5 15 -16.5 24s-6 18.5 -6 28.5z" />
    <glyph glyph-name="cedilla" unicode="&#xb8;" 
d="M391 -103c28.667 -4.66699 54.6689 -10.3311 78.002 -16.998s43 -15 59 -25s28.333 -22.333 37 -37s13 -32 13 -52c0 -39.333 -15.667 -69.833 -47 -91.5s-71.333 -32.5 -120 -32.5c-27.333 0 -54.333 4.5 -81 13.5s-48 20.5 -64 34.5l7 14c4 5.33301 8 8 12 8
c3.33301 0 7.83301 -2.16699 13.5 -6.5s13.5 -9 23.5 -14s22.5 -9.5 37.5 -13.5s33.167 -6 54.5 -6c38 0 67.5 8.16699 88.5 24.5s31.5 38.833 31.5 67.5c0 19.333 -4.83301 35.166 -14.5 47.499s-22.834 22.5 -39.501 30.5s-36.334 14.167 -59.001 18.5
s-47 8.16602 -73 11.499l42 133h34z" />
    <glyph glyph-name="uni00B9" unicode="&#xb9;" horiz-adv-x="668" 
d="M543 930l-0.000976562 -30.002h-364v30h165v592l4 35l-164 -146c-3.33301 -3.33301 -7.16602 -4.66602 -11.499 -3.99902s-7.83301 2.33398 -10.5 5.00098l-12 18l204 181h33v-681h156z" />
    <glyph glyph-name="ordmasculine" unicode="&#xba;" horiz-adv-x="811" 
d="M406 1419c43.333 0 82 -7 116 -21s62.667 -34 86 -60s41.166 -57.333 53.499 -94s18.5 -77.334 18.5 -122.001c0 -45.333 -6.16699 -86.166 -18.5 -122.499s-30.166 -67.333 -53.499 -93s-52 -45.5 -86 -59.5s-72.667 -21 -116 -21c-44 0 -83 7 -117 21
s-62.667 33.833 -86 59.5s-41.166 56.667 -53.499 93s-18.5 77.166 -18.5 122.499c0 44.667 6.16699 85.334 18.5 122.001s30.166 68 53.499 94s52 46 86 60s73 21 117 21zM406 859c38 0 71.5 6.16699 100.5 18.5s53.333 30 73 53s34.334 50.667 44.001 83
s14.5 68.5 14.5 108.5s-4.83301 76.167 -14.5 108.5s-24.334 60 -44.001 83s-44 40.833 -73 53.5s-62.5 19 -100.5 19c-38.667 0 -72.5 -6.33301 -101.5 -19s-53.333 -30.5 -73 -53.5s-34.334 -50.667 -44.001 -83s-14.5 -68.5 -14.5 -108.5s4.83301 -76.167 14.5 -108.5
s24.334 -60 44.001 -83s44 -40.667 73 -53s62.833 -18.5 101.5 -18.5z" />
    <glyph glyph-name="guillemotright" unicode="&#xbb;" horiz-adv-x="763" 
d="M410 517l0.000976562 -7l-237 -374l-15 9c-5.33301 3.33301 -8.83301 7.83301 -10.5 13.5s0.166016 12.167 5.49902 19.5l195 311c8 12.667 14.667 21 20 25c-4.66699 2.66699 -11.334 10.667 -20.001 24l-195 311c-9.33301 15.333 -7.66602 26.333 5.00098 33l15 9z
M644.001 517l0.000976562 -7l-237 -374l-15 9c-5.33301 3.33301 -8.83301 7.83301 -10.5 13.5s0.166016 12.167 5.49902 19.5l195 311c8 12.667 14.667 21 20 25c-4.66699 2.66699 -11.334 10.667 -20.001 24l-195 311c-9.33301 15.333 -7.66602 26.333 5.00098 33l15 9z
" />
    <glyph glyph-name="onequarter" unicode="&#xbc;" horiz-adv-x="1434" 
d="M356 20c-5.33301 -8 -10.832 -13.333 -16.499 -16s-11.834 -4 -18.501 -4h-23l791 1385c6.66699 14 18 21 34 21h24zM505.001 729l-0.000976562 -30.002h-364v30h165v592l4 35l-164 -146c-3.33301 -3.33301 -7.16602 -4.66602 -11.499 -3.99902
s-7.83301 2.33398 -10.5 5.00098l-12 18l204 181h33v-681h156zM1177 236.998v384c0 11.333 1 24 3 38l-317 -422h314zM1349 236.998v-20c0 -8 -4.33301 -12 -13 -12h-122v-205h-37v205h-337c-11.333 0 -17 3.33301 -17 10l-4 19l357 473h38v-470h135z" />
    <glyph glyph-name="onehalf" unicode="&#xbd;" horiz-adv-x="1414" 
d="M311 20c-5.33301 -8 -10.832 -13.333 -16.499 -16s-11.834 -4 -18.501 -4h-23l791 1385c6.66699 14 18 21 34 21h24zM509.001 729l-0.000976562 -30.002h-364v30h165v592l4 35l-164 -146c-3.33301 -3.33301 -7.16602 -4.66602 -11.499 -3.99902
s-7.83301 2.33398 -10.5 5.00098l-12 18l204 181h33v-681h156zM1297 37.998c9.33301 0 14.001 -4.66992 14.001 -14.0029v-24h-455v14c0 7.33301 3 14 9 20l243 246l56 58.5c17.333 19 32.5 38.333 45.5 58s23.167 40 30.5 61s11 43.167 11 66.5
c0 26.667 -4.5 49.834 -13.5 69.501s-21 35.834 -36 48.501s-32.167 22 -51.5 28s-39.333 9 -60 9c-46.667 0 -84.834 -13.167 -114.501 -39.5s-49.167 -61.166 -58.5 -104.499c-3.33301 -9.33301 -11 -13.666 -23 -12.999l-21 4c4 30 12.167 56.667 24.5 80s28 43 47 59
s40.833 28.333 65.5 37s51.667 13 81 13c26.667 0 52.167 -3.83301 76.5 -11.5s45.833 -19.334 64.5 -35.001s33.5 -35.5 44.5 -59.5s16.5 -52 16.5 -84c0 -26.667 -4.16699 -51.5 -12.5 -74.5s-19.5 -45 -33.5 -66s-30.333 -41.333 -49 -61l-58 -60.5l-228 -231
c20 4 42.667 6 68 6h317z" />
    <glyph glyph-name="threequarters" unicode="&#xbe;" horiz-adv-x="1455" 
d="M386 20c-5.33301 -8 -10.832 -13.333 -16.499 -16s-11.834 -4 -18.501 -4h-23l791 1385c6.66699 14 18 21 34 21h24zM132.001 1225c8.66699 60 32.4961 106.503 71.4961 139.503s87.5 49.5 145.5 49.5c26.667 0 52 -3.66699 76 -11s45 -18.5 63 -33.5
s32.333 -33.5 43 -55.5s16 -48 16 -78c0 -22.667 -3.66699 -43.334 -11 -62.001s-17.333 -35.334 -30 -50.001s-27.667 -27 -45 -37s-36 -17.333 -56 -22c52.667 -9.33301 92.667 -29 120 -59s41 -68 41 -114c0 -28.667 -5.83301 -55.334 -17.5 -80.001s-27.667 -46 -48 -64
s-44.333 -32 -72 -42s-57.5 -15 -89.5 -15c-40.667 0 -74.5 5.5 -101.5 16.5s-49 25.167 -66 42.5s-30.167 36.5 -39.5 57.5s-17 41.833 -23 62.5l16 8c4.66699 2 9.83398 2.66699 15.501 2s9.83398 -4.66699 12.501 -12c2 -4.66699 5.33301 -14.667 10 -30
s13.5 -31.333 26.5 -48s31.333 -31.5 55 -44.5s54.834 -19.5 93.501 -19.5c30.667 0 57.5 5 80.5 15s42.333 23 58 39s27.334 33.667 35.001 53s11.5 38.333 11.5 57c0 22.667 -3.83301 43.5 -11.5 62.5s-19.667 35.5 -36 49.5s-37.666 24.833 -63.999 32.5
s-58.166 11.5 -95.499 11.5v29c61.333 2 108.333 16.833 141 44.5s49 64.5 49 110.5c0 25.333 -4.33301 47.333 -13 66s-20.334 34 -35.001 46s-31.5 21 -50.5 27s-38.833 9 -59.5 9c-46.667 0 -84.834 -13.333 -114.501 -40s-49.167 -61.334 -58.5 -104.001
c-3.33301 -9.33301 -10.333 -13.666 -21 -12.999zM1197 237.003v384c0 11.333 1 24 3 38l-317 -422h314zM1369 237.003v-20c0 -8 -4.33301 -12 -13 -12h-122v-205h-37v205h-337c-11.333 0 -17 3.33301 -17 10l-4 19l357 473h38v-470h135z" />
    <glyph glyph-name="questiondown" unicode="&#xbf;" horiz-adv-x="825" 
d="M737 -230c-16.667 -17.333 -35.5029 -34.333 -56.5029 -51s-44.5 -31.334 -70.5 -44.001s-54.333 -22.834 -85 -30.501s-64 -11.5 -100 -11.5c-43.333 0 -84.833 6.5 -124.5 19.5s-74.667 32 -105 57s-54.5 55.5 -72.5 91.5s-27 76.667 -27 122c0 50 8 93 24 129
s36.333 67 61 93s51.167 48.667 79.5 68l79.5 55c24.667 17.333 45.334 34.833 62.001 52.5s25.667 38.5 27 62.5l9 169h35l2 -173c0.666992 -20 -3.66602 -38 -12.999 -54s-21.666 -31 -36.999 -45s-32.833 -27.5 -52.5 -40.5l-60.5 -41c-20.667 -14.333 -41 -30 -61 -47
s-37.667 -36.333 -53 -58s-27.833 -46.167 -37.5 -73.5s-14.5 -58.666 -14.5 -93.999c0 -39.333 7.83301 -74.5 23.5 -105.5s36.5 -57.167 62.5 -78.5s56 -37.666 90 -48.999s69.333 -17 106 -17c46 0 85.833 6.33301 119.5 19s62 26.667 85 42s40.833 29.333 53.5 42
s20.667 19 24 19c5.33301 0 10 -2.66699 14 -8zM380.997 925c0 21.333 7.16699 39.5 21.5 54.5s32.166 22.5 53.499 22.5s39.5 -7.5 54.5 -22.5s22.5 -33.167 22.5 -54.5s-7.5 -39.166 -22.5 -53.499s-33.167 -21.5 -54.5 -21.5s-39.166 7.16699 -53.499 21.5
s-21.5 32.166 -21.5 53.499z" />
    <glyph glyph-name="Agrave" unicode="&#xc0;" horiz-adv-x="1289" 
d="M987 504l-322 783c-7.33301 18 -14.333 38 -21 60c-6 -22 -13 -42 -21 -60l-322 -783h686zM1253 0h-43c-10 0 -17.333 5.66699 -22 17l-183 445h-722l-183 -445c-3.33301 -11.333 -11 -17 -23 -17h-41l582 1406h53zM443 1836c13.333 0 23.333 -1.16797 30 -3.50098
s13 -7.16602 19 -14.499l245 -279h-33c-5.33301 0 -10 0.5 -14 1.5s-8 3.5 -12 7.5l-300 288h65z" />
    <glyph glyph-name="Aacute" unicode="&#xc1;" horiz-adv-x="1289" 
d="M987 504l-322 783c-7.33301 18 -14.333 38 -21 60c-6 -22 -13 -42 -21 -60l-322 -783h686zM1253 0h-43c-10 0 -17.333 5.66699 -22 17l-183 445h-722l-183 -445c-3.33301 -11.333 -11 -17 -23 -17h-41l582 1406h53zM945 1836l-329 -287.999
c-6.66699 -6 -15.334 -9 -26.001 -9h-34l272 279c6.66699 7.33301 13.334 12.166 20.001 14.499s16.667 3.5 30 3.5h67z" />
    <glyph glyph-name="Acircumflex" unicode="&#xc2;" horiz-adv-x="1289" 
d="M987 504l-322 783c-7.33301 18 -14.333 38 -21 60c-6 -22 -13 -42 -21 -60l-322 -783h686zM1253 0h-43c-10 0 -17.333 5.66699 -22 17l-183 445h-722l-183 -445c-3.33301 -11.333 -11 -17 -23 -17h-41l582 1406h53zM899 1539h-39.999c-4 0 -8.5 0.666992 -13.5 2
s-9.83301 4.66602 -14.5 9.99902l-182 209c-2.66699 2 -4.33398 4.66699 -5.00098 8c-1.33301 -3.33301 -3 -6 -5 -8l-182 -209c-4.66699 -5.33301 -9.5 -8.66602 -14.5 -9.99902s-9.5 -2 -13.5 -2h-39l233 266h43z" />
    <glyph glyph-name="Atilde" unicode="&#xc3;" horiz-adv-x="1289" 
d="M987 504l-322 783c-7.33301 18 -14.333 38 -21 60c-6 -22 -13 -42 -21 -60l-322 -783h686zM1253 0h-43c-10 0 -17.333 5.66699 -22 17l-183 445h-722l-183 -445c-3.33301 -11.333 -11 -17 -23 -17h-41l582 1406h53zM772 1592c32.667 0 58.335 10.833 77.002 32.5
s28.667 47.834 30 78.501h33c0 -20 -3 -39 -9 -57s-14.833 -33.833 -26.5 -47.5s-26 -24.5 -43 -32.5s-36.5 -12 -58.5 -12c-23.333 0 -45.5 6 -66.5 18s-41.667 25 -62 39s-40.166 27 -59.499 39s-38.666 18 -57.999 18c-16 0 -30.5 -3 -43.5 -9
s-24.167 -14.167 -33.5 -24.5s-16.5 -22.333 -21.5 -36s-7.83301 -27.834 -8.5 -42.501h-35c0 20 3.16699 39 9.5 57s15.5 34 27.5 48s26.5 25 43.5 33s36.167 12 57.5 12c23.333 0 45.666 -6 66.999 -18s42.166 -25 62.499 -39s40.166 -27 59.499 -39
s38.666 -18 57.999 -18z" />
    <glyph glyph-name="Adieresis" unicode="&#xc4;" horiz-adv-x="1289" 
d="M987 504l-322 783c-7.33301 18 -14.333 38 -21 60c-6 -22 -13 -42 -21 -60l-322 -783h686zM1253 0h-43c-10 0 -17.333 5.66699 -22 17l-183 445h-722l-183 -445c-3.33301 -11.333 -11 -17 -23 -17h-41l582 1406h53zM521 1664c0 -16.667 -6.66602 -31.5 -19.999 -44.5
s-28.666 -19.5 -45.999 -19.5c-8.66699 0 -17 1.83301 -25 5.5s-15 8.5 -21 14.5s-10.833 12.833 -14.5 20.5s-5.5 15.5 -5.5 23.5c0 18 6.66699 33.667 20 47s28.666 20 45.999 20s32.666 -6.66699 45.999 -20s20 -29 20 -47zM899.001 1664
c0 -16.667 -6.83301 -31.5 -20.5 -44.5s-28.834 -19.5 -45.501 -19.5c-18 0 -33.5 6.5 -46.5 19.5s-19.5 27.833 -19.5 44.5c0 18 6.5 33.667 19.5 47s28.5 20 46.5 20c16.667 0 31.834 -6.66699 45.501 -20s20.5 -29 20.5 -47z" />
    <glyph glyph-name="Aring" unicode="&#xc5;" horiz-adv-x="1289" 
d="M987 504l-322 783c-7.33301 18 -14.333 38 -21 60c-6 -22 -13 -42 -21 -60l-322 -783h686zM1253 0h-43c-10 0 -17.333 5.66699 -22 17l-183 445h-722l-183 -445c-3.33301 -11.333 -11 -17 -23 -17h-41l582 1406h53zM488 1678c0 21.333 4.16699 41.166 12.5 59.499
s19.5 34.166 33.5 47.499s30.5 23.833 49.5 31.5s39.167 11.5 60.5 11.5s41.5 -3.83301 60.5 -11.5s35.5 -18.167 49.5 -31.5s25.167 -29.166 33.5 -47.499s12.5 -38.166 12.5 -59.499s-4.16699 -41.166 -12.5 -59.499s-19.5 -34.166 -33.5 -47.499
s-30.5 -23.666 -49.5 -30.999s-39.167 -11 -60.5 -11s-41.5 3.66699 -60.5 11s-35.5 17.666 -49.5 30.999s-25.167 29.166 -33.5 47.499s-12.5 38.166 -12.5 59.499zM523 1678c0 -17.333 3 -33.333 9 -48s14.333 -27.5 25 -38.5s23.5 -19.5 38.5 -25.5s31.167 -9 48.5 -9
s33.5 3 48.5 9s27.833 14.5 38.5 25.5s19 23.833 25 38.5s9 30.667 9 48c0 35.333 -11.333 64.5 -34 87.5s-51.667 34.5 -87 34.5s-64.333 -11.5 -87 -34.5s-34 -52.167 -34 -87.5z" />
    <glyph glyph-name="AE" unicode="&#xc6;" horiz-adv-x="1852" 
d="M950 504l-110 858c-4 -12.667 -8.5 -24.5 -13.5 -35.5s-10.833 -22.5 -17.5 -34.5l-446 -788h587zM1744 47l-2 -47h-727l-59 462h-616l-253 -447c-5.33301 -10 -13.333 -15 -24 -15h-44l795 1406h928v-47h-850l80 -623h648v-46h-642l83 -643h683z" />
    <glyph glyph-name="Ccedilla" unicode="&#xc7;" horiz-adv-x="1360" 
d="M778 -103c28.667 -4.66699 54.666 -10.3271 77.999 -16.9941s43 -15 59 -25s28.333 -22.333 37 -37s13 -32 13 -52c0 -39.333 -15.667 -69.833 -47 -91.5s-71.333 -32.5 -120 -32.5c-27.333 0 -54.333 4.5 -81 13.5s-48 20.5 -64 34.5l7 14c4 5.33301 8 8 12 8
c3.33301 0 7.83301 -2.16699 13.5 -6.5s13.5 -9 23.5 -14s22.5 -9.5 37.5 -13.5s33.167 -6 54.5 -6c38 0 67.5 8.16699 88.5 24.5s31.5 38.833 31.5 67.5c0 19.333 -4.83301 35.166 -14.5 47.499s-22.834 22.5 -39.501 30.5s-36.334 14.167 -59.001 18.5
s-47 8.16602 -73 11.499l35 112c-93.333 2 -179.333 20.167 -258 54.5s-146.5 82.5 -203.5 144.5s-101.333 137 -133 225s-47.5 186.333 -47.5 295c0 107.333 16.333 205.166 49 293.499s78.834 164 138.501 227s131 111.833 214 146.5s174.5 52 274.5 52
c94 0 177.333 -14.333 250 -43s140.334 -70 203.001 -124l-15 -22c-2.66699 -4.66699 -8 -7 -16 -7c-4 0 -10.833 3.66699 -20.5 11l-38 27.5c-15.667 11 -34.667 23 -57 36s-48.5 25 -78.5 36s-64 20.167 -102 27.5s-80 11 -126 11c-90.667 0 -174 -15.667 -250 -47
s-141.333 -76 -196 -134s-97.167 -128.5 -127.5 -211.5s-45.5 -176.167 -45.5 -279.5c0 -105.333 15.167 -199.5 45.5 -282.5s72.5 -153.333 126.5 -211s117.667 -101.834 191 -132.501s153 -46 239 -46c54 0 102.333 3.66699 145 11s81.834 18.333 117.501 33
s68.667 32.667 99 54s60.5 45.666 90.5 72.999c4.66699 4.66699 9 7 13 7c2.66699 0 6.33398 -1.66699 11.001 -5l21 -22c-28.667 -28.667 -59.334 -54.834 -92.001 -78.501s-68.5 -44.167 -107.5 -61.5s-81.5 -31 -127.5 -41s-96.667 -15.667 -152 -17z" />
    <glyph glyph-name="Egrave" unicode="&#xc8;" horiz-adv-x="1163" 
d="M1055 47l-2 -47h-830v1406h830v-47h-775v-623h653v-46h-653v-643h777zM445 1836c13.333 0 23.333 -1.16797 30 -3.50098s13 -7.16602 19 -14.499l245 -279h-33c-5.33301 0 -10 0.5 -14 1.5s-8 3.5 -12 7.5l-300 288h65z" />
    <glyph glyph-name="Eacute" unicode="&#xc9;" horiz-adv-x="1163" 
d="M1055 47l-2 -47h-830v1406h830v-47h-775v-623h653v-46h-653v-643h777zM947 1836l-329 -287.999c-6.66699 -6 -15.334 -9 -26.001 -9h-34l272 279c6.66699 7.33301 13.334 12.166 20.001 14.499s16.667 3.5 30 3.5h67z" />
    <glyph glyph-name="Ecircumflex" unicode="&#xca;" horiz-adv-x="1163" 
d="M1055 47l-2 -47h-830v1406h830v-47h-775v-623h653v-46h-653v-643h777zM901 1539h-39.999c-4 0 -8.5 0.666992 -13.5 2s-9.83301 4.66602 -14.5 9.99902l-182 209c-2.66699 2 -4.33398 4.66699 -5.00098 8c-1.33301 -3.33301 -3 -6 -5 -8l-182 -209
c-4.66699 -5.33301 -9.5 -8.66602 -14.5 -9.99902s-9.5 -2 -13.5 -2h-39l233 266h43z" />
    <glyph glyph-name="Edieresis" unicode="&#xcb;" horiz-adv-x="1163" 
d="M1055 47l-2 -47h-830v1406h830v-47h-775v-623h653v-46h-653v-643h777zM523 1664c0 -16.667 -6.66602 -31.5 -19.999 -44.5s-28.666 -19.5 -45.999 -19.5c-8.66699 0 -17 1.83301 -25 5.5s-15 8.5 -21 14.5s-10.833 12.833 -14.5 20.5s-5.5 15.5 -5.5 23.5
c0 18 6.66699 33.667 20 47s28.666 20 45.999 20s32.666 -6.66699 45.999 -20s20 -29 20 -47zM901.001 1664c0 -16.667 -6.83301 -31.5 -20.5 -44.5s-28.834 -19.5 -45.501 -19.5c-18 0 -33.5 6.5 -46.5 19.5s-19.5 27.833 -19.5 44.5c0 18 6.5 33.667 19.5 47
s28.5 20 46.5 20c16.667 0 31.834 -6.66699 45.501 -20s20.5 -29 20.5 -47z" />
    <glyph glyph-name="Igrave" unicode="&#xcc;" horiz-adv-x="501" 
d="M278 0h-55v1406h55v-1406zM52 1836c13.333 0 23.333 -1.16797 30 -3.50098s13 -7.16602 19 -14.499l245 -279h-33c-5.33301 0 -10 0.5 -14 1.5s-8 3.5 -12 7.5l-300 288h65z" />
    <glyph glyph-name="Iacute" unicode="&#xcd;" horiz-adv-x="501" 
d="M278 0h-55v1406h55v-1406zM554 1836l-329 -287.999c-6.66699 -6 -15.334 -9 -26.001 -9h-34l272 279c6.66699 7.33301 13.334 12.166 20.001 14.499s16.667 3.5 30 3.5h67z" />
    <glyph glyph-name="Icircumflex" unicode="&#xce;" horiz-adv-x="501" 
d="M278 0h-55v1406h55v-1406zM508 1539h-39.999c-4 0 -8.5 0.666992 -13.5 2s-9.83301 4.66602 -14.5 9.99902l-182 209c-2.66699 2 -4.33398 4.66699 -5.00098 8c-1.33301 -3.33301 -3 -6 -5 -8l-182 -209c-4.66699 -5.33301 -9.5 -8.66602 -14.5 -9.99902
s-9.5 -2 -13.5 -2h-39l233 266h43z" />
    <glyph glyph-name="Idieresis" unicode="&#xcf;" horiz-adv-x="501" 
d="M278 0h-55v1406h55v-1406zM130 1664c0 -16.667 -6.66602 -31.5 -19.999 -44.5s-28.666 -19.5 -45.999 -19.5c-8.66699 0 -17 1.83301 -25 5.5s-15 8.5 -21 14.5s-10.833 12.833 -14.5 20.5s-5.5 15.5 -5.5 23.5c0 18 6.66699 33.667 20 47s28.666 20 45.999 20
s32.666 -6.66699 45.999 -20s20 -29 20 -47zM508.001 1664c0 -16.667 -6.83301 -31.5 -20.5 -44.5s-28.834 -19.5 -45.501 -19.5c-18 0 -33.5 6.5 -46.5 19.5s-19.5 27.833 -19.5 44.5c0 18 6.5 33.667 19.5 47s28.5 20 46.5 20c16.667 0 31.834 -6.66699 45.501 -20
s20.5 -29 20.5 -47z" />
    <glyph glyph-name="Eth" unicode="&#xd0;" horiz-adv-x="1531" 
d="M741 45c89.333 0 170.833 14.665 244.5 43.998s137 72 190 128s94 124.833 123 206.5s43.5 174.834 43.5 279.501s-14.5 197.834 -43.5 279.501s-70 150.5 -123 206.5s-116.333 98.667 -190 128s-155.167 44 -244.5 44h-451v-628h334v-38h-334v-650h451zM741 1406
c98 0 187.333 -16 268 -48s150 -78.167 208 -138.5s103 -134 135 -221s48 -185.5 48 -295.5s-16 -208.5 -48 -295.5s-77 -160.667 -135 -221s-127.333 -106.5 -208 -138.5s-170 -48 -268 -48h-506v695h-226v38h226v673h506z" />
    <glyph glyph-name="Ntilde" unicode="&#xd1;" horiz-adv-x="1502" 
d="M1279 1406l0.000976562 -1406h-23c-8.66699 0 -16 4 -22 12l-965 1304c0.666992 -6 1.16699 -12.167 1.5 -18.5s0.5 -12.166 0.5 -17.499v-1280h-48v1406h25c5.33301 0 9.66602 -0.833008 12.999 -2.5s7 -5.16699 11 -10.5l961 -1299c-0.666992 6 -1.16699 12 -1.5 18
s-0.5 11.667 -0.5 17v1277h48zM905.001 1590c32.667 0 58.335 10.833 77.002 32.5s28.667 47.834 30 78.501h33c0 -20 -3 -39 -9 -57s-14.833 -33.833 -26.5 -47.5s-26 -24.5 -43 -32.5s-36.5 -12 -58.5 -12c-23.333 0 -45.5 6 -66.5 18s-41.667 25 -62 39
s-40.166 27 -59.499 39s-38.666 18 -57.999 18c-16 0 -30.5 -3 -43.5 -9s-24.167 -14.167 -33.5 -24.5s-16.5 -22.333 -21.5 -36s-7.83301 -27.834 -8.5 -42.501h-35c0 20 3.16699 39 9.5 57s15.5 34 27.5 48s26.5 25 43.5 33s36.167 12 57.5 12
c23.333 0 45.666 -6 66.999 -18s42.166 -25 62.499 -39s40.166 -27 59.499 -39s38.666 -18 57.999 -18z" />
    <glyph glyph-name="Ograve" unicode="&#xd2;" horiz-adv-x="1574" 
d="M1445 703c0 -110 -16 -209.167 -48 -297.5s-77 -163.666 -135 -225.999s-127.333 -110.166 -208 -143.499s-170 -50 -268 -50c-96.667 0 -185.334 16.667 -266.001 50s-150 81.166 -208 143.499s-103 137.666 -135 225.999s-48 187.5 -48 297.5
c0 109.333 16 208.333 48 297s77 164.167 135 226.5s127.333 110.5 208 144.5s169.334 51 266.001 51c98 0 187.333 -16.833 268 -50.5s150 -81.667 208 -144s103 -137.833 135 -226.5s48 -188 48 -298zM1387 703c0 104.667 -14.5 198.5 -43.5 281.5s-70 153.5 -123 211.5
s-116.333 102.333 -190 133s-155.167 46 -244.5 46c-88 0 -168.833 -15.333 -242.5 -46s-137 -75 -190 -133s-94.333 -128.5 -124 -211.5s-44.5 -176.833 -44.5 -281.5s14.833 -198.5 44.5 -281.5s71 -153.167 124 -210.5s116.333 -101.333 190 -132s154.5 -46 242.5 -46
c89.333 0 170.833 15.333 244.5 46s137 74.667 190 132s94 127.5 123 210.5s43.5 176.833 43.5 281.5zM587 1836c13.333 0 23.333 -1.16797 30 -3.50098s13 -7.16602 19 -14.499l245 -279h-33c-5.33301 0 -10 0.5 -14 1.5s-8 3.5 -12 7.5l-300 288h65z" />
    <glyph glyph-name="Oacute" unicode="&#xd3;" horiz-adv-x="1574" 
d="M1445 703c0 -110 -16 -209.167 -48 -297.5s-77 -163.666 -135 -225.999s-127.333 -110.166 -208 -143.499s-170 -50 -268 -50c-96.667 0 -185.334 16.667 -266.001 50s-150 81.166 -208 143.499s-103 137.666 -135 225.999s-48 187.5 -48 297.5
c0 109.333 16 208.333 48 297s77 164.167 135 226.5s127.333 110.5 208 144.5s169.334 51 266.001 51c98 0 187.333 -16.833 268 -50.5s150 -81.667 208 -144s103 -137.833 135 -226.5s48 -188 48 -298zM1387 703c0 104.667 -14.5 198.5 -43.5 281.5s-70 153.5 -123 211.5
s-116.333 102.333 -190 133s-155.167 46 -244.5 46c-88 0 -168.833 -15.333 -242.5 -46s-137 -75 -190 -133s-94.333 -128.5 -124 -211.5s-44.5 -176.833 -44.5 -281.5s14.833 -198.5 44.5 -281.5s71 -153.167 124 -210.5s116.333 -101.333 190 -132s154.5 -46 242.5 -46
c89.333 0 170.833 15.333 244.5 46s137 74.667 190 132s94 127.5 123 210.5s43.5 176.833 43.5 281.5zM1089 1836l-329 -287.999c-6.66699 -6 -15.334 -9 -26.001 -9h-34l272 279c6.66699 7.33301 13.334 12.166 20.001 14.499s16.667 3.5 30 3.5h67z" />
    <glyph glyph-name="Ocircumflex" unicode="&#xd4;" horiz-adv-x="1574" 
d="M1445 703c0 -110 -16 -209.167 -48 -297.5s-77 -163.666 -135 -225.999s-127.333 -110.166 -208 -143.499s-170 -50 -268 -50c-96.667 0 -185.334 16.667 -266.001 50s-150 81.166 -208 143.499s-103 137.666 -135 225.999s-48 187.5 -48 297.5
c0 109.333 16 208.333 48 297s77 164.167 135 226.5s127.333 110.5 208 144.5s169.334 51 266.001 51c98 0 187.333 -16.833 268 -50.5s150 -81.667 208 -144s103 -137.833 135 -226.5s48 -188 48 -298zM1387 703c0 104.667 -14.5 198.5 -43.5 281.5s-70 153.5 -123 211.5
s-116.333 102.333 -190 133s-155.167 46 -244.5 46c-88 0 -168.833 -15.333 -242.5 -46s-137 -75 -190 -133s-94.333 -128.5 -124 -211.5s-44.5 -176.833 -44.5 -281.5s14.833 -198.5 44.5 -281.5s71 -153.167 124 -210.5s116.333 -101.333 190 -132s154.5 -46 242.5 -46
c89.333 0 170.833 15.333 244.5 46s137 74.667 190 132s94 127.5 123 210.5s43.5 176.833 43.5 281.5zM1043 1539h-39.999c-4 0 -8.5 0.666992 -13.5 2s-9.83301 4.66602 -14.5 9.99902l-182 209c-2.66699 2 -4.33398 4.66699 -5.00098 8c-1.33301 -3.33301 -3 -6 -5 -8
l-182 -209c-4.66699 -5.33301 -9.5 -8.66602 -14.5 -9.99902s-9.5 -2 -13.5 -2h-39l233 266h43z" />
    <glyph glyph-name="Otilde" unicode="&#xd5;" horiz-adv-x="1574" 
d="M1445 703c0 -110 -16 -209.167 -48 -297.5s-77 -163.666 -135 -225.999s-127.333 -110.166 -208 -143.499s-170 -50 -268 -50c-96.667 0 -185.334 16.667 -266.001 50s-150 81.166 -208 143.499s-103 137.666 -135 225.999s-48 187.5 -48 297.5
c0 109.333 16 208.333 48 297s77 164.167 135 226.5s127.333 110.5 208 144.5s169.334 51 266.001 51c98 0 187.333 -16.833 268 -50.5s150 -81.667 208 -144s103 -137.833 135 -226.5s48 -188 48 -298zM1387 703c0 104.667 -14.5 198.5 -43.5 281.5s-70 153.5 -123 211.5
s-116.333 102.333 -190 133s-155.167 46 -244.5 46c-88 0 -168.833 -15.333 -242.5 -46s-137 -75 -190 -133s-94.333 -128.5 -124 -211.5s-44.5 -176.833 -44.5 -281.5s14.833 -198.5 44.5 -281.5s71 -153.167 124 -210.5s116.333 -101.333 190 -132s154.5 -46 242.5 -46
c89.333 0 170.833 15.333 244.5 46s137 74.667 190 132s94 127.5 123 210.5s43.5 176.833 43.5 281.5zM916 1592c32.667 0 58.335 10.833 77.002 32.5s28.667 47.834 30 78.501h33c0 -20 -3 -39 -9 -57s-14.833 -33.833 -26.5 -47.5s-26 -24.5 -43 -32.5
s-36.5 -12 -58.5 -12c-23.333 0 -45.5 6 -66.5 18s-41.667 25 -62 39s-40.166 27 -59.499 39s-38.666 18 -57.999 18c-16 0 -30.5 -3 -43.5 -9s-24.167 -14.167 -33.5 -24.5s-16.5 -22.333 -21.5 -36s-7.83301 -27.834 -8.5 -42.501h-35c0 20 3.16699 39 9.5 57
s15.5 34 27.5 48s26.5 25 43.5 33s36.167 12 57.5 12c23.333 0 45.666 -6 66.999 -18s42.166 -25 62.499 -39s40.166 -27 59.499 -39s38.666 -18 57.999 -18z" />
    </font>
</defs>
</svg>
